osu file format v12

[General]
AudioFilename: dreams.mp3
AudioLeadIn: 0
PreviewTime: 46426
Countdown: 0
SampleSet: Normal
StackLeniency: 0.4
Mode: 0
LetterboxInBreaks: 0
EpilepsyWarning: 1

[Editor]
Bookmarks: 15934,31426,31672,42984,43475,62902,63148,78639,78885,88475,88721,98312,98557,108394,109377,125853,126098,141836,153639,157574,173066,173312,189049
DistanceSpacing: 1
BeatDivisor: 4
GridSize: 4

[Metadata]
Title:Sweet Dreams
TitleUnicode:Sweet Dreams
Artist:Beyonce
ArtistUnicode:Beyonce
Creator:Lally
Version:Nightmare
Source:
Tags:I Am... Sasha Fierce LoliFlan Lolicore Flandre -Bakari- BCI Black_Cherry_Ita Leader CXu Dark_Ai
BeatmapID:271670
BeatmapSetID:93920

[Difficulty]
HPDrainRate:6
CircleSize:4
OverallDifficulty:6
ApproachRate:7
SliderMultiplier:1.8
SliderTickRate:1

[Events]
//Background and Video events
0,0,"nightmare.jpg",0,0
//Break Periods
2,142321,152157
//Storyboard Layer 0 (Background)
//Storyboard Layer 1 (Fail)
//Storyboard Layer 2 (Pass)
//Storyboard Layer 3 (Foreground)
Sprite,Foreground,Centre,"SB\Lally.png",100,100 F,0,15927,30682,1 F,0,30682,31665,1,0 F,0,78632,78878,0,1 F,0,78878,88468,1 F,0,88468,88714,1,0
Sprite,Foreground,Centre,"SB\Lally.png",100,100 R,0,125846,125968,-0.02,-3.15 F,0,125846,126091,0 R,0,125968,126091,-3.15,-6.3 F,0,126091,139862,0 F,0,139862,141829,0
Sprite,Foreground,Centre,"SB\Lally.png",100,100 L,15927,1 F,0,0,492,1,0 S,0,0,492,1,1.1 L,47403,32 F,0,0,492,1 S,0,0,492,1,0.9 L,126091,32 F,0,0,492,1 S,0,0,492,1,0.9 L,63141,1 F,0,0,984,1,0 S,0,0,984,1,1.2
Sprite,Foreground,Centre,"SB\Loli.png",450,100 L,31665,1 F,0,0,984,1,0 S,0,0,984,1,1.2
Sprite,Foreground,Centre,"SB\Loli.png",450,100 F,0,31665,42977,1 F,0,42977,43960,1,0
Sprite,Foreground,Centre,"SB\BCI.png",290,100 R,0,62895,63018,-0.02,-3.15 F,0,62895,63141,1,0 S,0,62895,63141,0.6,1 R,0,63018,63141,-3.15,-6.3 F,0,63141,78878,0,1 F,0,78878,79370,1,0
Sprite,Foreground,Centre,"SB\BCI.png",290,100 L,63141,32 F,0,0,492,1 S,0,0,492,1,0.9
Sprite,Foreground,Centre,"SB\baka.png",320,240 M,0,88468,88591,710,400,490,400 F,0,88468,98069,1 M,0,88591,98550,490,400,400,400 F,0,98059,98550,1,0
Sprite,Foreground,Centre,"SB\Ai.png",320,240 F,0,98305,98438,0,1 M,0,98305,98562,115,400 S,0,98305,98562,3,1 F,0,98428,106419,1 M,0,98550,108387,120,400,180,400 F,0,106509,108387,1,0
Sprite,Foreground,Centre,"SB\Leader.png",450,100 L,110354,32 F,0,0,492,1 S,0,0,492,1,0.9 L,126091,1 F,0,0,984,1,0 S,0,0,984,1,1.2
Sprite,Foreground,Centre,"SB\Lally.png",100,100 L,157567,32 F,0,0,492,1 S,0,0,492,1,0.9 F,0,173311,173796,1,0
Sprite,Foreground,Centre,"SB\cxu.png",290,400 L,173305,1 F,0,0,984,1,0 S,0,0,984,1,1.2 L,189042,1 F,0,0,1968,1,0 S,0,0,1968,1,1.2
Sprite,Foreground,Centre,"SB\cxu.png",290,400 L,173305,32 F,0,0,492,1 S,0,0,492,1,0.9
//Storyboard Sound Samples
//Background Colour Transformations
3,100,163,162,255

[TimingPoints]
15928,491.803278688525,4,2,1,60,1,0
31665,-100,4,1,1,60,0,0
31788,-100,4,2,1,60,0,0
45436,-100,4,2,1,30,0,0
46419,-100,4,2,1,40,0,0
47403,-90.9090909090909,4,1,1,80,0,1
47526,-90.9090909090909,4,1,1,70,0,1
55026,-90.9090909090909,4,1,1,70,0,0
55272,-90.9090909090909,4,1,1,90,0,1
55395,-90.9090909090909,4,1,1,70,0,1
66091,-90.9090909090909,4,1,1,50,0,1
66214,-90.9090909090909,4,1,1,55,0,1
66337,-90.9090909090909,4,1,1,60,0,1
66460,-90.9090909090909,4,1,1,65,0,1
66583,-90.9090909090909,4,1,1,70,0,1
70149,-90.9090909090909,4,2,1,70,0,1
70395,-90.9090909090909,4,2,1,70,0,1
70764,-90.9090909090909,4,2,1,80,0,0
71009,-90.9090909090909,4,1,1,90,0,1
71132,-90.9090909090909,4,1,1,70,0,1
71993,-90.9090909090909,4,1,1,50,0,1
72116,-90.9090909090909,4,1,1,55,0,1
72239,-90.9090909090909,4,1,1,60,0,1
72362,-90.9090909090909,4,1,1,65,0,1
72485,-90.9090909090909,4,1,1,70,0,1
74083,-90.9090909090909,4,1,1,55,0,1
74206,-90.9090909090909,4,1,1,60,0,1
74329,-90.9090909090909,4,1,1,65,0,1
74452,-90.9090909090909,4,1,1,70,0,1
75928,-90.9090909090909,4,1,1,50,0,1
76050,-90.9090909090909,4,1,1,55,0,1
76173,-90.9090909090909,4,1,1,60,0,1
76296,-90.9090909090909,4,1,1,65,0,1
76419,-90.9090909090909,4,1,1,70,0,1
78878,-100,4,2,1,60,0,0
94616,-100,4,1,1,60,0,0
94739,-100,4,2,1,60,0,0
108387,-100,4,2,1,30,0,0
109370,-100,4,2,1,40,0,0
109739,-100,4,2,1,60,0,0
110354,-90.9090909090909,4,1,1,90,0,1
110477,-90.9090909090909,4,1,1,80,0,1
117977,-90.9090909090909,4,1,1,70,0,0
118223,-90.9090909090909,4,1,1,90,0,1
118346,-90.9090909090909,4,1,1,80,0,1
132977,-90.9090909090909,4,2,1,40,0,1
133223,-90.9090909090909,4,2,1,70,0,1
133468,-90.9090909090909,4,2,1,60,0,1
133714,-90.9090909090909,4,2,1,70,0,0
133960,-90.9090909090909,4,1,1,90,0,1
134083,-90.9090909090909,4,1,1,80,0,1
141829,-100,4,2,1,60,0,0
155600,-100,4,2,1,30,0,0
156583,-100,4,2,1,40,0,0
157567,-83.3333333333333,4,1,1,90,0,1
157690,-83.3333333333333,4,1,1,80,0,1
165190,-83.3333333333333,4,1,1,70,0,0
165436,-83.3333333333333,4,1,1,90,0,1
165559,-83.3333333333333,4,1,1,80,0,1
180190,-83.3333333333333,4,2,1,80,0,1
180928,-83.3333333333333,4,2,1,70,0,0
181173,-83.3333333333333,4,1,1,90,0,1
181296,-83.3333333333333,4,1,1,80,0,1
189042,-83.3333333333333,4,2,1,50,0,0

[Colours]
Combo1 : 231,182,33
Combo2 : 79,50,133
Combo3 : 31,114,120
Combo4 : 27,77,152
Combo5 : 240,183,104
Combo6 : 249,101,57
Combo7 : 147,0,0
Combo8 : 87,102,162

[HitObjects]
72,228,15927,22,0,P|112:164|176:152,1,135,14|8,0:0|0:0,0:0:0:0:
204,176,16419,2,0,P|252:196|304:176,1,90,0|0,1:0|0:0,0:0:0:0:
312,100,16911,2,0,P|352:120|372:168,1,90,2|0,0:0|0:0,0:0:0:0:
368,248,17403,2,0,P|392:288|440:304,1,90,0|0,1:0|0:0,0:0:0:0:
452,216,17895,6,0,P|464:160|440:112,1,90,10|0,0:0|0:0,0:0:0:0:
424,96,18264,1,8,0:0:0:0:
400,56,18387,2,0,P|436:24|488:20,2,90,0|0|2,1:0|0:0|0:0,0:0:0:0:
256,164,19370,1,0,1:0:0:0:
136,32,19862,102,0,P|76:48|44:124,1,135,10|8,0:0|0:0,0:0:0:0:
48,156,20354,2,0,P|96:184|108:228,1,90,0|0,1:0|0:0,0:0:0:0:
124,304,20846,1,2,0:0:0:0:
208,336,21091,1,0,0:0:0:0:
192,248,21337,2,0,P|214:224|269:217,1,90,0|0,1:0|0:0,0:0:0:0:
292,304,21829,6,0,P|352:236|328:152,1,180,10|0,0:0|1:0,0:0:0:0:
256,132,22567,1,0,0:0:0:0:
308,68,22813,2,0,P|336:28|384:24,1,90,2|0,0:0|0:0,0:0:0:0:
204,68,23305,2,0,P|176:28|128:24,1,90,0|0,1:0|0:0,0:0:0:0:
128,112,23796,102,0,P|100:156|20:148,1,135,10|8,0:0|0:0,0:0:0:0:
12,108,24288,2,0,P|12:64|52:28,2,90,0|0|2,1:0|0:0|0:0,0:0:0:0:
28,196,25026,1,0,0:0:0:0:
52,284,25272,2,0,P|80:324|140:336,1,90,0|0,1:0|0:0,0:0:0:0:
184,276,25764,6,0,P|224:208|300:208,1,135,10|8,0:0|0:0,0:0:0:0:
320,208,26255,2,0,P|372:204|404:164,1,90,0|0,1:0|0:0,0:0:0:0:
440,100,26747,1,2,0:0:0:0:
352,96,26993,2,0,P|304:68|300:32,1,90,0|0,0:0|1:0,0:0:0:0:
212,64,27485,1,0,0:0:0:0:
212,64,27731,102,0,P|244:124|216:184,1,135,10|8,0:0|0:0,0:0:0:0:
184,208,28223,2,0,P|124:248|116:284,1,90,0|0,1:0|0:0,0:0:0:0:
136,352,28714,2,0,P|196:312|204:276,1,90,2|0,0:0|0:0,0:0:0:0:
184,208,29206,2,0,P|224:172|272:172,1,90,0|0,1:0|0:0,0:0:0:0:
300,248,29698,6,0,P|344:184|304:92,1,180,10|0,0:0|1:0,0:0:0:0:
220,84,30436,1,0,0:0:0:0:
148,136,30682,2,0,P|108:172|108:224,1,90,2|0,0:0|0:0,0:0:0:0:
160,276,31173,2,0,P|200:300|212:348,1,90,0|0,1:0|0:0,0:0:0:0:
299,339,31665,86,0,P|312:300|352:276,1,90,4|0,0:0|0:0,0:0:0:0:
396,280,32034,1,8,0:0:0:0:
440,268,32157,2,0,P|468:231|466:189,1,90,0|0,1:0|0:0,0:0:0:0:
376,200,32649,2,0,P|349:161|309:150,1,90,2|0,0:0|0:0,0:0:0:0:
228,184,33141,1,0,1:0:0:0:
228,184,33632,86,0,P|224:280|156:316,1,180,10|0,0:0|1:0,0:0:0:0:
68,304,34370,1,0,0:0:0:0:
12,232,34616,2,0,P|16:136|84:100,1,180,2|0,0:0|1:0,0:0:0:0:
216,220,35600,2,0,P|307:250|354:217,1,135,10|8,0:0|0:0,0:0:0:0:
372,204,36091,2,0,P|404:156|460:144,1,90,0|0,1:0|0:0,0:0:0:0:
116,116,37075,1,0,1:0:0:0:
48,68,37321,21,0,0:0:0:0:
48,68,37567,2,0,P|36:140|76:188,1,135,10|8,0:0|0:0,0:0:0:0:
116,200,38059,2,0,P|153:224|162:266,1,90,0|0,1:0|0:0,0:0:0:0:
241,225,38550,86,0,P|272:255|320:254,1,90,2|0,0:0|0:0,0:0:0:0:
311,163,39042,2,0,P|281:133|232:134,1,90,0|0,1:0|0:0,0:0:0:0:
198,50,39534,2,0,P|151:90|146:162,1,135,10|8,0:0|0:0,0:3:0:0:
139,190,40026,2,0,L|51:222,1,90,0|0,1:0|0:0,0:0:0:0:
108,294,40518,22,0,L|195:262,1,90,2|0,0:0|0:0,0:0:0:0:
272,304,41009,1,0,1:0:0:0:
356,336,41255,1,0,0:0:0:0:
440,308,41501,2,0,P|396:252|332:244,1,135,10|8,0:0|0:0,0:0:0:0:
304,212,41993,2,0,P|339:140|430:141,2,180,0|2|0,1:0|0:0|1:0,0:0:0:0:
256,192,43468,12,2,45436,0:0:0:0:
256,348,46419,69,2,0:0:0:0:
332,271,46665,1,8,0:0:0:0:
180,271,46911,1,2,0:0:0:0:
409,193,47157,1,8,0:0:0:0:
102,194,47403,22,0,P|90:146|182:98,1,148.50000453186,4|2,0:0|0:0,0:0:0:0:
208,112,47895,2,0,P|252:136|304:112,1,99.0000030212403,8|0,0:0|0:0,0:0:0:0:
488,168,48632,2,0,P|444:144|392:168,1,99.0000030212403,0|8,0:0|0:0,0:0:0:0:
364,248,49124,1,0,0:0:0:0:
300,324,49370,70,0,P|240:344|168:272,1,148.50000453186,10|2,0:2|0:0,0:0:0:0:
148,252,49862,2,0,P|112:212|48:216,1,99.0000030212403,8|0,0:0|0:0,0:0:0:0:
12,128,50354,2,0,P|54:123|90:83,1,99.0000030212403,2|0,0:0|0:0,0:0:0:0:
176,32,50846,1,8,0:0:0:0:
256,96,51091,1,0,0:0:0:0:
336,32,51337,2,0,P|388:48|400:160,1,148.50000453186,10|2,0:2|0:0,0:0:0:0:
376,164,51829,102,0,P|336:204|336:248,1,99.0000030212403,8|0,0:0|0:0,0:0:0:0:
404,316,52321,2,0,P|360:344|308:340,1,99.0000030212403,2|0,0:0|0:0,0:0:0:0:
240,280,52813,2,0,P|196:240|140:248,1,99.0000030212403,8|0,0:0|0:0,0:0:0:0:
68,276,53305,2,0,P|64:212|128:148,1,148.50000453186,10|2,0:2|0:0,0:0:0:0:
168,160,53796,2,0,P|224:148|248:104,1,99.0000030212403,8|0,0:0|0:0,0:0:0:0:
328,56,54288,2,0,P|308:32|288:20,2,49.5000015106202,2|0|0,0:0|0:0|0:0,0:0:0:0:
464,84,54780,1,8,0:0:0:0:
364,180,55026,1,0,0:0:0:0:
295,344,55272,22,0,P|300:304|396:256,1,148.50000453186,4|2,0:0|0:0,0:0:0:0:
439,262,55764,2,0,P|491:218|491:182,1,99.0000030212403,8|0,0:0|0:0,0:0:0:0:
300,144,56501,2,0,P|248:188|248:224,1,99.0000030212403,2|8,0:0|0:0,0:0:0:0:
204,304,56993,1,0,0:0:0:0:
124,248,57239,22,0,P|96:200|152:120,1,148.50000453186,10|2,0:2|0:0,0:0:0:0:
180,104,57731,2,0,P|212:56|200:16,2,99.0000030212403,8|0|2,0:0|0:0|0:0,0:0:0:0:
216,196,58468,1,0,0:0:0:0:
256,288,58714,1,8,0:0:0:0:
256,288,59206,70,0,P|304:240|392:256,1,148.50000453186,10|2,0:2|0:0,0:0:0:0:
424,272,59698,2,0,P|472:244|472:184,1,99.0000030212403,8|0,0:0|0:0,0:0:0:0:
448,108,60190,2,0,P|416:68|360:56,1,99.0000030212403,2|0,0:0|0:0,0:0:0:0:
304,128,60682,2,0,P|252:160|208:140,1,99.0000030212403,8|0,0:0|0:0,0:0:0:0:
168,64,61173,102,0,P|112:44|64:68,1,99.0000030212403,10|0,0:2|0:0,0:0:0:0:
40,88,61542,1,2,0:0:0:0:
28,136,61665,2,0,P|64:172|68:236,1,99.0000030212403,8|0,0:0|0:0,0:0:0:0:
76,316,62157,1,2,0:0:0:0:
164,268,62403,2,0,P|188:244|200:216,2,49.5000015106202,0|0|8,0:0|0:0|0:0,0:0:0:0:
180,368,62895,1,0,0:0:0:0:
76,316,63141,22,0,P|68:256|116:184,1,148.50000453186,4|2,0:0|0:0,0:0:0:0:
144,184,63632,1,8,0:0:0:0:
192,76,63878,2,0,P|236:52|284:68,1,99.0000030212403,0|2,0:0|0:0,0:0:0:0:
348,164,64370,2,0,P|308:184|252:164,1,99.0000030212403,0|8,0:0|0:0,0:0:0:0:
144,184,64862,1,0,0:0:0:0:
192,76,65108,22,0,L|40:92,1,148.50000453186,10|2,0:2|0:0,0:0:0:0:
36,120,65600,2,0,P|28:176|44:220,1,99.0000030212403,8|0,0:0|0:0,0:0:0:0:
144,272,66091,1,2,0:0:0:0:
173,271,66214,1,0,0:0:0:0:
201,260,66337,1,0,0:0:0:0:
223,241,66460,1,0,0:0:0:0:
236,214,66583,1,8,0:0:0:0:
288,108,66829,1,0,0:0:0:0:
352,208,67075,70,0,P|404:232|468:212,1,99.0000030212403,10|0,0:2|0:0,0:0:0:0:
420,108,67567,1,8,0:0:0:0:
420,108,67813,2,0,P|356:80|284:112,1,148.50000453186,0|2,0:0|0:0,0:0:0:0:
268,132,68305,2,0,L|160:144,1,99.0000030212403,0|8,0:0|0:0,0:0:0:0:
236,240,68796,1,0,0:0:0:0:
352,208,69042,102,0,P|352:264|324:320,1,99.0000030212403,10|0,0:2|0:0,0:0:0:0:
236,240,69534,1,8,0:0:0:0:
236,240,69780,2,0,P|200:180|192:96,1,148.50000453186,0|8,0:0|0:0,0:0:0:0:
204,76,70272,21,2,0:0:0:0:
320,60,70518,1,8,0:0:0:0:
440,48,70764,1,2,0:0:0:0:
440,48,71009,22,0,B|460:112|460:112|444:192,1,148.50000453186,4|2,0:0|0:0,0:0:0:0:
424,212,71501,1,8,0:0:0:0:
348,300,71747,1,0,0:0:0:0:
300,192,71993,1,2,0:0:0:0:
272,188,72116,1,0,0:0:0:0:
244,188,72239,1,0,0:0:0:0:
216,200,72362,1,0,0:0:0:0:
196,224,72485,2,0,P|140:232|96:212,1,99.0000030212403,8|0,0:0|0:0,0:0:0:0:
164,116,72977,70,0,P|224:88|276:84,1,99.0000030212403,10|0,0:2|0:0,0:0:0:0:
360,28,73468,1,8,0:0:0:0:
360,28,73714,2,0,P|328:104|368:200,1,148.50000453186,0|2,0:0|0:0,0:0:0:0:
360,188,74206,1,0,0:0:0:0:
384,204,74329,1,0,0:0:0:0:
412,212,74452,1,8,0:0:0:0:
480,312,74698,1,0,0:0:0:0:
360,324,74944,102,0,P|296:312|216:356,1,148.50000453186,10|2,0:2|0:0,0:0:0:0:
200,332,75436,2,0,L|88:320,1,99.0000030212403,8|0,0:0|0:0,0:0:0:0:
36,220,75928,1,2,0:0:0:0:
24,192,76050,1,0,0:0:0:0:
20,163,76173,1,0,0:0:0:0:
21,133,76296,1,0,0:0:0:0:
30,105,76419,1,8,0:0:0:0:
120,28,76665,1,0,0:0:0:0:
152,144,76911,6,0,P|236:160|304:136,1,148.50000453186,10|2,0:2|0:0,0:0:0:0:
312,116,77403,1,8,0:0:0:0:
400,196,77649,1,0,0:0:0:0:
424,80,77895,1,2,0:0:0:0:
312,116,78141,5,0,0:0:0:0:
312,116,78264,1,0,0:0:0:0:
312,116,78387,2,0,P|300:160|320:212,1,99.0000030212403,8|0,0:0|0:0,0:0:0:0:
200,292,78878,54,0,P|196:212|168:188,1,90,14|0,0:0|0:0,0:0:0:0:
108,180,79370,2,0,P|96:112|132:68,1,90,0|0,1:0|0:0,0:0:0:0:
188,60,79862,1,8,0:0:0:0:
256,120,80108,1,0,0:0:0:0:
188,60,80354,1,0,1:0:0:0:
256,120,80600,1,0,0:0:0:0:
284,204,80846,6,0,P|336:168|340:88,1,135,10|8,0:0|0:0,0:0:0:0:
364,60,81337,2,0,P|401:27|440:25,1,90,0|0,1:0|0:0,0:0:0:0:
256,120,82075,2,0,P|218:152|179:154,1,90,0|0,0:0|1:0,0:0:0:0:
168,260,82567,1,0,0:0:0:0:
136,344,82813,102,0,P|84:296|80:232,1,135,10|8,0:0|0:0,0:0:0:0:
96,192,83305,2,0,P|120:136|100:88,1,90,0|0,1:0|0:0,0:0:0:0:
36,64,83796,1,8,0:0:0:0:
116,24,84042,1,0,0:0:0:0:
192,72,84288,1,0,1:0:0:0:
256,136,84534,1,0,0:0:0:0:
296,216,84780,6,0,P|312:264|372:284,1,90,10|0,0:0|0:0,0:0:0:0:
436,280,85272,2,0,P|420:232|360:212,1,90,0|0,1:0|0:0,0:0:0:0:
344,132,85764,2,0,P|328:80|352:32,1,90,8|0,0:0|0:0,0:0:0:0:
256,136,86255,2,0,P|233:165|185:185,1,90,0|0,1:0|0:0,0:0:0:0:
104,224,86747,102,0,P|148:272|228:264,1,135,10|8,0:0|0:0,0:0:0:0:
256,252,87239,2,0,P|308:264|340:304,1,90,0|0,1:0|0:0,0:0:0:0:
420,300,87731,2,0,P|452:272|464:227,1,90,8|0,0:0|0:0,0:0:0:0:
376,216,88223,2,0,P|344:244|332:289,1,90,0|0,1:0|0:0,0:0:0:0:
252,336,88714,102,0,P|208:328|160:332,1,90,10|0,0:0|0:0,0:0:0:0:
72,348,89206,2,0,P|68:304|52:260,1,90,0|0,1:0|0:0,0:0:0:0:
16,180,89698,2,0,P|8:132|16:92,1,90,8|0,0:0|0:0,0:0:0:0:
100,56,90190,1,0,1:0:0:0:
168,112,90436,1,0,0:0:0:0:
260,112,90682,86,0,P|276:88|292:28,1,90,10|0,0:0|0:0,0:0:0:0:
380,28,91173,2,0,P|395:86|411:110,1,90,0|0,1:0|0:0,0:0:0:0:
460,184,91665,2,0,P|472:220|472:276,2,90,8|0|0,0:0|0:0|1:0,0:0:0:0:
492,100,92403,2,0,L|516:56,2,45,0|0|10,0:0|0:0|0:0,0:0:0:0:
404,120,92895,21,0,0:0:0:0:
312,120,93141,2,0,P|276:132|224:132,1,90,0|0,1:0|0:0,0:0:0:0:
244,220,93632,2,0,P|220:252|168:268,1,90,8|0,0:0|0:0,0:0:0:0:
20,228,94124,2,0,P|44:196|96:180,1,90,0|0,1:0|0:0,0:0:0:0:
244,220,94616,86,0,P|268:176|260:44,1,180,4|0,0:0|1:0,0:0:0:0:
176,32,95354,1,0,0:0:0:0:
263,50,95600,2,0,P|291:50|359:40,1,90,8|0,0:0|0:0,0:0:0:0:
437,10,96091,1,0,1:0:0:0:
426,99,96337,1,0,0:0:0:0:
304,168,96583,22,0,P|264:208|248:328,1,180,10|0,0:0|1:0,0:0:0:0:
325,370,97321,1,0,0:0:0:0:
247,324,97567,2,0,P|207:319|143:320,1,90,8|0,0:0|0:0,0:0:0:0:
71,295,98059,21,0,1:0:0:0:
44,200,98305,1,0,0:0:0:0:
104,132,98550,2,0,P|168:132|208:80,1,135,10|8,0:0|0:0,0:0:0:0:
244,48,99042,2,0,P|332:48|376:120,1,180,0|8,1:0|0:0,0:0:0:0:
344,200,99780,1,0,0:0:0:0:
288,128,100026,1,0,1:0:0:0:
228,336,100518,102,0,P|152:336|104:300,1,135,10|8,0:0|0:0,0:0:0:0:
106,303,101009,2,0,P|148:224|108:148,1,180,0|8,1:0|0:0,0:0:0:0:
60,224,101747,1,0,0:0:0:0:
110,149,101993,1,0,1:0:0:0:
28,112,102239,2,0,P|104:60|180:92,1,180,0|0,0:0|0:0,0:0:0:0:
224,168,102977,2,0,P|264:176|312:152,1,90,0|0,1:0|0:0,0:0:0:0:
395,141,103468,6,0,P|336:72|256:84,1,180,8|0,0:0|1:0,0:0:0:0:
308,156,104206,1,0,0:0:0:0:
336,240,104452,2,0,L|248:280,1,90,10|0,0:0|0:0,0:0:0:0:
90,321,104944,2,0,L|172:284,1,90,0|0,1:0|0:0,0:0:0:0:
204,200,105436,2,0,P|148:164|80:180,1,135,8|8,0:0|0:0,0:0:0:0:
84,177,105928,2,0,L|28:100,1,90,0|0,1:0|0:0,0:0:0:0:
256,192,106419,12,2,108387,0:0:0:0:
128,288,109370,38,0,L|218:288,1,90,2|8,0:0|0:0,0:0:0:0:
392,192,109862,2,0,L|302:192,1,90,2|8,0:0|0:0,0:0:0:0:
216,52,110354,22,0,P|194:118|218:190,1,148.50000453186,4|2,0:0|0:0,0:0:0:0:
240,236,110846,2,0,L|120:236,1,99.0000030212403,8|0,0:0|0:0,0:0:0:0:
44,244,111337,1,2,0:0:0:0:
44,244,111460,1,0,0:0:0:0:
44,244,111583,2,0,P|32:192|44:140,1,99.0000030212403,0|8,0:0|0:0,0:0:0:0:
112,80,112075,1,0,0:0:0:0:
204,120,112321,70,0,P|300:140|396:88,1,198.000006042481,10|8,0:2|0:0,0:0:0:0:
476,56,113059,2,0,P|468:104|488:164,1,99.0000030212403,0|2,0:0|0:0,0:0:0:0:
504,248,113550,2,0,L|464:344,2,99.0000030212403,0|8|0,0:0|0:0|0:0,0:0:0:0:
412,212,114288,2,0,P|336:192|256:216,1,148.50000453186,10|2,0:2|0:0,0:0:0:0:
232,240,114780,102,0,L|128:220,1,99.0000030212403,8|0,0:0|0:0,0:0:0:0:
68,296,115272,2,0,L|172:316,1,99.0000030212403,2|0,0:0|0:0,0:0:0:0:
260,340,115764,2,0,P|312:348|380:336,1,99.0000030212403,8|0,0:0|0:0,0:0:0:0:
428,272,116255,1,10,0:2:0:0:
428,272,116378,1,0,0:0:0:0:
428,272,116501,54,0,P|404:208|412:148,1,99.0000030212403,0|8,0:0|0:0,0:0:0:0:
428,80,116993,2,0,L|320:64,1,99.0000030212403,0|2,0:0|0:0,0:0:0:0:
236,44,117485,1,0,0:0:0:0:
236,44,117608,1,0,0:0:0:0:
236,44,117731,1,8,0:0:0:0:
120,160,117977,1,0,0:0:0:0:
184,308,118223,86,0,P|256:300|344:312,1,148.50000453186,4|2,0:0|0:0,0:0:0:0:
380,320,118714,2,0,P|408:272|412:220,1,99.0000030212403,8|0,0:0|0:0,0:0:0:0:
400,132,119206,1,2,0:0:0:0:
400,132,119329,1,0,0:0:0:0:
400,132,119452,1,0,0:0:0:0:
308,168,119698,2,0,L|176:128,1,99.0000030212403,8|0,0:0|0:0,0:0:0:0:
136,200,120190,22,0,P|108:108|196:44,1,198.000006042481,10|8,0:2|0:0,0:0:0:0:
376,200,120928,2,0,P|404:108|316:44,1,198.000006042481
304,140,121665,2,0,P|284:192|320:260,1,99.0000030212403,8|0,0:0|0:0,0:0:0:0:
316,328,122157,1,10,0:2:0:0:
224,296,122403,70,0,P|172:276|104:312,2,99.0000030212403,0|8|0,0:0|0:0|0:0,0:0:0:0:
316,328,123141,2,0,P|334:278|372:250,1,99.0000030212403,2|0,0:0|0:0,0:0:0:0:
336,160,123632,1,8,0:0:0:0:
384,72,123878,1,0,0:0:0:0:
384,72,124001,1,0,0:0:0:0:
384,72,124124,1,10,0:2:0:0:
336,160,124370,102,0,P|344:208|400:276,1,99.0000030212403,0|8,0:0|0:0,0:0:0:0:
176,160,124862,2,0,P|168:208|112:276,1,99.0000030212403,0|2,0:0|0:0,0:0:0:0:
212,324,125354,6,0,L|256:364,2,49.5000015106202,0|0|8,0:0|0:0|0:0,0:0:0:0:
143,251,125846,1,0,0:0:0:0:
256,194,126091,5,4,0:0:0:0:
130,129,126337,2,0,P|167:76|213:64,1,99.0000030212403,0|8,0:0|0:0,0:0:0:0:
382,255,126829,2,0,P|345:308|299:320,1,99.0000030212403,0|2,0:0|0:0,0:0:0:0:
197,319,127321,2,0,P|167:308|130:255,1,99.0000030212403,0|8,0:0|0:0,0:0:0:0:
314,64,127813,2,0,P|345:76|382:129,1,99.0000030212403,0|10,0:0|0:2,0:0:0:0:
388,228,128305,22,0,P|336:232|296:288,1,99.0000030212403,0|8,0:0|0:0,0:0:0:0:
380,328,128796,2,0,P|264:276|208:304,1,198.000006042481
164,212,129534,1,8,0:0:0:0:
120,124,129780,1,0,0:0:0:0:
192,56,130026,70,0,P|236:28|312:56,1,99.0000030212403,10|0,0:2|0:0,0:0:0:0:
328,52,130395,1,0,0:0:0:0:
376,72,130518,1,8,0:0:0:0:
464,116,130764,2,0,P|492:176|400:244,1,198.000006042481
348,324,131501,2,0,P|304:268|304:243,1,99.0000030212403,8|0,0:0|0:0,0:0:0:0:
164,324,131993,2,0,P|208:268|200:192,1,148.50000453186,10|2,0:2|0:0,0:0:0:0:
176,152,132485,2,0,P|148:108|164:56,1,99.0000030212403,8|0,0:0|0:0,0:0:0:0:
256,52,132977,5,2,0:0:0:0:
177,153,133223,1,8,0:0:0:0:
93,69,133468,1,2,0:0:0:0:
177,153,133714,1,8,0:0:0:0:
88,252,133960,22,0,P|40:296|80:368,1,148.50000453186,4|2,0:0|0:0,0:0:0:0:
120,364,134452,2,0,P|176:344|224:360,1,99.0000030212403,8|0,0:0|0:0,0:0:0:0:
392,364,135190,2,0,P|336:344|288:360,1,99.0000030212403,0|8,0:0|0:0,0:0:0:0:
220,296,135682,1,0,0:0:0:0:
136,348,135928,54,0,P|88:328|96:228,1,148.50000453186,10|2,0:2|0:0,0:0:0:0:
116,204,136419,2,0,P|144:152|132:104,1,99.0000030212403,8|0,0:0|0:0,0:0:0:0:
64,48,136911,2,0,P|36:100|48:148,1,99.0000030212403,2|0,0:0|0:0,0:0:0:0:
116,204,137403,1,8,0:0:0:0:
256,348,137895,6,0,P|312:360|356:344,1,99.0000030212403,10|0,0:2|0:0,0:0:0:0:
388,312,138264,1,2,0:0:0:0:
420,272,138387,2,0,P|464:232|504:232,2,99.0000030212403,8|0|2,0:0|0:0|0:0,0:0:0:0:
352,200,139124,2,0,P|308:160|270:159,1,99.0000030212403,0|8,0:0|0:0,0:0:0:0:
208,236,139616,2,0,P|168:272|112:268,1,99.0000030212403,0|10,0:0|0:2,0:0:0:0:
256,192,140108,12,4,141829,0:0:0:0:
256,192,153632,12,2,155600,0:0:0:0:
256,348,156583,5,2,0:0:0:0:
332,271,156829,1,8,0:0:0:0:
180,271,157075,1,2,0:0:0:0:
409,193,157321,1,8,0:0:0:0:
103,194,157567,22,0,P|127:111|204:88,1,161.999995056153,4|2,0:0|0:0,0:0:0:0:
242,87,158059,2,0,P|321:83|345:53,1,107.999996704102,8|0,0:0|0:0,0:0:0:0:
372,256,158796,2,0,P|293:260|269:290,1,107.999996704102,0|8,0:0|0:0,0:0:0:0:
216,352,159288,1,0,0:0:0:0:
188,260,159534,70,0,P|132:196|88:196,1,107.999996704102,10|0,0:2|0:0,0:0:0:0:
68,180,159903,1,2,0:0:0:0:
32,148,160026,2,0,P|16:92|52:48,1,107.999996704102,8|0,0:0|0:0,0:0:0:0:
140,40,160518,2,0,P|196:52|212:108,1,107.999996704102,2|0,0:0|0:0,0:0:0:0:
372,40,161009,2,0,P|316:52|300:108,1,107.999996704102,8|0,0:0|0:0,0:0:0:0:
256,184,161501,2,0,L|256:304,1,107.999996704102,10|0,0:2|0:0,0:0:0:0:
244,340,161870,1,2,0:0:0:0:
200,360,161993,102,0,P|136:368|88:328,1,107.999996704102,8|0,0:0|0:0,0:0:0:0:
36,272,162485,2,0,P|64:224|116:208,1,107.999996704102,2|0,0:0|0:0,0:0:0:0:
204,180,162977,2,0,P|176:132|124:116,1,107.999996704102,8|0,0:0|0:0,0:0:0:0:
36,88,163468,2,0,P|64:40|116:24,1,107.999996704102,10|0,0:2|0:0,0:0:0:0:
160,24,163837,1,2,0:0:0:0:
200,48,163960,2,0,P|252:84|276:136,1,107.999996704102,8|0,0:0|0:0,0:0:0:0:
336,212,164452,2,0,P|392:204|428:160,2,107.999996704102,2|0|8,0:0|0:0|0:0,0:0:0:0:
228,216,165190,1,0,0:0:0:0:
236,324,165436,22,0,P|176:312|124:232,1,161.999995056153,4|2,0:0|0:0,0:0:0:0:
112,180,165928,2,0,P|104:120|64:76,1,107.999996704102,8|0,0:0|0:0,0:0:0:0:
208,212,166665,1,0,0:0:0:0:
112,180,166911,1,8,0:0:0:0:
132,288,167157,1,0,0:0:0:0:
208,212,167403,22,0,P|248:256|240:324,1,107.999996704102,10|0,0:2|0:0,0:0:0:0:
232,356,167772,1,2,0:0:0:0:
232,356,167895,2,0,P|284:324|340:332,1,107.999996704102,8|0,0:0|0:0,0:0:0:0:
472,199,168387,2,0,P|420:231|376:228,1,107.999996704102,2|0,0:0|0:0,0:0:0:0:
268,208,168878,1,8,0:0:0:0:
268,208,169370,70,0,P|324:132|404:124,1,161.999995056153,10|2,2:0|0:0,0:0:0:0:
440,132,169862,2,0,P|500:100|500:16,2,107.999996704102,8|0|2,0:0|0:0|0:0,0:0:0:0:
384,40,170600,1,0,0:0:0:0:
276,56,170846,2,0,P|232:76|208:164,1,107.999996704102,8|0,0:0|0:0,0:0:0:0:
308,160,171337,2,0,P|328:216|280:304,1,161.999995056153,10|2,0:2|0:0,0:0:0:0:
236,328,171829,2,0,P|308:348|332:384,2,107.999996704102,8|0|2,0:0|0:0|0:0,0:0:0:0:
132,296,172567,1,0,0:0:0:0:
132,296,172690,1,0,0:0:0:0:
132,296,172813,2,0,P|172:240|220:224,1,107.999996704102,8|0,0:0|0:0,0:0:0:0:
368,140,173305,102,0,P|328:100|316:52,1,107.999996704102,4|0,0:0|0:0,0:0:0:0:
232,120,173796,2,0,P|217:65|230:17,1,107.999996704102,8|0,0:0|0:0,0:0:0:0:
296,192,174288,2,0,P|228:216|176:200,1,107.999996704102,2|0,0:0|0:0,0:0:0:0:
108,144,174780,1,8,0:0:0:0:
36,224,175026,1,0,0:0:0:0:
92,316,175272,21,10,0:2:0:0:
196,284,175518,1,0,0:0:0:0:
248,300,175641,1,0,0:0:0:0:
296,316,175764,1,8,0:0:0:0:
392,364,176009,2,0,B|432:304|392:260|352:216|392:156,1,215.999993408203
488,208,176747,21,8,0:0:0:0:
296,108,176993,1,0,0:0:0:0:
224,188,177239,70,0,P|160:168|144:128,1,107.999996704102,10|0,0:2|0:0,0:0:0:0:
140,80,177608,1,2,0:0:0:0:
176,40,177731,1,8,0:0:0:0:
296,108,177977,2,0,P|328:200|264:292,1,215.999993408203
160,268,178714,37,8,0:0:0:0:
296,108,178960,1,0,0:0:0:0:
156,132,179206,53,10,0:2:0:0:
240,200,179452,1,0,0:0:0:0:
240,200,179575,1,0,0:0:0:0:
240,200,179698,2,0,L|332:284,1,107.999996704102,8|0,0:0|0:0,0:0:0:0:
404,340,180190,21,2,0:0:0:0:
460,248,180436,1,8,0:0:0:0:
444,120,180682,1,2,0:0:0:0:
312,48,180928,1,8,0:0:0:0:
132,56,181173,22,0,L|24:96,1,107.999996704102,4|0,0:0|0:0,0:0:0:0:
38,101,181542,1,2,0:0:0:0:
38,101,181665,2,0,P|20:164|120:256,2,215.999993408203,8|2|8,0:0|0:0|0:0,0:0:0:0:
136,148,182895,1,0,0:0:0:0:
216,220,183141,70,0,L|308:304,1,107.999996704102,10|0,0:2|0:0,0:0:0:0:
340,328,183509,1,2,0:0:0:0:
384,292,183632,2,0,L|463:219,1,107.999996704102,8|0,0:0|0:0,0:0:0:0:
320,56,184370,2,0,P|240:40|156:132,1,215.999993408203
208,212,185108,102,0,P|224:276|192:336,1,107.999996704102,10|0,0:2|0:0,0:0:0:0:
218,322,185477,1,2,0:0:0:0:
218,322,185600,2,0,L|328:344,1,107.999996704102,8|0,0:0|0:0,0:0:0:0:
148,272,186091,2,0,L|38:250,1,107.999996704102,2|0,0:0|0:0,0:0:0:0:
216,220,186583,2,0,P|292:200|320:56,1,215.999993408203,8|10,0:0|0:2,0:0:0:0:
224,68,187321,5,0,0:0:0:0:
75,106,187567,1,8,0:0:0:0:
129,13,187813,1,0,0:0:0:0:
169,161,188059,1,2,0:0:0:0:
316,64,188305,38,0,P|344:40|372:36,1,53.9999983520508,0|2,0:0|0:0,0:0:0:0:
316,64,188550,2,0,P|348:124|332:184,1,107.999996704102,8|0,0:0|0:0,0:0:0:0:
256,236,189042,85,4,0:0:0:0:
