osu file format v14

[General]
AudioFilename: mehh.mp3
AudioLeadIn: 0
PreviewTime: 182358
Countdown: 0
SampleSet: Soft
StackLeniency: 0.7
Mode: 0
LetterboxInBreaks: 0
WidescreenStoryboard: 0

[Editor]
Bookmarks: 18286,18517,19209,19902,21979,22209,22902,23594,25671,25902,26594,27286,29363,29594,30286,30979,33056,33286,45748,60517,75402,108517,123286,124210,136210,138056,150056,152825,167594,182363,194363,197133,211902,213748,226786,230363
DistanceSpacing: 1.3
BeatDivisor: 4
GridSize: 4
TimelineZoom: 1.2

[Metadata]
Title:Pretty Hurts
TitleUnicode:Pretty Hurts
Artist:Beyonce
ArtistUnicode:Beyoncé
Creator:Lally
Version:Normal
Source:
Tags:BEYONCÉ R&B soul
BeatmapID:644941
BeatmapSetID:285563

[Difficulty]
HPDrainRate:3
CircleSize:3
OverallDifficulty:3
ApproachRate:4
SliderMultiplier:1.2
SliderTickRate:1

[Events]
//Background and Video events
0,0,"beyonce_pretty_hurts-wallpaper-1366x768.jpg",0,0
//Break Periods
2,167789,181038
//Storyboard Layer 0 (Background)
//Storyboard Layer 1 (Fail)
//Storyboard Layer 2 (Pass)
//Storyboard Layer 3 (Foreground)
//Storyboard Sound Samples

[TimingPoints]
16205,461.538461538462,4,2,1,50,1,0
45743,-100,4,2,1,70,0,1
45858,-100,4,2,1,50,0,0
60512,-100,4,2,1,70,0,1
75281,-100,4,2,1,30,0,0
75512,-100,4,2,1,5,0,0
78974,-100,4,2,1,30,0,0
79435,-100,4,2,1,50,0,0
108512,-100,4,2,1,70,0,1
108628,-100,4,2,1,50,0,0
123281,-100,4,2,1,70,0,1
138051,-133.333333333333,4,2,1,50,0,0
153281,-111.111111111111,4,2,1,50,0,0
167589,-100,4,2,1,50,0,0
182358,-100,4,2,1,70,0,1
194358,-100,4,2,1,50,0,0
197128,-133.333333333333,4,2,1,70,0,1
197243,-133.333333333333,4,2,1,50,0,0
211897,-105.263157894737,4,2,1,50,0,0
213743,-100,4,2,1,50,0,0
226666,-100,4,2,1,5,0,0

[Colours]
Combo1 : 210,210,210
Combo2 : 104,180,202
Combo3 : 234,128,197
Combo4 : 61,228,190
Combo5 : 210,87,13
Combo6 : 231,169,41
Combo7 : 253,251,157

[HitObjects]
140,316,16205,6,0,P|132:276|176:192,1,120,4|0,0:0|0:0,0:0:0:0:
256,204,17128,2,0,P|292:240|324:248,2,60,0|0|0,0:0|0:0|0:0,0:0:0:0:
216,116,18051,2,0,P|252:92|284:88,1,60,0|2,0:0|0:0,0:0:0:0:
316,88,18512,2,0,P|376:120|396:180,1,120,2|0,0:0|0:0,0:0:0:0:
400,212,19205,2,0,L|336:332,1,120,2|0,0:0|0:0,0:0:0:0:
300,344,19897,1,2,0:0:0:0:
204,344,20358,6,0,B|132:344|108:292|108:292|28:264,2,180
240,312,21974,2,0,P|264:264|260:236,1,60,2|2,0:0|0:0,0:0:0:0:
256,160,22666,2,0,P|280:108|296:96,1,60,0|2,0:0|0:0,0:0:0:0:
328,92,23128,2,0,L|452:64,2,120,0|2|0,0:0|0:0|0:0,0:0:0:0:
244,44,24512,6,0,P|184:56|144:112,1,120,0|0,0:0|0:0,0:0:0:0:
76,160,25435,2,0,P|24:144|8:124,2,60,0|2|2,0:0|0:0|0:0,0:0:0:0:
156,212,26358,2,0,P|204:236|216:260,1,60,0|2,0:0|0:0,0:0:0:0:
228,284,26820,2,0,P|300:324|356:316,1,120,0|2,0:0|0:0,0:0:0:0:
432,156,28205,6,0,P|396:104|328:96,1,120,0|0,0:0|0:0,0:0:0:0:
248,112,29128,2,0,P|200:128|172:124,1,60,0|2,0:0|0:0,0:0:0:0:
148,112,29589,2,0,L|160:256,1,120,2|8,0:0|0:0,0:0:0:0:
172,276,30281,2,0,P|208:312|344:304,1,180,2|2,0:0|0:0,0:0:0:0:
464,176,31897,6,0,B|408:124|408:124|344:176|296:124|300:56,2,240,8|0|8,0:0|0:0|0:0,0:0:0:0:
476,272,34205,1,0,0:0:0:0:
384,292,34666,2,0,L|260:316,1,120,2|0,0:0|0:0,0:0:0:0:
172,308,35589,6,0,P|92:296|64:248,1,120,8|0,0:0|0:0,0:0:0:0:
48,228,36281,1,0,0:0:0:0:
48,180,36512,2,0,B|104:128|104:128|168:180|216:128|212:60,2,240,0|8|2,0:0|0:0|0:0,0:0:0:0:
204,292,39281,6,0,L|196:212,1,60,8|0,0:0|0:0,0:0:0:0:
248,236,39743,2,0,L|256:156,1,60
252,128,40205,2,0,P|288:76|352:60,2,120,0|2|8,0:0|0:0|0:0,0:0:0:0:
320,196,41589,1,0,0:0:0:0:
324,292,42051,2,0,B|256:336|256:336|192:324,2,120,2|0|8,0:0|0:0|0:0,0:0:0:0:
444,144,43897,6,0,L|456:280,2,120,0|2|8,0:0|0:0|0:0,0:0:0:0:
392,64,45281,2,0,P|360:96|360:184,1,120,0|4,0:0|0:0,0:0:0:0:
160,180,46666,6,0,P|192:212|192:300,2,120,2|0|2,0:0|0:0|0:0,0:0:0:0:
80,124,48051,2,0,P|120:88|200:88,2,120,0|2|0,0:0|0:0|0:0,0:0:0:0:
64,220,49435,2,0,L|92:356,1,120,2|0,0:0|0:0,0:0:0:0:
184,356,50358,2,0,B|224:332|268:368|320:352,1,120,2|0,0:0|0:0,0:0:0:0:
384,304,51281,2,0,P|428:252|420:136,2,180,2|0|0,0:0|0:0|0:0,0:0:0:0:
300,256,53128,1,2,0:0:0:0:
256,172,53589,6,0,L|256:36,2,120,0|2|0,0:0|0:0|0:0,0:0:0:0:
172,220,54974,2,0,B|168:196|88:200|80:132,2,120,2|0|2,0:0|0:0|0:0,0:0:0:0:
236,292,56358,1,0,0:0:0:0:
324,332,56820,2,0,P|420:336|448:320,1,120,2|0,0:0|0:0,0:0:0:0:
456,232,57743,2,0,L|432:108,1,120,2|0,0:0|0:0,0:0:0:0:
348,156,58666,2,0,L|300:20,2,120,2|0|2,0:0|0:0|0:0,0:0:0:0:
256,324,60512,5,4,0:0:0:0:
148,164,61435,2,0,P|160:112|224:84,2,120,8|0|0,0:0|0:0|0:0,0:0:0:0:
176,256,62820,2,0,L|220:308,1,60,2|0,0:0|0:0,0:0:0:0:
260,320,63281,2,0,P|320:292|388:312,2,120,8|0|2,0:0|0:0|0:0,0:0:0:0:
168,348,64666,2,0,P|124:352|68:304,1,120,0|8,0:0|0:0,0:0:0:0:
52,212,65589,1,0,0:0:0:0:
96,128,66051,6,0,P|144:84|256:84,2,180,0|0|0,0:0|0:0|0:0,0:0:0:0:
144,212,67897,1,2,0:0:0:0:
204,284,68358,2,0,P|176:320|144:328,2,60,0|0|8,0:0|0:0|0:0,0:0:0:0:
256,204,69281,1,0,0:0:0:0:
308,284,69743,2,0,P|336:320|368:328,2,60,0|2|2,0:0|0:0|0:0,0:0:0:0:
348,196,70666,2,0,P|368:132|344:84,1,120,8|0,0:0|0:0,0:0:0:0:
304,68,71358,1,0,0:0:0:0:
260,48,71589,6,0,B|200:16|128:96|72:48,2,180,2|0|0,0:0|0:0|0:0,0:0:0:0:
324,120,73435,2,0,L|368:164,2,60,0|2|2,0:0|0:0|0:0,0:0:0:0:
228,140,74358,2,0,P|200:180|200:260,2,120,8|0|4,0:0|0:0|0:0,0:0:0:0:
256,192,75512,12,4,78974,0:0:0:0:
356,108,79897,6,0,P|340:156|368:232,2,120,8|0|0,0:0|0:0|0:0,0:0:0:0:
148,108,81743,2,0,P|164:156|136:232,2,120,8|0|2,0:0|0:0|0:0,0:0:0:0:
256,268,83589,2,0,L|256:132,2,120,8|0|0,0:0|0:0|0:0,0:0:0:0:
332,324,84974,2,0,P|376:340|412:336,1,60,2|0,0:0|0:0,0:0:0:0:
432,316,85435,2,0,P|464:252|460:192,2,120,8|0|2,0:0|0:0|0:0,0:0:0:0:
276,204,87281,6,0,P|244:160|156:156,1,120,8|0,0:0|0:0,0:0:0:0:
96,104,88205,2,0,L|56:36,2,60,0|2|2,0:0|0:0|0:0,0:0:0:0:
100,200,89128,2,0,P|104:252|160:320,1,120,8|0,0:0|0:0,0:0:0:0:
188,324,89820,1,0,0:0:0:0:
236,312,90051,2,0,P|292:284|368:308,1,120,2|0,0:0|0:0,0:0:0:0:
440,312,90974,6,0,P|464:228|444:180,1,120,8|0,0:0|0:0,0:0:0:0:
392,128,91897,2,0,L|328:96,1,60,0|2,0:0|0:0,0:0:0:0:
300,132,92358,2,0,L|176:152,2,120,2|8|0,0:0|0:0|0:0,0:0:0:0:
372,68,93743,2,0,L|416:16,2,60,2|0|0,0:0|0:0|0:0,0:0:0:0:
352,160,94666,6,0,L|316:280,1,120,8|0,0:0|0:0,0:0:0:0:
236,324,95589,2,0,P|164:328|116:280,2,120,0|2|8,0:0|0:0|0:0,0:0:0:0:
236,228,96974,1,0,0:0:0:0:
204,136,97435,2,0,P|200:72|240:24,2,120,2|0|8,0:0|0:0|0:0,0:0:0:0:
360,244,99281,6,0,P|364:308|220:304,2,240,0|8|2,0:0|0:0|0:0,0:0:0:0:
384,52,102051,2,0,L|288:144,1,120,8|0,0:0|0:0,0:0:0:0:
212,180,102974,2,0,P|144:192|104:152,2,120,0|2|8,0:0|0:0|0:0,0:0:0:0:
296,228,104358,1,0,0:0:0:0:
364,160,104820,2,0,P|380:120|320:52,1,120,2|0,0:0|0:0,0:0:0:0:
248,40,105743,2,0,P|188:52|116:40,1,120,8|0,0:0|0:0,0:0:0:0:
76,124,106666,6,0,L|92:252,1,120,0|2,0:0|0:0,0:0:0:0:
172,188,107589,2,0,L|192:320,2,120,8|0|4,0:0|0:0|0:0,0:0:0:0:
352,204,109435,6,0,P|320:172|320:84,2,120,2|0|2,0:0|0:0|0:0,0:0:0:0:
432,256,110820,2,0,P|392:292|312:292,2,120,0|2|0,0:0|0:0|0:0,0:0:0:0:
448,164,112205,2,0,L|420:28,1,120,2|0,0:0|0:0,0:0:0:0:
376,32,112897,1,0,0:0:0:0:
328,28,113128,2,0,B|288:52|244:16|192:32,1,120,2|0,0:0|0:0,0:0:0:0:
128,80,114051,2,0,P|84:132|92:248,2,180,2|0|0,0:0|0:0|0:0,0:0:0:0:
212,128,115897,1,2,0:0:0:0:
256,212,116358,6,0,L|256:348,2,120,0|2|0,0:0|0:0|0:0,0:0:0:0:
340,164,117743,2,0,B|344:188|424:184|432:252,2,120,2|0|2,0:0|0:0|0:0,0:0:0:0:
276,92,119128,1,0,0:0:0:0:
188,52,119589,2,0,P|92:48|64:64,1,120,2|0,0:0|0:0,0:0:0:0:
56,152,120512,2,0,L|80:276,1,120,2|0,0:0|0:0,0:0:0:0:
164,228,121435,2,0,L|212:364,2,120,2|0|2,0:0|0:0|0:0,0:0:0:0:
256,60,123281,5,4,0:0:0:0:
364,220,124205,2,0,P|352:272|288:300,2,120,8|0|0,0:0|0:0|0:0,0:0:0:0:
336,128,125589,2,0,L|292:76,1,60,2|0,0:0|0:0,0:0:0:0:
252,64,126051,2,0,P|192:92|124:72,2,120,8|0|2,0:0|0:0|0:0,0:0:0:0:
344,36,127435,2,0,P|388:32|444:80,1,120,0|8,0:0|0:0,0:0:0:0:
464,124,128128,1,0,0:0:0:0:
460,172,128358,1,0,0:0:0:0:
416,256,128820,6,0,P|368:300|256:300,2,180,0|0|0,0:0|0:0|0:0,0:0:0:0:
368,172,130666,1,2,0:0:0:0:
308,100,131128,2,0,P|336:64|368:56,2,60,0|0|8,0:0|0:0|0:0,0:0:0:0:
256,180,132051,1,0,0:0:0:0:
204,100,132512,2,0,P|176:64|144:56,2,60,2|2|2,0:0|0:0|0:0,0:0:0:0:
164,188,133435,2,0,P|144:252|168:300,1,120,8|0,0:0|0:0,0:0:0:0:
204,324,134128,1,0,0:0:0:0:
252,336,134358,6,0,B|312:368|384:288|440:336,2,180,2|0|0,0:0|0:0|0:0,0:0:0:0:
188,264,136205,2,0,L|144:220,2,60,0|0|0,0:0|0:0|0:0,0:0:0:0:
284,244,137128,2,0,P|312:204|312:124,1,120
264,60,138051,6,0,L|160:40,2,90.0000034332277,4|0|8,0:0|0:0|0:0,0:0:0:0:
352,40,139435,1,0,0:0:0:0:
420,100,139897,2,0,L|468:56,2,45.0000017166138,0|2|2,0:0|0:0|0:0,0:0:0:0:
368,176,140820,2,0,L|420:212,2,45.0000017166138,8|2|0,0:0|0:0|0:0,0:0:0:0:
296,120,141743,6,0,P|248:124|216:160,2,90.0000034332277,2|0|8,0:0|0:0|0:0,0:0:0:0:
356,188,143128,1,0,0:0:0:0:
420,252,143589,2,0,P|464:204|464:84,2,180.000006866455,0|8|2,0:0|0:0|0:0,0:0:0:0:
336,280,145897,2,0,L|248:308,2,90.0000034332277,0|8|0,0:0|0:0|0:0,0:0:0:0:
256,192,147281,12,8,151897,0:0:0:0:
152,112,152820,5,4,0:0:0:0:
228,188,153281,2,0,P|264:216|336:208,2,107.999996704102,0|8|0,0:0|0:0|0:0,0:0:0:0:
256,84,154666,2,0,L|308:52,1,53.9999983520508,0|2,0:0|0:0,0:0:0:0:
356,64,155128,2,0,P|404:88|432:148,1,107.999996704102,2|8,0:0|0:0,0:0:0:0:
448,240,156051,1,0,0:0:0:0:
360,300,156512,6,0,P|280:328|244:316,1,107.999996704102,2|0,0:0|0:0,0:0:0:0:
188,244,157435,2,0,L|100:108,2,161.999995056153,8|0|2,0:0|0:0|0:0,0:0:0:0:
280,188,159281,2,0,P|328:160|396:180,2,107.999996704102,8|0|2,0:0|0:0|0:0,0:0:0:0:
256,292,160666,2,0,P|288:324|312:328,1,53.9999983520508,0|0,0:0|0:0,0:0:0:0:
348,332,161128,2,0,L|480:336,1,107.999996704102,8|0,0:0|0:0,0:0:0:0:
496,236,162051,2,0,P|496:168|404:48,2,215.999993408203,0|8|2,0:0|0:0|0:0,0:0:0:0:
256,192,164128,12,4,167589,0:0:0:0:
120,272,182358,5,4,0:0:0:0:
228,112,183281,2,0,P|260:80|332:64,1,120,8|0,0:0|0:0,0:0:0:0:
416,108,184205,2,0,P|448:168|384:324,2,240,0|8|2,0:0|0:0|0:0,0:0:0:0:
328,148,186512,2,0,L|280:212,1,60,0|0,0:0|0:0,0:0:0:0:
256,228,186974,2,0,P|224:248|132:212,1,120,8|0,0:0|0:0,0:0:0:0:
160,136,187897,6,0,L|72:368,2,240,0|8|2,0:0|0:0|0:0,0:0:0:0:
232,72,190205,2,0,P|268:48|300:52,1,60
328,64,190666,2,0,L|456:40,1,120,8|0,0:0|0:0,0:0:0:0:
496,124,191589,6,0,P|488:200|436:232,1,120,0|2,0:0|0:0,0:0:0:0:
364,256,192512,2,0,L|252:300,1,120,8|0,0:0|0:0,0:0:0:0:
168,256,193435,2,0,P|112:192|112:132,2,120,2|0|8,0:0|0:0|0:0,0:0:0:0:
256,192,194820,12,4,197128,0:0:0:0:
308,352,198051,6,0,P|344:312|336:212,1,135.000005149841,8|0,0:0|0:0,0:0:0:0:
340,188,198974,2,0,L|456:164,2,90.0000034332277,2|0|10,0:0|0:0|0:0,0:0:0:0:
208,64,200820,6,0,L|364:108,2,135.000005149841,2|0|0,0:0|0:0|0:0,0:0:0:0:
164,72,202435,1,0,0:0:0:0:
120,88,202666,2,0,P|59:114|35:176,2,135.000005149841,2|0|0,0:0|0:0|0:0,0:0:0:0:
128,176,204512,6,0,P|192:172|288:252,1,180.000006866455,2|10,0:0|0:0,0:0:0:0:
344,304,205897,2,0,P|364:295|381:280,1,45.0000017166138,0|0,0:0|0:0,0:0:0:0:
412,248,206358,2,0,P|452:196|440:128,2,135.000005149841,2|0|0,0:0|0:0|0:0,0:0:0:0:
364,172,208205,6,0,P|328:132|172:108,1,180.000006866455,2|10,0:0|0:0,0:0:0:0:
140,156,209589,2,0,P|124:172|116:193,1,45.0000017166138,0|0,0:0|0:0,0:0:0:0:
120,240,210051,2,0,B|145:237|145:237|197:281|245:249,2,135.000005149841,2|0|0,0:0|0:0|0:0,0:0:0:0:
56,144,211897,6,0,P|80:92|148:68,1,113.999996955872,4|0,0:0|0:0,0:0:0:0:
244,60,212820,2,0,L|392:52,1,113.999996955872,8|0,0:0|0:0,0:0:0:0:
416,60,213512,1,0,0:0:0:0:
476,68,213743,2,0,B|520:160|396:208|480:312,2,240,0|8|2,0:0|0:0|0:0,0:0:0:0:
384,144,216051,2,0,P|364:208|368:280,1,120,0|8,0:0|0:0,0:0:0:0:
296,360,216974,6,0,P|256:328|248:288,1,60,0|0,0:0|0:0,0:0:0:0:
224,268,217435,2,0,L|248:132,2,120,0|2|8,0:0|0:0|0:0,0:0:0:0:
348,64,219281,6,0,L|324:204,2,120,4|0|8,0:0|0:0|0:0,0:0:0:0:
428,156,220666,2,0,L|388:344,2,180,0|2|8,0:0|0:0|0:0,0:0:0:0:
384,44,222512,1,0,0:0:0:0:
264,28,222974,6,0,P|212:32|108:192,2,240,2|8|0,0:0|0:0|0:0,0:0:0:0:
332,124,225281,2,0,P|360:164|440:164,2,120,2|8|0,0:0|0:0|0:0,0:0:0:0:
256,192,226666,12,0,230358,0:0:0:0:
