osu file format v14

[General]
AudioFilename: mehh.mp3
AudioLeadIn: 0
PreviewTime: 182358
Countdown: 0
SampleSet: Soft
StackLeniency: 0.7
Mode: 0
LetterboxInBreaks: 0
WidescreenStoryboard: 0

[Editor]
Bookmarks: 18286,18517,19209,19902,21979,22209,22902,23594,25671,25902,26594,27286,29363,29594,30286,30979,33056,33286,45748,60517,75402,108517,123286,124210,136210,138056,150056,152825,167594,182363,194363,197133,211902,213748,226786,230363
DistanceSpacing: 1.2
BeatDivisor: 4
GridSize: 4
TimelineZoom: 1

[Metadata]
Title:Pretty Hurts
TitleUnicode:Pretty Hurts
Artist:Beyonce
ArtistUnicode:Beyoncé
Creator:Lally
Version:Hard
Source:
Tags:BEYONCÉ R&B soul
BeatmapID:644939
BeatmapSetID:285563

[Difficulty]
HPDrainRate:6
CircleSize:4
OverallDifficulty:6
ApproachRate:7
SliderMultiplier:1.8
SliderTickRate:1

[Events]
//Background and Video events
0,0,"beyonce_pretty_hurts-wallpaper-1366x768.jpg",0,0
//Break Periods
2,167789,181458
//Storyboard Layer 0 (Background)
//Storyboard Layer 1 (Fail)
//Storyboard Layer 2 (Pass)
//Storyboard Layer 3 (Foreground)
//Storyboard Sound Samples

[TimingPoints]
16205,461.538461538462,4,2,1,50,1,0
43897,-142.857142857143,4,2,1,50,0,0
44358,-125,4,2,1,50,0,0
44820,-111.111111111111,4,2,1,50,0,0
45281,-76.9230769230769,4,2,1,50,0,0
45743,-76.9230769230769,4,2,1,70,0,1
45858,-100,4,2,1,50,0,0
60512,-100,4,2,1,70,0,1
75281,-100,4,2,1,5,0,0
78974,-100,4,2,1,30,0,0
79435,-100,4,2,1,50,0,0
106666,-142.857142857143,4,2,1,50,0,0
107128,-125,4,2,1,50,0,0
107589,-111.111111111111,4,2,1,50,0,0
108051,-76.9230769230769,4,2,1,50,0,0
108512,-76.9230769230769,4,2,1,70,0,1
108628,-100,4,2,1,50,0,0
123281,-100,4,2,1,70,0,1
138051,-133.333333333333,4,2,1,50,0,0
153281,-111.111111111111,4,2,1,50,0,0
182358,-100,4,2,1,70,0,1
194358,-100,4,2,1,50,0,0
197128,-133.333333333333,4,2,1,70,0,1
197243,-133.333333333333,4,2,1,50,0,0
211897,-105.263157894737,4,2,1,50,0,0
213743,-100,4,2,1,50,0,0
226666,-100,4,2,1,5,0,0

[Colours]
Combo1 : 210,210,210
Combo2 : 104,180,202
Combo3 : 234,128,197
Combo4 : 61,228,190
Combo5 : 210,87,13
Combo6 : 231,169,41
Combo7 : 253,251,157

[HitObjects]
185,49,16205,6,0,B|209:125|297:105|293:181,1,180,4|0,0:0|0:0,0:0:0:0:
256,274,16897,1,0,0:0:0:0:
180,209,17128,2,0,P|131:175|92:175,1,90
70,267,17589,2,0,P|119:301|158:301,1,90
226,364,18051,1,0,0:0:0:0:
322,344,18281,1,2,0:0:0:0:
339,246,18512,2,0,L|371:153,1,90,2|0,0:0|0:0,0:0:0:0:
311,78,18974,2,0,L|279:171,1,90,0|2,0:0|0:0,0:0:0:0:
236,251,19435,2,0,L|292:80,1,180,0|2,0:0|0:0,0:0:0:0:
160,224,20358,6,0,P|156:272|196:316,1,90
265,168,20820,2,0,P|243:124|200:104,1,90
114,136,21281,2,0,P|66:97|68:38,2,90,0|0|0,0:0|0:0|0:0,0:0:0:0:
160,224,21974,1,2,0:0:0:0:
251,260,22205,2,0,P|311:253|336:219,1,90,2|0,0:0|0:0,0:0:0:0:
361,139,22666,2,0,P|391:84|429:73,1,90,0|2,0:0|0:0,0:0:0:0:
504,116,23128,2,0,L|344:28,2,180,0|2|0,0:0|0:0|0:0,0:0:0:0:
413,292,24512,6,0,B|367:274|355:302|311:282,1,90,0|0,0:0|0:0,0:0:0:0:
230,320,24974,2,0,B|184:338|172:310|128:330,1,90,0|0,0:0|0:0,0:0:0:0:
52,284,25435,2,0,P|44:232|64:184,1,90,0|2,0:0|0:0,0:0:0:0:
124,124,25897,2,0,L|208:68,2,90,2|0|0,0:0|0:0|0:0,0:0:0:0:
140,224,26589,1,2,0:0:0:0:
220,168,26820,2,0,B|268:132|268:132|316:128,1,90
396,128,27281,2,0,P|376:72|260:40,2,180,2|0|0,0:0|0:0|0:0,0:0:0:0:
356,220,28435,6,0,P|328:280|292:296,1,90
212,280,28897,1,0,0:0:0:0:
132,224,29128,2,0,P|96:180|32:180,1,90,0|2,0:0|0:0,0:0:0:0:
48,268,29589,2,0,L|20:364,2,90,2|0|8,0:0|0:0|0:0,0:0:0:0:
65,172,30281,1,2,0:0:0:0:
128,96,30512,2,0,B|168:60|224:88|224:88|248:148|324:116,2,180,0|2|0,0:0|0:0|0:0,0:0:0:0:
353,144,31897,6,0,P|353:100|324:68,1,90,8|0,0:0|0:0,0:0:0:0:
304,200,32358,2,0,P|360:220|428:136,1,180
416,48,33051,2,0,P|460:52|504:88,1,90,2|2,0:0|0:0,0:0:0:0:
288,280,33743,2,0,P|232:240|264:132,1,180,8|0,0:0|0:0,0:0:0:0:
328,80,34435,1,0,0:0:0:0:
384,164,34666,1,2,0:0:0:0:
296,204,34897,1,0,0:0:0:0:
168,132,35128,2,0,L|72:84,1,90
20,16,35589,6,0,P|68:72|68:184,1,180,8|0,0:0|0:0,0:0:0:0:
20,260,36281,1,0,0:0:0:0:
100,320,36512,2,0,P|164:312|200:272,1,90,0|2,0:0|0:0,0:0:0:0:
252,228,36974,2,0,P|290:205|334:205,1,90,2|0,0:0|0:0,0:0:0:0:
416,264,37435,1,8,0:0:0:0:
320,284,37666,1,2,0:0:0:0:
416,264,37897,2,0,P|460:208|424:108,1,180,0|2,0:0|0:0,0:0:0:0:
96,264,39281,6,0,P|52:208|88:108,1,180,8|0,0:0|0:0,0:0:0:0:
168,56,39974,1,0,0:0:0:0:
192,152,40205,2,0,L|208:256,1,90,0|2,0:0|0:0,0:0:0:0:
320,152,40666,2,0,L|304:256,1,90,2|0,0:0|0:0,0:0:0:0:
256,96,41128,2,0,L|256:0,2,90,8|2|0,0:0|0:0|0:0,0:0:0:0:
256,296,42051,6,0,P|296:320|404:244,1,180,2|0,0:0|0:0,0:0:0:0:
412,164,42743,1,0,0:0:0:0:
368,76,42974,2,0,P|332:48|272:48,1,90,8|0,0:0|0:0,0:0:0:0:
192,40,43435,2,0,L|96:44,1,90
40,104,43897,6,0,L|56:184,1,62.9999980773926,0|2,0:0|0:0,0:0:0:0:
128,192,44358,2,0,L|140:288,1,72,2|0,0:0|0:0,0:0:0:0:
220,236,44820,2,0,L|228:356,1,80.9999975280763,8|2,0:0|0:0,0:0:0:0:
348,356,45281,6,0,L|328:112,1,233.999989288331,0|4,0:0|0:0,0:0:0:0:
192,324,46666,6,0,P|144:296|156:168,1,180,2|0,0:0|0:0,0:0:0:0:
320,324,47589,2,0,P|368:296|356:168,1,180,2|0,0:0|0:0,0:0:0:0:
300,112,48281,2,0,P|260:88|252:40,1,90,0|2,0:0|0:0,0:0:0:0:
348,24,48743,2,0,P|388:48|396:96,1,90
370,182,49205,1,0,0:0:0:0:
288,236,49435,6,0,L|200:300,1,90,2|0,0:0|0:0,0:0:0:0:
124,252,49897,2,0,L|212:188,1,90
268,132,50358,2,0,B|204:68|204:68|112:68,2,180,2|0|2,0:0|0:0|0:0,0:0:0:0:
340,200,51512,2,0,P|400:208|416:96,1,180
356,44,52205,2,0,P|432:16|480:28,2,90,2|0|0,0:0|0:0|0:0,0:0:0:0:
356,44,53128,1,2,0:0:0:0:
208,176,53589,6,0,P|212:260|204:300,1,90
304,176,54051,2,0,P|300:260|308:300,2,90,2|0|0,0:0|0:0|0:0,0:0:0:0:
260,368,54974,2,0,P|336:368|404:288,2,180,2|0|2,0:0|0:0|0:0,0:0:0:0:
100,248,56358,2,0,P|68:200|72:140,1,90
72,68,56820,2,0,B|144:100|212:40|268:100,1,180,2|0,0:0|0:0,0:0:0:0:
392,172,57743,2,0,B|320:140|252:200|196:140,1,180,2|0,0:0|0:0,0:0:0:0:
256,192,58666,12,4,60512,0:0:0:0:
80,144,61435,6,0,B|140:132|180:176|180:176|180:232|248:240,2,180,8|0|0,0:0|0:0|0:0,0:0:0:0:
432,144,62820,2,0,B|372:132|332:176|332:176|332:232|264:240,2,180,2|8|0,0:0|0:0|0:0,0:0:0:0:
256,56,64205,1,2,0:0:0:0:
208,144,64435,2,0,P|208:196|224:264,1,90
304,144,64897,2,0,P|304:196|288:264,1,90,0|8,0:0|0:0,0:0:0:0:
348,40,65589,2,0,P|384:64|408:124,2,90,0|0|0,0:0|0:0|0:0,0:0:0:0:
255,55,66281,2,0,P|211:63|155:51,1,90,2|2,0:0|0:0,0:0:0:0:
312,192,66974,2,0,P|200:220|116:184,1,180,8|0,0:0|0:0,0:0:0:0:
64,140,67666,1,0,0:0:0:0:
48,236,67897,6,0,P|64:296|112:312,1,90,2|0,0:0|0:0,0:0:0:0:
184,320,68358,2,0,L|284:324,1,90
360,272,68820,2,0,L|456:272,1,90,8|0,0:0|0:0,0:0:0:0:
504,188,69281,2,0,L|408:188,1,90
316,172,69743,2,0,P|268:136|264:88,1,90,0|2,0:0|0:0,0:0:0:0:
360,88,70205,2,0,L|216:212,1,180,2|8,0:0|0:0,0:0:0:0:
144,264,70897,1,2,0:0:0:0:
124,168,71128,2,0,P|104:124|52:100,1,90
40,196,71589,6,0,B|16:244|32:284|32:284|52:328|20:372,2,180,2|0|8,0:0|0:0|0:0,0:0:0:0:
168,44,72974,2,0,P|216:24|272:48,1,90
320,104,73435,2,0,P|363:111|403:92,1,90,0|2,0:0|0:0,0:0:0:0:
484,32,73897,2,0,P|452:76|480:212,2,180,2|8|0,0:0|0:0|0:0,0:0:0:0:
256,192,75281,12,4,78974,0:0:0:0:
320,296,79897,6,0,B|344:240|304:192|304:192|360:108,1,180,8|0,0:0|0:0,0:0:0:0:
332,36,80589,1,0,0:0:0:0:
256,100,80820,1,0,0:0:0:0:
180,36,81051,1,2,0:0:0:0:
169,134,81281,2,0,B|208:192|208:192|168:240|192:296,2,180,2|8|0,0:0|0:0|0:0,0:0:0:0:
92,76,82435,1,0,0:0:0:0:
88,176,82666,2,0,P|76:224|92:352,1,180,2|0,0:0|0:0,0:0:0:0:
420,351,83589,6,0,P|438:264|424:176,1,180,8|0,0:0|0:0,0:0:0:0:
352,108,84281,1,0,0:0:0:0:
284,36,84512,2,0,P|332:12|392:16,2,90,0|2|2,0:0|0:0|0:0,0:0:0:0:
232,120,85205,1,0,0:0:0:0:
140,160,85435,2,0,P|76:152|40:48,2,180,8|0|2,0:0|0:0|0:0,0:0:0:0:
472,340,87281,6,0,B|452:308|412:304|412:304|368:340|292:316,1,180,8|0,0:0|0:0,0:0:0:0:
256,240,87974,1,0,0:0:0:0:
316,160,88205,2,0,P|356:200|344:240,2,90,0|2|2,0:0|0:0|0:0,0:0:0:0:
216,156,88897,1,0,0:0:0:0:
156,236,89128,2,0,B|108:272|76:220|76:220|84:280|8:280,2,180,8|0|2,0:0|0:0|0:0,0:0:0:0:
316,32,90974,6,0,L|324:136,1,90,8|0,0:0|0:0,0:0:0:0:
420,104,91435,2,0,L|428:208,1,90
332,216,91897,2,0,L|340:320,1,90,0|2,0:0|0:0,0:0:0:0:
428,352,92358,2,0,P|376:320|256:352,1,180,2|8,0:0|0:0,0:0:0:0:
168,364,93051,2,0,P|104:368|60:336,1,90,2|0,0:0|0:0,0:0:0:0:
40,268,93512,1,0,0:0:0:0:
68,172,93743,2,0,P|80:108|192:60,1,180,2|0,0:0|0:0,0:0:0:0:
444,172,94666,6,0,P|432:108|320:60,1,180,8|0,0:0|0:0,0:0:0:0:
256,112,95358,1,0,0:0:0:0:
180,176,95589,2,0,B|176:256|76:260|80:328,2,180,0|2|8,0:0|0:0|0:0,0:0:0:0:
164,80,96743,1,2,0:0:0:0:
92,148,96974,2,0,B|88:184|40:192|32:228,1,90
80,318,97435,2,0,B|160:328|208:312|208:312|264:332,1,180,2|0,0:0|0:0,0:0:0:0:
431,318,98358,6,0,B|352:328|304:312|304:312|248:332,1,180,8|0,0:0|0:0,0:0:0:0:
160,308,99051,1,0,0:0:0:0:
224,236,99281,2,0,P|268:208|316:208,1,90,0|2,0:0|0:0,0:0:0:0:
404,220,99743,2,0,P|424:144|352:60,2,180,2|8|0,0:0|0:0|0:0,0:0:0:0:
328,156,100897,1,0,0:0:0:0:
268,76,101128,2,0,B|196:48|136:132|68:64,1,180,2|0,0:0|0:0,0:0:0:0:
72,280,102051,6,0,P|156:328|244:300,1,180,8|0,0:0|0:0,0:0:0:0:
304,240,102743,1,0,0:0:0:0:
380,176,102974,2,0,P|432:156|476:176,1,90,0|2,0:0|0:0,0:0:0:0:
496,260,103435,2,0,L|460:48,2,180,2|8|0,0:0|0:0|0:0,0:0:0:0:
424,328,104589,1,0,0:0:0:0:
336,280,104820,6,0,B|336:216|296:192|296:192|296:104,1,180,2|0,0:0|0:0,0:0:0:0:
256,24,105512,1,0,0:0:0:0:
160,52,105743,2,0,B|128:76|96:40|56:4|-16:48,1,180,8|0,0:0|0:0,0:0:0:0:
44,128,106435,1,0,0:0:0:0:
144,168,106666,6,0,L|152:256,1,62.9999980773926,0|2,0:0|0:0,0:0:0:0:
228,216,107128,2,0,L|232:300,1,72,2|0,0:0|0:0,0:0:0:0:
316,264,107589,2,0,L|320:352,1,80.9999975280763,8|2,0:0|0:0,0:0:0:0:
400,296,108051,6,0,L|396:52,1,233.999989288331,0|4,0:0|0:0,0:0:0:0:
192,60,109435,6,0,P|144:88|156:216,1,180,2|0,0:0|0:0,0:0:0:0:
320,60,110358,2,0,P|368:88|356:216,1,180,2|0,0:0|0:0,0:0:0:0:
300,272,111051,2,0,P|260:296|252:344,1,90,0|2,0:0|0:0,0:0:0:0:
348,360,111512,2,0,P|388:336|396:288,1,90
370,202,111974,1,0,0:0:0:0:
288,148,112205,6,0,L|200:84,1,90,2|0,0:0|0:0,0:0:0:0:
124,132,112666,2,0,L|212:196,1,90
268,252,113128,2,0,B|204:316|204:316|112:316,2,180,2|0|2,0:0|0:0|0:0,0:0:0:0:
340,184,114281,2,0,P|400:176|416:288,1,180
356,340,114974,2,0,P|432:368|480:356,2,90,2|0|0,0:0|0:0|0:0,0:0:0:0:
356,340,115897,1,2,0:0:0:0:
208,208,116358,6,0,P|212:124|204:84,1,90
304,208,116820,2,0,P|300:124|308:84,2,90,2|0|0,0:0|0:0|0:0,0:0:0:0:
260,16,117743,2,0,P|336:16|404:96,2,180,2|0|2,0:0|0:0|0:0,0:0:0:0:
100,136,119128,2,0,P|68:184|72:244,1,90
72,316,119589,2,0,B|144:284|212:344|268:284,1,180,2|0,0:0|0:0,0:0:0:0:
392,212,120512,2,0,B|320:244|252:184|196:244,1,180,2|0,0:0|0:0,0:0:0:0:
256,192,121435,12,4,123281,0:0:0:0:
80,240,124205,6,0,B|140:252|180:208|180:208|180:152|248:144,2,180,8|0|0,0:0|0:0|0:0,0:0:0:0:
432,240,125589,2,0,B|372:252|332:208|332:208|332:152|264:144,2,180,2|8|0,0:0|0:0|0:0,0:0:0:0:
256,328,126974,1,2,0:0:0:0:
208,240,127205,2,0,P|208:188|224:120,1,90
304,240,127666,2,0,P|304:188|288:120,1,90,0|8,0:0|0:0,0:0:0:0:
348,344,128358,2,0,P|384:320|408:260,2,90,0|0|0,0:0|0:0|0:0,0:0:0:0:
256,327,129051,2,0,P|212:319|156:331,1,90,2|2,0:0|0:0,0:0:0:0:
312,192,129743,2,0,P|200:164|116:200,1,180,8|0,0:0|0:0,0:0:0:0:
64,244,130435,1,0,0:0:0:0:
48,148,130666,6,0,P|64:88|112:72,1,90,2|0,0:0|0:0,0:0:0:0:
184,64,131128,2,0,L|284:60,1,90
360,112,131589,2,0,L|456:112,1,90,8|0,0:0|0:0,0:0:0:0:
504,196,132051,2,0,L|408:196,1,90
316,212,132512,2,0,P|268:248|264:296,1,90,2|2,0:0|0:0,0:0:0:0:
360,296,132974,2,0,L|216:172,1,180,2|8,0:0|0:0,0:0:0:0:
144,120,133666,1,2,0:0:0:0:
128,216,133897,2,0,P|108:256|56:280,1,90
40,188,134358,6,0,B|16:140|32:100|32:100|52:56|20:12,2,180,2|0|8,0:0|0:0|0:0,0:0:0:0:
168,340,135743,2,0,P|216:360|272:336,1,90
320,280,136205,2,0,P|363:273|403:292,1,90
484,352,136666,2,0,P|452:308|480:172,2,180,0|0|0,0:0|0:0|0:0,0:0:0:0:
356,200,138051,6,0,P|380:120|448:88,2,135.000005149842,4|0|8,0:0|0:0|0:0,0:0:0:0:
356,348,139435,1,0,0:0:0:0:
228,272,139897,2,0,P|188:256|136:272,1,67.5000025749208,0|2,0:0|0:0,0:0:0:0:
100,296,140358,2,0,P|56:252|60:160,1,135.000005149842,2|8,0:0|0:0,0:0:0:0:
88,116,141051,1,2,0:0:0:0:
156,84,141281,2,0,L|224:24,1,67.5000025749208
305,39,141743,6,0,L|408:132,2,135.000005149842,2|0|8,0:0|0:0|0:0,0:0:0:0:
256,180,143128,1,0,0:0:0:0:
175,303,143589,2,0,L|128:256,1,67.5000025749208,0|2,0:0|0:0,0:0:0:0:
240,340,144051,2,0,P|300:336|340:264,1,135.000005149842,2|8,0:0|0:0,0:0:0:0:
344,204,144743,1,2,0:0:0:0:
360,132,144974,2,0,P|380:84|420:64,1,67.5000025749208
440,132,145435,6,0,B|456:180|408:232|456:288,2,135.000005149842,2|0|8,0:0|0:0|0:0,0:0:0:0:
460,336,147281,2,0,P|408:332|384:300,1,67.5000025749208,0|2,0:0|0:0,0:0:0:0:
348,268,147743,2,0,P|308:228|216:216,1,135.000005149842,2|8,0:0|0:0,0:0:0:0:
172,256,148435,1,2,0:0:0:0:
112,300,148666,2,0,P|60:320|32:312,1,67.5000025749208
64,244,149128,2,0,B|80:192|36:136|64:88,2,135.000005149842,2|0|8,0:0|0:0|0:0,0:0:0:0:
256,192,150512,12,4,152820,0:0:0:0:
176,256,153281,6,0,P|160:216|188:148,1,80.9999975280763
252,204,153743,2,0,P|264:160|300:136,1,80.9999975280763,8|0,0:0|0:0,0:0:0:0:
344,212,154205,2,0,P|404:192|452:208,1,80.9999975280763
484,132,154666,2,0,P|448:84|412:72,1,80.9999975280763,0|2,0:0|0:0,0:0:0:0:
340,76,155128,2,0,B|288:84|252:60|228:40|160:64,1,161.999995056153,2|8,0:0|0:0,0:0:0:0:
112,112,155820,1,2,0:0:0:0:
68,188,156051,1,0,0:0:0:0:
188,316,156512,6,0,B|264:336|292:260|368:320,2,161.999995056153,2|0|8,0:0|0:0|0:0,0:0:0:0:
344,228,157897,2,0,P|392:240|416:292,1,80.9999975280763
392,356,158358,2,0,P|340:376|304:364,1,80.9999975280763,0|2,0:0|0:0,0:0:0:0:
272,292,158820,2,0,P|252:240|160:188,1,161.999995056153,2|8,0:0|0:0,0:0:0:0:
76,184,159512,2,0,P|60:136|76:96,1,80.9999975280763,2|0,0:0|0:0,0:0:0:0:
232,40,160205,6,0,B|304:36|352:48|352:48|412:96,2,161.999995056153,2|0|8,0:0|0:0|0:0,0:0:0:0:
368,156,161589,2,0,P|432:148|456:120,1,80.9999975280763
384,73,162051,2,0,P|336:72|304:100,1,80.9999975280763,0|2,0:0|0:0,0:0:0:0:
284,176,162512,2,0,P|248:232|144:224,1,161.999995056153,2|8,0:0|0:0,0:0:0:0:
100,168,163205,1,2,0:0:0:0:
64,248,163435,2,0,P|80:292|116:320,1,80.9999975280763
192,340,163897,2,0,P|272:336|336:276,2,161.999995056153,2|0|8,0:0|0:0|0:0,0:0:0:0:
256,192,164935,12,4,167589,0:0:0:0:
256,116,182358,5,4,0:0:0:0:
60,188,183281,2,0,B|92:136|156:280|224:200,1,180,8|0,0:0|0:0,0:0:0:0:
452,188,184205,2,0,B|420:136|356:280|288:200,1,180,0|2,0:0|0:0,0:0:0:0:
180,44,185128,1,8,0:0:0:0:
232,128,185358,1,2,0:0:0:0:
232,128,185589,2,0,P|292:140|328:124,1,90
377,54,186051,1,2,0:0:0:0:
428,245,186512,6,0,P|372:264|340:296,1,90
262,353,186974,1,8,0:0:0:0:
184,292,187205,1,0,0:0:0:0:
109,228,187435,1,0,0:0:0:0:
32,44,187897,6,0,P|88:28|192:88,1,180,0|2,0:0|0:0,0:0:0:0:
256,156,188589,1,0,0:0:0:0:
322,83,188820,2,0,P|393:31|480:44,2,180,8|0|2,0:0|0:0|0:0,0:0:0:0:
312,280,190205,2,0,P|320:216|296:184,1,90
203,196,190666,2,0,P|187:237|200:280,2,90,8|0|0,0:0|0:0|0:0,0:0:0:0:
320,356,191589,6,0,P|368:328|352:216,1,180,0|2,0:0|0:0,0:0:0:0:
280,156,192281,1,0,0:0:0:0:
200,96,192512,2,0,P|152:120|88:92,1,90,8|2,0:0|0:0,0:0:0:0:
56,36,192974,2,0,L|148:232,2,180,0|2|0,0:0|0:0|0:0,0:0:0:0:
56,36,194358,1,8,0:0:0:0:
256,192,194820,12,4,197128,0:0:0:0:
308,352,198051,6,0,P|344:312|336:212,1,135.000005149842,8|0,0:0|0:0,0:0:0:0:
304,172,198743,1,0,0:0:0:0:
256,116,198974,2,0,L|372:40,2,135.000005149842,2|0|10,0:0|0:0|0:0,0:0:0:0:
232,184,200128,1,0,0:0:0:0:
208,256,200358,2,0,P|165:305|136:308,1,67.5000025749208
92,324,200820,6,0,L|248:368,2,135.000005149842,2|0|10,0:0|0:0|0:0,0:0:0:0:
60,180,202205,2,0,P|56:128|72:92,1,67.5000025749208
128,144,202666,2,0,P|148:88|212:56,2,135.000005149842,2|0|10,0:0|0:0|0:0,0:0:0:0:
164,208,203820,1,0,0:0:0:0:
208,268,204051,2,0,P|236:300|272:304,1,67.5000025749208
332,296,204512,6,0,P|396:292|468:332,2,135.000005149842,2|0|10,0:0|0:0|0:0,0:0:0:0:
192,344,205897,2,0,P|152:320|124:320,1,67.5000025749208
72,360,206358,2,0,P|112:308|100:240,1,135.000005149842,2|0,0:0|0:0,0:0:0:0:
76,172,207051,1,0,0:0:0:0:
68,100,207281,2,0,P|112:56|192:52,1,135.000005149842,10|0,0:0|0:0,0:0:0:0:
236,100,207974,1,0,0:0:0:0:
288,152,208205,6,0,L|388:256,2,135.000005149842,2|0|10,0:0|0:0|0:0,0:0:0:0:
432,196,209589,2,0,P|456:236|452:268,1,67.5000025749208
416,320,210051,2,0,B|368:352|316:308|316:308|268:312,2,135.000005149842,2|0|10,0:0|0:0|0:0,0:0:0:0:
472,184,211435,1,0,0:0:0:0:
304,96,211897,6,0,P|264:80|200:88,1,85.4999977169037,4|0,0:0|0:0,0:0:0:0:
224,176,212358,2,0,L|157:18,2,170.999995433807,0|8|0,0:0|0:0|0:0,0:0:0:0:
192,264,213512,1,0,0:0:0:0:
272,320,213743,2,0,P|320:328|384:288,1,90,0|2,0:0|0:0,0:0:0:0:
416,236,214205,2,0,B|448:172|376:108|416:52,2,180,2|8|0,0:0|0:0|0:0,0:0:0:0:
456,328,215358,1,0,0:0:0:0:
357,314,215589,6,0,P|304:276|184:296,2,180,2|0|8,0:0|0:0|0:0,0:0:0:0:
164,360,216974,2,0,P|124:328|116:288,1,90
148,200,217435,2,0,L|180:16,2,180,0|2|8,0:0|0:0|0:0,0:0:0:0:
204,280,218589,1,2,0:0:0:0:
256,364,218820,1,0,0:0:0:0:
308,280,219051,1,0,0:0:0:0:
364,200,219281,6,0,L|332:16,2,180,4|0|8,0:0|0:0|0:0,0:0:0:0:
244,40,220666,2,0,L|264:148,1,90
224,220,221128,2,0,P|164:264|64:212,2,180,0|2|8,0:0|0:0|0:0,0:0:0:0:
320,196,222281,1,2,0:0:0:0:
296,100,222512,2,0,P|264:68|204:72,1,90
128,104,222974,6,0,B|64:124|76:177|96:232|40:268,2,180,2|0|8,0:0|0:0|0:0,0:0:0:0:
148,300,224358,2,0,P|168:248|168:208,1,90
240,284,224820,2,0,P|240:200|180:96,2,180,0|2|8,0:0|0:0|0:0,0:0:0:0:
196,372,225974,1,2,0:0:0:0:
292,344,226205,2,0,P|324:308|320:256,1,90
256,192,226666,12,0,230358,0:0:0:0:
