osu file format v9

[General]
AudioFilename: Beyonce_Halo.mp3
AudioLeadIn: 3000
PreviewTime: 49907
Countdown: 0
SampleSet: Soft
StackLeniency: 0.7
Mode: 1
LetterboxInBreaks: 0

[Editor]
Bookmarks: 32,11657,57782,84407,90407,121532,156407,168407,183220,190345
DistanceSpacing: 0.9
BeatDivisor: 4
GridSize: 4

[Metadata]
Title:Halo
Artist:Beyonce
Creator:Rukarioman
Version:lepidon! - Taiko Oni
Source:
Tags:Icebeam Gonzvlo Gladi GladiOol lepidon lepidopodus

[Difficulty]
HPDrainRate:5
CircleSize:5
OverallDifficulty:6
ApproachRate:5
SliderMultiplier:1.4
SliderTickRate:1

[Events]
//Background and Video events
0,0,"Beyonce_Knowles_-_Yes.jpg"
//Break Periods
//Storyboard Layer 0 (Background)
//Storyboard Layer 1 (Fail)
//Storyboard Layer 2 (Pass)
//Storyboard Layer 3 (Foreground)
//Storyboard Sound Samples
//Background Colour Transformations
3,100,163,162,255

[TimingPoints]
407.841013135626,750,4,2,1,75,1,0
48220,-100,4,2,1,85,0,0
72407,-100,4,2,1,85,0,1
84407,-100,4,2,1,75,0,0
120220,-100,4,2,1,85,0,0
144407,-100,4,2,1,85,0,1
156407,-100,4,2,1,75,0,0
183220,-100,4,2,1,85,0,0
195407,-100,4,2,1,85,0,1
219407,-100,4,2,1,75,0,0

[Colours]
Combo1 : 243,215,10
Combo2 : 77,196,26
Combo3 : 21,122,223
Combo4 : 240,81,4

[HitObjects]
104,180,407,1,0
228,180,1157,1,8
352,176,1907,1,0
476,172,2657,1,8
460,200,2845,1,0
364,200,3407,1,0
280,244,3970,1,0
304,228,4157,1,8
352,112,4907,1,0
396,196,5470,1,0
424,184,5657,1,8
444,208,5845,1,0
352,224,6407,1,0
448,144,7157,1,8
364,240,7907,1,0
304,256,8282,1,0
332,200,8657,1,8
364,192,8845,1,0
272,208,9407,1,0
244,300,9970,1,0
272,284,10157,1,8
364,196,10907,1,0
460,200,11470,1,0
468,168,11657,1,8
444,188,11845,1,0
424,212,12032,1,0
360,208,12407,5,0
260,128,13157,1,8
348,164,13720,1,0
352,196,13907,1,0
356,228,14095,1,0
372,200,14282,1,8
428,168,14657,1,8
444,196,14845,1,0
380,204,15220,1,0
348,212,15407,1,0
256,200,15970,1,0
288,192,16157,1,8
380,176,16720,1,0
412,176,16907,1,0
400,204,17095,1,0
360,252,17470,1,0
412,176,17657,1,8
432,152,17845,1,0
416,180,18032,1,0
352,188,18407,1,0
348,64,19157,1,8
380,152,19720,1,0
380,184,19907,1,0
368,212,20095,1,0
356,240,20282,1,0
408,204,20657,1,8
432,184,20845,1,0
408,244,21220,1,0
396,272,21407,1,0
312,224,21970,1,0
328,196,22157,1,8
412,152,22720,1,0
400,180,22907,1,0
388,208,23095,1,0
364,268,23470,1,0
388,248,23657,1,8
412,228,23845,1,0
404,260,24032,1,0
372,252,24220,1,0
272,128,25157,5,8
352,180,25720,1,0
364,208,25907,1,0
364,240,26095,1,0
384,216,26282,1,8
408,276,26657,1,8
416,244,26845,1,0
352,248,27220,1,0
320,248,27407,1,0
228,268,27970,1,0
252,248,28157,1,8
312,224,28532,1,0
340,212,28720,1,0
372,204,28907,1,0
356,264,29282,1,0
368,292,29470,1,0
380,264,29657,1,8
384,232,29845,1,0
352,236,30032,1,0
292,212,30407,1,0
408,168,31157,1,8
408,232,31532,1,8
392,204,31720,1,0
360,212,31907,1,0
320,260,32282,1,0
352,260,32470,1,0
372,224,32657,1,8
400,208,32845,1,0
336,200,33220,1,0
304,200,33407,1,0
364,180,33782,1,8
392,172,33970,1,0
424,168,34157,1,8
456,256,34720,1,0
428,268,34907,1,0
364,276,35282,1,0
352,216,35657,1,8
332,192,35845,1,0
300,200,36032,1,0
252,240,36407,5,0
232,296,36782,1,0
256,316,36970,1,0
280,296,37157,1,8
352,232,37720,1,0
320,232,37907,1,0
288,236,38095,1,0
256,244,38282,1,0
308,208,38657,1,8
336,192,38845,1,8
360,172,39032,1,8
400,124,39407,1,0
428,176,39782,1,0
432,208,39970,1,0
400,212,40157,1,8
368,156,40532,1,8
368,188,40720,1,8
368,220,40907,1,0
368,188,41282,1,8
372,252,41657,1,8
376,284,41845,1,8
376,284,42032,1,8
316,260,42407,1,0
272,216,42782,1,0
248,192,42970,1,0
276,180,43157,1,8
340,180,43532,1,0
372,184,43720,1,0
404,192,43907,1,0
376,248,44282,1,0
324,280,44657,1,0
296,292,44845,1,0
268,300,45032,1,0
228,252,45407,1,0
300,188,45970,1,0
328,176,46157,1,8
388,192,46532,1,8
408,252,46907,1,0
348,272,47282,1,0
380,272,47470,1,0
396,244,47657,1,8
408,216,47845,1,0
380,228,48032,1,0
352,172,48407,5,4
340,160,49907,1,0
324,188,50095,1,0
356,184,50282,1,8
416,196,50657,1,0
468,160,51032,1,8
436,164,51220,1,0
404,172,51407,1,0
316,212,51970,1,0
296,188,52157,1,8
356,204,52532,1,8
388,208,52720,1,0
404,236,52907,1,0
348,268,53282,1,0
380,212,53657,1,8
404,188,53845,1,0
404,188,54032,1,0
340,188,54407,1,0
460,148,55157,1,8
364,228,55907,1,0
344,252,56095,1,0
320,272,56282,1,0
288,216,56657,1,8
256,208,56845,1,0
248,144,57220,1,0
272,124,57407,1,0
340,192,57970,1,0
360,216,58157,1,8
428,148,58720,1,0
412,172,58907,1,0
400,200,59095,1,8
392,228,59282,1,8
380,288,59657,1,8
348,284,59845,1,0
316,280,60032,1,0
280,228,60407,5,4
292,8,61720,1,0
308,36,61907,1,8
324,96,62282,1,8
352,152,62657,1,8
372,176,62845,1,0
376,208,63032,1,0
340,260,63407,1,0
296,176,63970,1,0
328,176,64157,1,8
400,240,64720,1,0
396,272,64907,1,0
380,300,65095,1,0
384,268,65282,1,8
324,248,65657,1,8
328,216,65845,1,0
328,216,66032,1,0
268,232,66407,1,0
380,176,67157,1,8
404,300,67907,1,0
380,280,68095,1,0
348,276,68282,1,0
376,220,68657,1,8
352,240,68845,1,0
296,268,69220,1,0
268,280,69407,1,0
332,212,69970,1,0
352,188,70157,1,8
400,228,70532,1,8
368,280,70907,1,0
304,288,71282,1,0
328,232,71657,1,8
332,200,71845,1,0
240,184,72407,5,4
284,304,73157,1,4
388,236,73907,2,4,B|260:144,1,140
256,280,75407,1,4
376,236,76157,1,4
252,208,76907,2,4,B|92:200,1,140
240,200,78407,1,4
360,244,79157,1,4
240,200,79907,2,4,B|72:192,1,140
224,180,81407,1,4
340,232,82157,1,4
220,200,82907,2,4,B|16:312,1,210
340,224,85907,5,8
312,236,86095,1,8
312,236,86282,1,8
288,256,86470,1,8
288,256,86657,1,8
348,272,87032,1,8
380,280,87220,1,8
380,216,89095,1,8
380,216,89282,1,8
352,228,89470,1,8
320,232,89657,1,8
304,292,89845,1,8
304,292,90220,1,8
280,272,90407,1,0
360,176,91157,1,8
332,300,91907,1,0
340,236,92282,1,0
388,196,92657,1,8
392,164,92845,1,0
328,232,93407,1,0
260,300,93970,1,0
280,276,94157,1,8
372,192,94907,1,0
308,192,95282,1,0
368,240,95657,1,8
368,240,95845,1,0
372,272,96032,1,0
312,248,96407,5,0
260,212,96782,1,0
236,192,96970,1,0
248,164,97157,1,8
344,172,97720,1,0
360,200,97907,1,0
356,232,98095,1,0
344,260,98282,1,8
376,204,98657,1,8
376,204,98845,1,8
376,204,99032,1,8
320,172,99407,1,0
284,224,99782,1,0
304,200,99970,1,0
376,204,100157,1,8
416,292,100720,1,0
388,304,100907,1,0
360,316,101095,1,8
376,204,101282,1,8
384,140,101657,1,8
400,168,101845,1,8
416,196,102032,1,0
360,220,102407,1,0
336,96,103157,1,8
360,220,103907,1,0
352,252,104095,1,0
336,280,104282,1,0
380,236,104657,1,8
396,208,104845,1,0
332,200,105220,1,0
300,204,105407,1,0
332,292,105970,1,0
356,272,106157,1,8
324,360,106720,1,0
440,176,106907,1,0
356,272,107095,1,0
380,200,107282,1,8
424,156,107657,1,8
408,184,107845,1,0
392,212,108032,1,0
328,220,108407,5,8
268,240,108782,1,0
240,252,108970,1,0
260,228,109157,1,8
336,284,109720,1,0
360,304,109907,1,0
344,244,110282,1,8
352,180,110657,1,8
352,180,110845,1,8
384,180,111032,1,0
384,172,111407,1,8
324,196,111782,1,0
348,216,111970,1,8
364,244,112157,1,8
304,260,112532,1,0
272,268,112720,1,0
272,268,112907,1,0
316,224,113282,1,8
364,244,113657,1,8
376,272,113845,1,8
376,240,114032,1,0
356,216,114220,1,0
324,220,114407,1,0
272,252,114782,1,0
244,268,114970,1,0
260,240,115157,1,8
176,192,115720,1,0
176,192,115907,1,0
236,216,116282,1,0
296,200,116657,1,8
328,192,116845,1,0
360,188,117032,1,8
224,144,117407,1,0
296,208,117970,1,0
324,192,118157,1,8
228,184,118720,1,0
200,192,118907,1,0
216,220,119095,1,0
324,192,119470,1,0
356,184,119657,1,8
384,200,119845,1,0
396,228,120032,1,0
416,168,120407,5,4
180,252,121907,1,0
212,248,122095,1,0
212,248,122282,1,0
272,228,122657,1,8
336,236,123032,1,8
364,224,123220,1,0
396,220,123407,1,0
304,200,123970,1,0
332,184,124157,1,8
340,248,124532,1,0
340,280,124720,1,0
396,220,124907,1,8
340,248,125282,1,8
356,220,125470,1,0
340,192,125657,1,8
364,172,125845,1,0
364,172,126032,1,0
316,212,126407,1,0
364,172,127157,1,8
452,260,127907,1,0
392,244,128282,1,0
376,184,128657,1,8
344,180,128845,1,0
284,204,129220,1,0
252,212,129407,1,0
344,240,129970,1,0
376,184,130157,1,8
384,248,130532,1,8
376,184,130907,1,8
320,212,131282,1,0
312,188,131470,1,0
340,180,131658,1,8
356,204,131845,1,0
352,236,132033,1,0
368,176,132407,5,4
164,256,133720,1,0
196,256,133907,1,0
228,260,134095,1,0
260,268,134282,1,8
312,232,134657,1,8
336,212,134845,1,0
360,192,135032,1,0
372,164,135220,1,8
376,196,135407,1,0
308,260,135970,1,0
336,244,136157,1,8
248,208,136720,1,0
376,196,136907,1,8
376,196,137095,1,8
376,196,137282,1,8
400,256,137657,1,8
376,276,137845,1,8
372,244,138032,1,0
368,276,138220,1,0
308,252,138407,1,0
384,152,139157,1,8
400,276,139907,1,0
368,276,140095,1,0
336,284,140282,1,0
312,264,140470,1,0
292,240,140657,1,8
340,200,141032,1,8
372,196,141220,1,0
388,224,141407,1,0
292,240,141970,1,0
312,216,142157,1,8
336,156,142532,1,8
432,176,142907,1,0
380,208,143282,1,0
428,168,143657,1,8
400,180,143845,1,0
240,184,144407,5,4
284,304,145157,1,4
388,236,145907,2,4,B|260:144,1,140
336,164,147032,1,4
256,280,147407,1,4
376,236,148157,1,4
252,208,148907,2,4,B|92:200,1,140
172,224,150032,1,4
240,200,150407,1,4
360,244,151157,1,4
240,200,151907,2,4,B|72:192,1,140
188,232,153032,1,4
224,180,153407,1,4
340,232,154157,1,4
220,200,154907,2,4,B|16:312,1,210
96,280,156407,5,8
216,240,157157,1,8
336,204,157907,1,8
332,328,158657,1,8
332,264,159032,1,8
332,264,159407,1,8
332,284,160157,1,8
332,284,160907,1,8
332,284,161657,1,8
364,280,161845,1,8
364,280,162032,1,8
364,280,162407,1,8
228,356,163157,1,8
288,244,163907,1,8
404,288,164657,1,8
344,264,165032,1,8
344,264,165407,1,8
268,364,166157,1,8
304,244,166907,1,8
380,344,167657,1,8
344,292,167845,1,8
356,264,168032,1,0
352,232,168220,1,0
368,204,168407,5,8
304,196,168782,1,0
364,184,169157,1,8
424,164,169532,1,0
424,164,169907,1,8
404,224,170282,1,8
344,236,170657,1,0
440,156,171407,1,8
380,168,171782,1,0
444,172,172157,1,8
408,224,172532,1,0
364,180,172907,1,8
300,172,173282,1,8
364,168,173657,1,8
396,168,173845,1,8
420,188,174032,1,0
432,216,174220,1,0
432,184,174407,1,0
368,188,174782,1,0
368,124,175157,1,8
368,188,175532,1,0
356,252,175907,1,0
344,280,176095,1,0
344,248,176282,1,8
372,192,176657,1,0
252,228,177407,1,0
164,260,177970,1,0
192,248,178157,1,0
316,244,178907,1,0
376,260,179282,1,0
368,196,179657,1,8
392,176,179845,1,0
256,192,180407,12,0,183032
256,200,183407,5,4
480,316,184907,1,0
452,304,185095,1,0
424,292,185282,1,0
396,280,185470,1,0
384,252,185657,1,8
336,208,186032,1,8
352,180,186220,1,0
348,148,186407,1,8
412,152,186782,1,0
444,156,186970,1,0
412,164,187157,1,8
392,224,187532,1,8
332,248,187907,1,8
304,264,188095,1,8
280,244,188282,1,0
320,196,188657,1,8
344,172,188845,1,8
376,172,189032,1,0
376,172,189220,1,0
376,172,189407,1,0
316,192,189782,1,0
288,204,189970,1,0
268,236,190157,1,8
324,208,190532,1,8
384,184,190907,1,0
376,216,191095,1,0
368,248,191282,1,0
356,276,191470,1,0
356,244,191657,1,8
296,228,192032,1,8
304,196,192220,1,0
276,184,192407,1,0
368,200,192970,1,0
368,168,193157,1,8
380,228,193532,1,8
344,280,193907,1,0
332,340,194282,1,0
368,168,194657,1,8
368,168,194845,1,0
240,184,195407,5,4
284,304,196157,1,4
388,236,196907,2,4,B|260:144,1,140
336,164,198032,1,4
256,280,198407,1,4
376,236,199157,1,4
252,208,199907,2,4,B|92:200,1,140
172,224,201032,1,4
240,200,201407,1,4
360,244,202157,1,4
240,200,202907,2,4,B|72:192,1,140
188,232,204032,1,4
224,180,204407,1,4
340,232,205157,1,4
220,200,205907,2,4,B|16:312,1,210
92,272,207407,5,12
152,252,207782,1,4
212,236,208157,1,12
272,216,208532,1,4
328,188,208907,2,4,B|176:136,1,140
260,140,210032,1,4
324,148,210407,1,12
384,160,210782,1,4
448,168,211157,1,12
476,224,211532,1,4
412,228,211907,2,4,B|248:232,1,140
292,172,213032,1,4
356,168,213407,1,12
420,172,213782,1,4
484,176,214157,1,12
436,216,214532,1,4
372,228,214907,2,4,B|208:248,1,140
284,208,216032,1,4
340,184,216407,1,12
404,180,216782,1,4
460,148,217157,1,12
456,212,217532,1,4
392,220,217907,2,4,B|168:232,1,210
144,180,219407,5,0
232,212,219970,1,0
264,208,220157,1,8
388,228,220907,1,0
328,300,221470,1,0
344,272,221657,1,8
344,240,221845,1,0
340,208,222032,1,0
316,228,222220,1,0
292,248,222407,1,0
