osu file format v5

[General]
AudioFilename: Beyonce - Diva.mp3
AudioLeadIn: 0
PreviewTime: -1
Countdown: 1
SampleSet: Normal
StackLeniency: 0.7
Mode: 0
LetterboxInBreaks: 1
EditorBookmarks: 4786,30536,35563,38846,42129,48695,53414,103274,105326
EditorDistanceSpacing: 0.699999988079071

[Metadata]
Title:Diva
Artist:Beyonce
Creator:Lissette
Version:Easy
Source:
Tags:

[Difficulty]
HPDrainRate:4
CircleSize:3
OverallDifficulty:3
SliderMultiplier:1
SliderTickRate:2

[Events]
//Background and Video events
0,0,"Beyonce%20Pink_800.jpg"
//Break Periods
2,25914,26737
2,53408,64490
2,105530,118253
//Storyboard Layer 0 (Background)
//Storyboard Layer 1 (Fail)
//Storyboard Layer 2 (Pass)
//Storyboard Layer 3 (Foreground)
//Storyboard Sound Samples
//Background Colour Transformations
3,100,163,162,255

[TimingPoints]
276,410.368647835305,4,1,0,70,1,0
132414,-100,4,2,0,100,0,0
138570,-100,4,1,0,100,0,0

[Colours]
Combo1 : 255,148,40
Combo2 : 255,0,128
Combo3 : 0,128,255
Combo4 : 255,255,79
Combo5 : 255,255,255

[HitObjects]
176,328,4790,2,0,B|384:328,1,200
368,184,6431,6,0,B|160:184,1,200,0|0
96,112,8073,6,8,B|96:216,2,100
176,32,9714,6,8,B|176:144,2,100
256,112,11355,6,8,B|256:224,2,100,8|8|12
120,264,13407,5,0
256,264,14228,1,0
392,264,15049,1,0
392,264,15870,1,8
376,128,16690,5,0
304,128,17101,1,0
336,64,17511,1,8
208,128,18332,5,0
136,128,18742,1,0
168,64,19152,1,8
304,64,19973,5,0
304,208,20794,1,8
416,288,21615,5,0
416,216,22025,1,0
416,144,22435,1,8
328,256,23256,5,0
328,256,23667,1,0
328,256,24077,1,8
184,256,24898,5,0
184,256,25308,1,0
184,256,25718,1,8
168,128,28181,5,0
240,128,28591,1,0
312,128,29001,1,2
232,264,29822,6,0,B|288:264,10,50,8|0|0|8|0|0|8|0|0|8|8
256,200,32284,1,2
392,200,33105,5,0
392,56,33926,1,0
248,56,34746,1,0
248,56,35567,1,2
248,192,36388,5,0
104,192,37209,1,0
104,48,38029,1,0
104,48,38850,1,2
256,192,40081,5,0
256,192,40492,1,4
256,328,41312,5,0
184,328,41723,1,0
112,328,42133,1,12
184,208,42954,5,0
184,64,43775,1,8
40,64,44595,1,0
40,200,45416,1,4
168,200,46237,5,0
304,200,47058,1,8
440,200,47878,1,0
440,200,48289,1,0
440,200,48699,1,8
288,200,49520,5,0
360,320,50340,1,8
216,320,51161,2,0,B|160:320,4,50
192,256,52392,6,8,B|256:216|320:216|384:256,1,200
296,48,65934,5,0
208,160,66755,1,0
304,256,67576,1,0
208,352,68397,1,8
256,208,69217,5,0
256,136,69628,1,0
256,64,70038,1,8
256,208,70859,5,0
256,280,71269,1,0
256,352,71680,1,8
184,232,72500,5,0
328,232,73321,1,8
256,112,74142,1,0
256,112,74963,1,8
120,248,75783,5,0
256,248,76604,1,8
256,248,77014,1,0
328,248,77425,1,0
328,248,77835,1,0
400,248,78246,1,8
360,48,79887,6,8,B|152:48,1,200,0|8
48,88,81528,6,0,B|48:296,1,200,0|8
168,328,83170,6,8,B|376:328,1,200,0|8
480,280,84811,6,8,B|480:72,1,200,0|8
408,80,86043,6,0,B|104:80,1,300,0|0
108,80,88094,1,4
256,152,88915,5,0
328,152,89325,1,0
288,208,89736,1,8
168,288,90557,5,0
96,288,90967,1,0
136,232,91377,1,8
168,80,92608,5,0
168,80,93019,1,8
344,80,94250,5,0
344,80,94660,1,8
400,184,95481,5,0
320,312,96302,1,8
256,184,97123,1,0
184,312,97943,1,8
120,184,98764,2,0,B|328:184,1,200,0|4
352,56,100405,6,0,B|144:56,1,200,0|4
184,192,102047,6,0,B|392:192,1,200,0|4
256,192,103278,12,0,105330
88,192,119693,5,0
224,192,120514,1,2
224,48,121334,5,0
360,48,122155,1,2
360,184,122976,1,0
360,320,123796,1,2
216,320,124617,5,0
216,176,125438,1,2
72,176,126259,5,0
72,312,127079,1,2
208,312,127900,1,0
344,312,128721,1,2
344,168,129542,5,0
480,168,130362,1,2
480,168,130773,1,2
128,184,132825,5,0
184,152,133235,1,0
256,152,133645,1,2
312,184,134056,1,0
312,184,134261,1,2
416,280,136108,5,0
360,328,136518,1,0
288,328,136928,1,2
232,288,137339,1,0
232,288,137544,1,2
120,72,138980,5,4
256,200,139801,1,0
392,320,140622,1,4
416,184,141442,5,0
360,144,141853,1,0
304,184,142263,1,8
248,144,142673,1,0
192,184,143084,1,0
136,144,143494,1,8
88,192,143905,2,0,B|96:224|144:248|160:256|184:248|224:240|256:192,1,200,0|4
