osu file format v14

[General]
AudioFilename: Betwixt & Between - 12 little fragments of silence1.mp3
AudioLeadIn: 0
PreviewTime: 244408
Countdown: 0
SampleSet: Normal
StackLeniency: 0.7
Mode: 3
LetterboxInBreaks: 0
SpecialStyle: 0
WidescreenStoryboard: 1

[Editor]
DistanceSpacing: 0.8
BeatDivisor: 4
GridSize: 8
TimelineZoom: 1.8

[Metadata]
Title:12 little fragments of silence
TitleUnicode:12 little fragments of silence
Artist:Betwixt & Between
ArtistUnicode:Betwixt & Between
Creator:Fullerene-
Version:............
Source:
Tags:Kaoru Kimura rCaliberGX SPEED BALL Z TCPLUS-0005 Freeform HARDCORE TANO*C
BeatmapID:486159
BeatmapSetID:206097

[Difficulty]
HPDrainRate:7
CircleSize:7
OverallDifficulty:8.5
ApproachRate:5
SliderMultiplier:1.4
SliderTickRate:1

[Events]
//Background and Video events
0,0,"12 little fragments of silence bg.png",0,0
//Break Periods
2,152972,166572
//Storyboard Layer 0 (Background)
//Storyboard Layer 1 (Fail)
//Storyboard Layer 2 (Pass)
//Storyboard Layer 3 (Foreground)
//Storyboard Sound Samples

[TimingPoints]
45,272.727272727273,4,1,1,40,1,0
10954,-71.4285714285714,4,1,1,40,0,0
11056,-166.666666666667,4,1,1,40,0,0
11158,-71.4285714285714,4,1,1,40,0,0
11260,-166.666666666667,4,1,1,40,0,0
11363,-71.4285714285714,4,1,1,40,0,0
11465,-166.666666666667,4,1,1,40,0,0
11567,-71.4285714285714,4,1,1,40,0,0
11670,-166.666666666667,4,1,1,40,0,0
11772,-71.4285714285714,4,1,1,40,0,0
11874,-166.666666666667,4,1,1,40,0,0
11976,-100,4,1,1,40,0,0
13135,-71.4285714285714,4,1,1,40,0,0
13238,-166.666666666667,4,1,1,40,0,0
13340,-71.4285714285714,4,1,1,40,0,0
13442,-166.666666666667,4,1,1,40,0,0
13545,-71.4285714285714,4,1,1,40,0,0
13647,-166.666666666667,4,1,1,40,0,0
13749,-71.4285714285714,4,1,1,40,0,0
13851,-166.666666666667,4,1,1,40,0,0
13954,-71.4285714285714,4,1,1,40,0,0
14056,-166.666666666667,4,1,1,40,0,0
14158,-100,4,1,1,40,0,0
15317,-62.5,4,1,1,40,0,0
15385,-250,4,1,1,40,0,0
15454,-100,4,1,1,40,0,0
16408,-62.5,4,1,1,40,0,0
16476,-250,4,1,1,40,0,0
16545,-100,4,1,1,40,0,0
17499,-62.5,4,1,1,40,0,0
17567,-250,4,1,1,40,0,0
17635,-100,4,1,1,40,0,0
18045,-62.5,4,1,1,40,0,0
18113,-250,4,1,1,40,0,0
18181,-100,4,1,1,40,0,0
18590,-62.5,4,1,1,40,0,0
18726,-250,4,1,1,40,0,0
18863,-62.5,4,1,1,40,0,0
18999,-250,4,1,1,40,0,0
19135,-62.5,4,1,1,40,0,0
19238,-250,4,1,1,40,0,0
19340,-100,4,1,1,40,0,0
19545,-90.9090909090909,4,1,1,40,0,0
19613,-83.3333333333333,4,1,1,40,0,0
19681,-100,4,1,1,40,0,0
34954,-52.6315789473684,4,1,1,40,0,0
34971,-1000,4,1,1,40,0,0
34988,-52.6315789473684,4,1,1,40,0,0
35005,-1000,4,1,1,40,0,0
35022,-52.6315789473684,4,1,1,40,0,0
35039,-1000,4,1,1,40,0,0
35056,-52.6315789473684,4,1,1,40,0,0
35073,-1000,4,1,1,40,0,0
35090,-52.6315789473684,4,1,1,40,0,0
35107,-1000,4,1,1,40,0,0
35124,-52.6315789473684,4,1,1,40,0,0
35141,-1000,4,1,1,40,0,0
35158,-52.6315789473684,4,1,1,40,0,0
35175,-1000,4,1,1,40,0,0
35192,-52.6315789473684,4,1,1,40,0,0
35209,-1000,4,1,1,40,0,0
35226,-100,4,1,1,40,0,0
35363,-52.6315789473684,4,1,1,40,0,0
35380,-1000,4,1,1,40,0,0
35397,-52.6315789473684,4,1,1,40,0,0
35414,-1000,4,1,1,40,0,0
35431,-52.6315789473684,4,1,1,40,0,0
35448,-1000,4,1,1,40,0,0
35465,-52.6315789473684,4,1,1,40,0,0
35482,-1000,4,1,1,40,0,0
35499,-52.6315789473684,4,1,1,40,0,0
35516,-1000,4,1,1,40,0,0
35533,-52.6315789473684,4,1,1,40,0,0
35550,-1000,4,1,1,40,0,0
35567,-52.6315789473684,4,1,1,40,0,0
35584,-1000,4,1,1,40,0,0
35601,-52.6315789473684,4,1,1,40,0,0
35618,-1000,4,1,1,40,0,0
35635,-100,4,1,1,40,0,0
36045,-133.333333333333,4,1,1,40,0,0
36181,-67.1140939597315,4,1,1,40,0,0
36249,-133.333333333333,4,1,1,40,0,0
36385,-67.1140939597315,4,1,1,40,0,0
36454,-133.333333333333,4,1,1,40,0,0
36590,-67.1140939597315,4,1,1,40,0,0
36658,-133.333333333333,4,1,1,40,0,0
36795,-67.1140939597315,4,1,1,40,0,0
36863,-133.333333333333,4,1,1,40,0,0
36931,-79.9999999999999,4,1,1,40,0,0
36999,-100,4,1,1,40,0,0
43545,-90.9090909090909,4,1,1,40,0,0
43613,-83.3333333333333,4,1,1,40,0,0
43681,-100,4,1,1,40,0,0
58817,-90.9090909090909,4,1,1,40,0,0
58885,-83.3333333333333,4,1,1,40,0,0
58954,-100,4,1,1,40,0,0
67545,-90.9090909090909,4,1,1,40,0,0
67613,-83.3333333333333,4,1,1,40,0,0
67681,-100,4,1,1,40,0,0
72045,-100,4,1,1,40,0,1
89499,-100,4,1,1,40,0,0
90317,-66.6666666666667,4,1,1,40,0,0
90385,-100,4,1,1,40,0,0
92499,-66.6666666666667,4,1,1,40,0,0
92545,-100,4,1,1,40,0,0
94681,-66.6666666666667,4,1,1,40,0,0
94749,-100,4,1,1,40,0,0
96045,-52.6315789473684,4,1,1,40,0,0
96062,-1000,4,1,1,40,0,0
96079,-52.6315789473684,4,1,1,40,0,0
96096,-1000,4,1,1,40,0,0
96113,-52.6315789473684,4,1,1,40,0,0
96130,-1000,4,1,1,40,0,0
96147,-52.6315789473684,4,1,1,40,0,0
96164,-1000,4,1,1,40,0,0
96181,-52.6315789473684,4,1,1,40,0,0
96198,-1000,4,1,1,40,0,0
96215,-52.6315789473684,4,1,1,40,0,0
96232,-1000,4,1,1,40,0,0
96249,-52.6315789473684,4,1,1,40,0,0
96266,-1000,4,1,1,40,0,0
96283,-52.6315789473684,4,1,1,40,0,0
96300,-1000,4,1,1,40,0,0
96317,-100,4,1,1,40,0,0
96454,-52.6315789473684,4,1,1,40,0,0
96471,-1000,4,1,1,40,0,0
96488,-52.6315789473684,4,1,1,40,0,0
96505,-1000,4,1,1,40,0,0
96522,-52.6315789473684,4,1,1,40,0,0
96539,-1000,4,1,1,40,0,0
96556,-52.6315789473684,4,1,1,40,0,0
96573,-1000,4,1,1,40,0,0
96590,-52.6315789473684,4,1,1,40,0,0
96607,-1000,4,1,1,40,0,0
96624,-52.6315789473684,4,1,1,40,0,0
96641,-1000,4,1,1,40,0,0
96658,-52.6315789473684,4,1,1,40,0,0
96675,-1000,4,1,1,40,0,0
96692,-52.6315789473684,4,1,1,40,0,0
96709,-1000,4,1,1,40,0,0
96726,-100,4,1,1,40,0,0
111181,-90.9090909090909,4,1,1,40,0,0
111249,-83.3333333333333,4,1,1,40,0,0
111317,-100,4,1,1,40,0,0
133135,-100,4,1,1,40,0,1
150590,-125,4,1,1,40,0,0
167772,-28.5714285714286,4,2,1,20,0,0
167806,-125,4,2,1,20,0,0
183317,-117.647058823529,4,1,1,25,0,0
183863,-111.111111111111,4,1,1,30,0,0
184408,-105.263157894737,4,1,1,35,0,0
184954,-100,4,1,1,40,0,0
202817,-76.9230769230769,4,1,1,40,0,0
202885,-142.857142857143,4,1,1,40,0,0
202954,-76.9230769230769,4,1,1,40,0,0
203022,-142.857142857143,4,1,1,40,0,0
203090,-100,4,1,1,40,0,0
205135,-76.9230769230769,4,1,1,40,0,0
205204,-142.857142857143,4,1,1,40,0,0
205272,-100,4,1,1,40,0,0
207317,-76.9230769230769,4,1,1,40,0,0
207385,-142.857142857143,4,1,1,40,0,0
207454,-76.9230769230769,4,1,1,40,0,0
207522,-142.857142857143,4,1,1,40,0,0
207590,-100,4,1,1,40,0,0
207999,-76.9230769230769,4,1,1,40,0,0
208067,-142.857142857143,4,1,1,40,0,0
208135,-100,4,1,1,40,0,0
208408,-76.9230769230769,4,1,1,40,0,0
208476,-142.857142857143,4,1,1,40,0,0
208545,-100,4,1,1,40,0,0
209499,-76.9230769230769,4,1,1,40,0,0
209567,-142.857142857143,4,1,1,40,0,0
209635,-76.9230769230769,4,1,1,40,0,0
209704,-142.857142857143,4,1,1,40,0,0
209772,-100,4,1,1,40,0,0
210181,-76.9230769230769,4,1,1,40,0,0
210249,-142.857142857143,4,1,1,40,0,0
210317,-100,4,1,1,40,0,0
210590,-71.4285714285714,4,1,1,40,0,0
210635,-166.666666666667,4,1,1,40,0,0
210681,-100,4,1,1,40,0,0
211408,-76.9230769230769,4,1,1,40,0,0
211545,-142.857142857143,4,1,1,40,0,0
211681,-76.9230769230769,4,1,1,40,0,0
211749,-142.857142857143,4,1,1,40,0,0
211817,-76.9230769230769,4,1,1,40,0,0
211885,-142.857142857143,4,1,1,40,0,0
211954,-100,4,1,1,40,0,0
212363,-76.9230769230769,4,1,1,40,0,0
212431,-142.857142857143,4,1,1,40,0,0
212499,-100,4,1,1,40,0,0
212772,-76.9230769230769,4,1,1,40,0,0
212840,-142.857142857143,4,1,1,40,0,0
212908,-76.9230769230769,4,1,1,40,0,0
212976,-142.857142857143,4,1,1,40,0,0
213045,-100,4,1,1,40,0,0
213454,-76.9230769230769,4,1,1,40,0,0
213522,-142.857142857143,4,1,1,40,0,0
213590,-100,4,1,1,40,0,0
213863,-76.9230769230769,4,1,1,40,0,0
213931,-142.857142857143,4,1,1,40,0,0
213999,-76.9230769230769,4,1,1,40,0,0
214067,-142.857142857143,4,1,1,40,0,0
214135,-100,4,1,1,40,0,0
214545,-76.9230769230769,4,1,1,40,0,0
214613,-142.857142857143,4,1,1,40,0,0
214681,-100,4,1,1,40,0,0
214954,-76.9230769230769,4,1,1,40,0,0
215022,-142.857142857143,4,1,1,40,0,0
215090,-76.9230769230769,4,1,1,40,0,0
215158,-142.857142857143,4,1,1,40,0,0
215226,-100,4,1,1,40,0,0
215635,-76.9230769230769,4,1,1,40,0,0
215704,-142.857142857143,4,1,1,40,0,0
215772,-100,4,1,1,40,0,0
216045,-76.9230769230769,4,1,1,40,0,0
216113,-142.857142857143,4,1,1,40,0,0
216181,-76.9230769230769,4,1,1,40,0,0
216249,-142.857142857143,4,1,1,40,0,0
216317,-100,4,1,1,40,0,0
216590,-76.9230769230769,4,1,1,40,0,0
216658,-142.857142857143,4,1,1,40,0,0
216726,-76.9230769230769,4,1,1,40,0,0
216795,-142.857142857143,4,1,1,40,0,0
216863,-100,4,1,1,40,0,0
217135,-76.9230769230769,4,1,1,40,0,0
217204,-142.857142857143,4,1,1,40,0,0
217272,-76.9230769230769,4,1,1,40,0,0
217340,-142.857142857143,4,1,1,40,0,0
217408,-100,4,1,1,40,0,0
217681,-76.9230769230769,4,1,1,40,0,0
217749,-142.857142857143,4,1,1,40,0,0
217817,-76.9230769230769,4,1,1,40,0,0
217885,-142.857142857143,4,1,1,40,0,0
217954,-100,4,1,1,40,0,0
218226,-76.9230769230769,4,1,1,40,0,0
218295,-142.857142857143,4,1,1,40,0,0
218363,-76.9230769230769,4,1,1,40,0,0
218431,-142.857142857143,4,1,1,40,0,0
218499,-100,4,1,1,40,0,0
218772,-76.9230769230769,4,1,1,40,0,0
218840,-142.857142857143,4,1,1,40,0,0
218908,-76.9230769230769,4,1,1,40,0,0
218976,-142.857142857143,4,1,1,40,0,0
219045,-100,4,1,1,40,0,0
220408,-100,4,1,1,40,0,1
240045,-90.9090909090909,4,1,1,40,0,1
240147,-111.111111111111,4,1,1,40,0,1
240249,-83.3333333333333,4,1,1,40,0,1
240351,-125,4,1,1,40,0,1
240454,-76.9230769230769,4,1,1,40,0,1
240556,-142.857142857143,4,1,1,40,0,1
240658,-71.4285714285714,4,1,1,40,0,1
240760,-166.666666666667,4,1,1,40,0,1
240863,-66.6666666666667,4,1,1,40,0,1
240931,-200,4,1,1,40,0,1
240999,-62.5,4,1,1,40,0,1
241033,-250,4,1,1,40,0,1
241067,-62.5,4,1,1,40,0,1
241101,-250,4,1,1,40,0,1
241135,-66.6666666666667,4,1,1,40,0,1
241181,-200,4,1,1,40,0,1
241226,-66.6666666666667,4,1,1,40,0,1
241272,-200,4,1,1,40,0,1
241317,-66.6666666666667,4,1,1,40,0,1
241363,-200,4,1,1,40,0,1
241408,-66.6666666666667,4,1,1,40,0,1
241454,-200,4,1,1,40,0,1
241499,-66.6666666666667,4,1,1,40,0,1
241545,-200,4,1,1,40,0,1
241590,-66.6666666666667,4,1,1,40,0,1
241635,-200,4,1,1,40,0,1
241681,-71.4285714285714,4,1,1,40,0,1
242226,-100,4,1,1,40,0,0
244135,-33.3333333333333,4,1,1,40,0,0
244170,-100,4,1,1,40,0,0
244408,-100,4,1,1,40,0,1
260772,-100,4,1,1,40,0,0
261726,-90.9090909090909,4,1,1,40,0,0
261795,-83.3333333333333,4,1,1,40,0,0
261863,-100,4,1,1,40,0,1
278226,-100,4,1,1,40,0,0
279317,-100,4,1,1,40,0,1
296772,-100,4,2,1,40,0,0

[HitObjects]
256,192,45,5,0,0:0:0:0:
36,192,181,1,0,0:0:0:0:
182,192,249,1,0,0:0:0:0:
329,192,317,1,0,0:0:0:0:
109,192,317,1,0,0:0:0:0:
182,192,454,1,0,0:0:0:0:
329,192,590,1,0,0:0:0:0:
475,192,590,1,0,0:0:0:0:
109,192,726,1,0,0:0:0:0:
256,192,726,1,0,0:0:0:0:
182,192,863,1,0,0:0:0:0:
329,192,999,1,0,0:0:0:0:
36,192,1135,128,0,2226:0:0:0:40:
256,192,1135,1,0,0:0:0:0:
109,192,1135,1,0,0:0:0:15:normal-hitwhistle.wav
182,192,1272,1,0,0:0:0:15:normal-hitwhistle.wav
329,192,1340,1,0,0:0:0:15:normal-hitwhistle.wav
402,192,1476,1,0,0:0:0:20:normal-hitwhistle.wav
109,192,1545,1,0,0:0:0:20:normal-hitwhistle.wav
256,192,1545,1,0,0:0:0:0:
182,192,1681,1,0,0:0:0:25:normal-hitwhistle.wav
475,192,1681,128,0,2226:0:0:0:40:
329,192,1749,1,0,0:0:0:25:normal-hitwhistle.wav
402,192,1885,1,0,0:0:0:25:normal-hitwhistle.wav
109,192,1954,1,0,0:0:0:30:normal-hitwhistle.wav
256,192,1954,1,0,0:0:0:0:
182,192,2090,1,0,0:0:0:30:normal-hitwhistle.wav
256,192,2158,1,0,0:0:0:30:normal-hitwhistle.wav
109,192,2226,1,4,0:0:0:0:
329,192,2226,1,2,0:0:0:0:
402,192,2226,1,4,0:0:0:0:
182,192,2226,1,2,0:0:0:0:
329,192,2363,1,0,0:0:0:0:
329,192,2499,1,0,0:0:0:0:
182,192,2567,1,0,0:0:0:0:
329,192,2635,1,0,0:0:0:0:
182,192,2772,1,0,0:0:0:0:
329,192,2908,1,0,0:0:0:40:normal-hitnormal.wav
475,192,2908,1,0,0:0:0:40:ht.wav
256,192,3045,1,0,0:0:0:0:
329,192,3113,1,0,0:0:0:40:normal-hitnormal.wav
475,192,3113,1,0,0:0:0:40:ht.wav
256,192,3181,1,0,0:0:0:0:
329,192,3317,1,0,0:0:0:40:normal-hitnormal.wav
475,192,3317,1,0,0:0:0:40:ht.wav
36,192,3317,128,0,3863:0:0:0:0:
402,192,3590,1,0,0:0:0:0:
329,192,3658,1,0,0:0:0:0:
256,192,3726,1,0,0:0:0:0:
475,192,3863,128,0,4272:0:0:0:0:
329,192,3863,1,0,0:0:0:0:
182,192,3931,1,0,0:0:0:0:
256,192,3999,1,0,0:0:0:0:
36,192,4135,1,0,0:0:0:0:
36,192,4272,1,0,0:0:0:0:
182,192,4408,1,0,0:0:0:0:
329,192,4476,1,0,0:0:0:0:
182,192,4545,1,0,0:0:0:0:
329,192,4681,1,0,0:0:0:0:
182,192,4749,1,0,0:0:0:0:
329,192,4817,1,0,0:0:0:0:
329,192,4954,1,0,0:0:0:0:
36,192,5090,1,0,0:0:0:40:ht.wav
182,192,5090,1,0,0:0:0:0:
256,192,5226,1,0,0:0:0:0:
36,192,5295,1,0,0:0:0:40:ht.wav
182,192,5295,1,0,0:0:0:0:
256,192,5363,1,0,0:0:0:0:
36,192,5499,1,0,0:0:0:40:ht.wav
182,192,5499,1,0,0:0:0:0:
109,192,5635,1,0,0:0:0:0:
475,192,5772,1,0,0:0:0:0:
402,192,5840,1,0,0:0:0:0:
182,192,5908,1,0,0:0:0:0:
329,192,5908,1,0,0:0:0:0:
109,192,6045,1,2,0:0:0:0:
36,192,6045,1,0,0:0:0:0:
329,192,6113,1,2,0:0:0:0:
256,192,6113,1,0,0:0:0:0:
109,192,6181,1,2,0:0:0:0:
182,192,6181,1,0,0:0:0:0:
402,192,6249,1,2,0:0:0:0:
329,192,6249,1,0,0:0:0:0:
256,192,6317,1,2,0:0:0:0:
109,192,6317,1,2,0:0:0:0:
182,192,6317,1,8,0:0:0:0:
402,192,6385,1,2,0:0:0:0:
475,192,6385,1,2,0:0:0:0:
329,192,6385,1,0,0:0:0:0:
182,192,6454,1,2,0:0:0:0:
36,192,6454,1,2,0:0:0:0:
109,192,6454,1,0,0:0:0:0:
256,192,6522,1,2,0:0:0:0:
329,192,6522,1,2,0:0:0:0:
402,192,6522,1,0,0:0:0:0:
182,192,6590,1,0,0:0:0:0:
36,192,6590,1,8,0:0:0:0:
475,192,6590,1,0,0:0:0:0:
109,192,6590,1,2,0:0:0:0:
182,192,6726,1,0,0:0:0:0:
329,192,6863,1,0,0:0:0:0:
182,192,6931,1,0,0:0:0:0:
329,192,6999,1,0,0:0:0:0:
329,192,7135,1,0,0:0:0:0:
182,192,7272,1,0,0:0:0:0:
36,192,7272,1,0,0:0:0:40:ht.wav
256,192,7408,1,0,0:0:0:0:
182,192,7476,1,0,0:0:0:0:
36,192,7476,1,0,0:0:0:40:ht.wav
256,192,7545,1,0,0:0:0:0:
475,192,7681,128,0,8226:0:0:0:0:
36,192,7681,1,0,0:0:0:40:ht.wav
182,192,7681,1,0,0:0:0:0:
329,192,7817,1,0,0:0:0:0:
36,192,7954,1,0,0:0:0:0:
109,192,8022,1,0,0:0:0:0:
182,192,8090,1,0,0:0:0:0:
36,192,8226,128,0,8635:0:0:0:0:
329,192,8226,1,0,0:0:0:0:
182,192,8295,1,0,0:0:0:0:
256,192,8363,1,0,0:0:0:0:
329,192,8499,1,0,0:0:0:0:
329,192,8635,1,0,0:0:0:0:
182,192,8772,1,0,0:0:0:0:
329,192,8840,1,0,0:0:0:0:
182,192,8908,1,0,0:0:0:0:
329,192,9045,1,0,0:0:0:0:
182,192,9113,1,0,0:0:0:0:
329,192,9181,1,0,0:0:0:0:
182,192,9317,1,0,0:0:0:0:
329,192,9454,1,0,0:0:0:0:
475,192,9454,1,8,0:0:0:40:ht.wav
256,192,9590,1,0,0:0:0:0:
329,192,9658,1,0,0:0:0:0:
475,192,9658,1,8,0:0:0:40:ht.wav
256,192,9726,1,0,0:0:0:0:
329,192,9863,1,0,0:0:0:0:
475,192,9863,1,8,0:0:0:40:ht.wav
256,192,9999,1,0,0:0:0:0:
36,192,10135,1,0,0:0:0:0:
109,192,10204,1,0,0:0:0:0:
256,192,10272,1,0,0:0:0:0:
182,192,10408,1,0,0:0:0:40:ht.wav
329,192,10408,1,0,0:0:0:0:clp-s.wav
36,192,10545,1,0,0:0:0:40:ht.wav
475,192,10545,1,0,0:0:0:40:clp-s.wav
182,192,10613,1,0,0:0:0:40:ht.wav
329,192,10613,1,0,0:0:0:0:clp-s.wav
256,192,10681,1,0,0:0:0:0:
402,192,10681,1,2,0:0:0:0:
109,192,10681,1,2,0:0:0:0:
329,192,10749,1,0,0:0:0:0:clp-s.wav
182,192,10749,1,0,0:0:0:40:ht.wav
36,192,10817,1,0,0:0:0:40:ht.wav
475,192,10817,1,0,0:0:0:0:clp-s.wav
109,192,10954,1,2,0:0:0:0:
182,192,10954,1,0,0:0:0:40:ht.wav
329,192,10954,1,0,0:0:0:40:ht.wav
402,192,10954,1,2,0:0:0:0:
256,192,10954,1,0,0:0:0:40:normal-hitnormal.wav
109,192,11158,1,2,0:0:0:0:
182,192,11158,1,0,0:0:0:40:ht.wav
256,192,11158,1,0,0:0:0:40:normal-hitnormal.wav
329,192,11158,1,0,0:0:0:40:ht.wav
402,192,11158,1,2,0:0:0:0:
109,192,11363,1,2,0:0:0:0:
182,192,11363,1,0,0:0:0:40:ht.wav
256,192,11363,1,0,0:0:0:40:normal-hitnormal.wav
402,192,11363,1,2,0:0:0:0:
329,192,11363,1,0,0:0:0:40:ht.wav
109,192,11567,1,2,0:0:0:0:
182,192,11567,1,0,0:0:0:40:ht.wav
256,192,11567,1,0,0:0:0:40:normal-hitnormal.wav
329,192,11567,1,0,0:0:0:40:ht.wav
402,192,11567,1,2,0:0:0:0:
109,192,11772,1,2,0:0:0:0:
182,192,11772,1,0,0:0:0:40:ht.wav
256,192,11772,1,0,0:0:0:40:normal-hitnormal.wav
329,192,11772,1,0,0:0:0:40:ht.wav
402,192,11772,1,2,0:0:0:0:
475,192,12045,128,0,12590:0:0:0:0:
36,192,12045,1,0,0:0:0:0:
182,192,12045,1,0,0:0:0:40:ht.wav
109,192,12181,1,0,0:0:0:0:
36,192,12249,1,0,0:0:0:0:
182,192,12249,1,0,0:0:0:40:ht.wav
329,192,12317,1,0,0:0:0:0:
109,192,12454,1,0,0:0:0:0:
256,192,12454,1,0,0:0:0:40:ht.wav
36,192,12590,128,0,12999:0:0:0:0:
402,192,12590,1,0,0:0:0:0:
182,192,12658,1,0,0:0:0:40:ht.wav
329,192,12658,1,0,0:0:0:0:
256,192,12795,1,0,0:0:0:0:
329,192,12863,1,0,0:0:0:40:ht.wav
475,192,12863,1,0,0:0:0:0:
182,192,12931,1,0,0:0:0:0:
475,192,13067,1,0,0:0:0:0:
109,192,13135,1,2,0:0:0:0:
182,192,13135,1,0,0:0:0:40:ht.wav
256,192,13135,1,0,0:0:0:0:
329,192,13135,1,0,0:0:0:40:ht.wav
402,192,13135,1,2,0:0:0:0:
182,192,13340,1,0,0:0:0:40:ht.wav
256,192,13340,1,0,0:0:0:0:
109,192,13340,1,2,0:0:0:0:
329,192,13340,1,0,0:0:0:40:ht.wav
402,192,13340,1,2,0:0:0:0:
182,192,13545,1,0,0:0:0:40:ht.wav
256,192,13545,1,0,0:0:0:0:
109,192,13545,1,2,0:0:0:0:
402,192,13545,1,2,0:0:0:0:
329,192,13545,1,0,0:0:0:40:ht.wav
329,192,13749,1,0,0:0:0:40:ht.wav
182,192,13749,1,0,0:0:0:40:ht.wav
402,192,13749,1,2,0:0:0:0:
256,192,13749,1,0,0:0:0:0:
109,192,13749,1,2,0:0:0:0:
182,192,13954,1,0,0:0:0:40:ht.wav
329,192,13954,1,0,0:0:0:40:ht.wav
402,192,13954,1,2,0:0:0:0:
256,192,13954,1,0,0:0:0:0:
109,192,13954,1,2,0:0:0:0:
182,192,14226,1,0,0:0:0:40:ht.wav
329,192,14226,1,0,0:0:0:0:
256,192,14363,1,0,0:0:0:0:
475,192,14431,1,0,0:0:0:40:ht.wav
329,192,14431,1,0,0:0:0:0:
182,192,14499,1,0,0:0:0:0:
256,192,14635,1,0,0:0:0:40:ht.wav
109,192,14635,1,0,0:0:0:0:
329,192,14772,1,0,0:0:0:40:ht.wav
475,192,14772,1,0,0:0:0:0:
182,192,14840,1,0,0:0:0:40:ht.wav
36,192,14840,1,0,0:0:0:0:
256,192,14976,1,0,0:0:0:0:
475,192,15045,1,0,0:0:0:0:
402,192,15079,1,0,0:0:0:0:
329,192,15113,1,0,0:0:0:0:
182,192,15147,1,0,0:0:0:0:
109,192,15181,1,0,0:0:0:0:
36,192,15215,1,0,0:0:0:0:
475,192,15249,1,0,0:0:0:0:
402,192,15283,1,0,0:0:0:0:
109,192,15317,1,2,0:0:0:0:
182,192,15317,1,0,0:0:0:40:ht.wav
256,192,15317,1,0,0:0:0:40:ht.wav
329,192,15317,1,0,0:0:0:0:
36,192,15317,1,2,0:0:0:0:
475,192,15454,1,0,0:0:0:0:
182,192,15522,1,0,0:0:0:40:clp-s.wav
475,192,15590,1,0,0:0:0:0:
36,192,15590,1,0,0:0:0:40:clp-s.wav
329,192,15726,1,0,0:0:0:0:
36,192,15863,1,0,0:0:0:40:clp-s.wav
475,192,15863,1,0,0:0:0:0:
475,192,15999,1,0,0:0:0:0:
182,192,16067,1,0,0:0:0:40:clp-s.wav
402,192,16135,1,0,0:0:0:0:
36,192,16135,1,0,0:0:0:40:clp-s.wav
329,192,16272,1,0,0:0:0:0:
182,192,16408,1,0,0:0:0:40:ht.wav
256,192,16408,1,0,0:0:0:40:ht.wav
329,192,16408,1,2,0:0:0:0:
402,192,16408,1,2,0:0:0:0:
475,192,16408,128,0,16954:0:0:0:0:
109,192,16613,1,0,0:0:0:40:clp-s.wav
182,192,16681,1,0,0:0:0:40:clp-s.wav
36,192,16954,128,0,17363:0:0:0:0:
329,192,16954,1,0,0:0:0:40:clp-s.wav
402,192,17158,1,0,0:0:0:40:clp-s.wav
329,192,17226,1,0,0:0:0:40:clp-s.wav
109,192,17499,1,2,0:0:0:0:
182,192,17499,1,0,0:0:0:40:ht.wav
256,192,17499,1,0,0:0:0:0:
329,192,17499,1,0,0:0:0:40:ht.wav
402,192,17499,1,2,0:0:0:0:
475,192,17704,1,0,0:0:0:40:clp-s.wav
329,192,17772,1,0,0:0:0:40:clp-s.wav
109,192,18045,1,2,0:0:0:0:
182,192,18045,1,0,0:0:0:40:ht.wav
256,192,18045,1,0,0:0:0:0:
329,192,18045,1,0,0:0:0:40:ht.wav
402,192,18045,1,2,0:0:0:0:
36,192,18249,1,0,0:0:0:40:clp-s.wav
182,192,18317,1,0,0:0:0:40:clp-s.wav
109,192,18590,1,2,0:0:0:0:
182,192,18590,1,0,0:0:0:40:ht.wav
256,192,18590,1,0,0:0:0:0:
329,192,18590,1,0,0:0:0:40:ht.wav
402,192,18590,1,2,0:0:0:0:
109,192,18863,1,2,0:0:0:0:
182,192,18863,1,0,0:0:0:40:ht.wav
256,192,18863,1,0,0:0:0:0:
402,192,18863,1,2,0:0:0:0:
329,192,18863,1,0,0:0:0:40:ht.wav
109,192,19135,1,2,0:0:0:0:
182,192,19135,1,0,0:0:0:40:ht.wav
329,192,19135,1,0,0:0:0:40:ht.wav
256,192,19135,1,0,0:0:0:0:
402,192,19135,1,2,0:0:0:0:
182,192,19340,1,0,0:0:0:40:normal-hitnormal.wav
329,192,19340,1,0,0:0:0:40:normal-hitnormal.wav
256,192,19408,1,0,0:0:0:40:ht.wav
256,192,19545,128,0,19681:0:0:0:0:
36,192,19681,1,0,0:0:0:40:crx.wav
109,192,19681,1,8,0:0:0:0:
402,192,19681,1,0,0:0:0:0:
475,192,19681,1,0,0:0:0:40:normal-hitnormal.wav
329,192,19681,1,2,0:0:0:0:
182,192,19681,1,0,0:0:0:0:
182,192,19817,1,0,0:0:0:0:
402,192,19885,1,0,0:0:0:0:
109,192,19885,1,0,0:0:0:0:
256,192,19954,1,2,0:0:0:0:
36,192,19954,1,8,0:0:0:0:
329,192,20090,1,0,0:0:0:0:
36,192,20090,1,0,0:0:0:0:
182,192,20158,1,0,0:0:0:0:
256,192,20226,1,2,0:0:0:0:
109,192,20226,1,8,0:0:0:0:
402,192,20295,1,0,0:0:0:0:
182,192,20363,1,0,0:0:0:0:
329,192,20431,1,0,0:0:0:0:
256,192,20499,1,2,0:0:0:0:
109,192,20499,1,8,0:0:0:0:
475,192,20567,1,0,0:0:0:0:
329,192,20635,1,0,0:0:0:0:
182,192,20704,1,0,0:0:0:0:
402,192,20704,1,0,0:0:0:0:
256,192,20772,1,2,0:0:0:0:
36,192,20772,1,8,0:0:0:0:
475,192,20772,128,0,21317:0:0:0:0:
36,192,20908,1,0,0:0:0:0:
182,192,20908,1,0,0:0:0:0:
329,192,20976,1,0,0:0:0:0:
256,192,21045,1,2,0:0:0:0:
36,192,21045,1,8,0:0:0:0:
36,192,21181,1,0,0:0:0:0:
329,192,21181,1,0,0:0:0:0:
182,192,21249,1,0,0:0:0:0:
256,192,21317,1,2,0:0:0:0:
402,192,21317,1,8,0:0:0:0:
36,192,21317,128,0,21726:0:0:0:0:
402,192,21454,1,0,0:0:0:0:
182,192,21454,1,0,0:0:0:0:
329,192,21522,1,0,0:0:0:0:
256,192,21590,1,2,0:0:0:0:
402,192,21590,1,8,0:0:0:0:
402,192,21726,1,0,0:0:0:0:
329,192,21726,1,0,0:0:0:0:
182,192,21795,1,0,0:0:0:0:
256,192,21863,1,2,0:0:0:0:
36,192,21863,1,8,0:0:0:0:
475,192,21931,1,0,0:0:0:0:
402,192,21931,1,0,0:0:0:0:
329,192,21999,1,0,0:0:0:0:
109,192,22067,1,0,0:0:0:0:
182,192,22067,1,0,0:0:0:0:
256,192,22135,1,2,0:0:0:0:
402,192,22135,1,8,0:0:0:0:
182,192,22272,1,0,0:0:0:0:
329,192,22340,1,0,0:0:0:0:
475,192,22340,1,0,0:0:0:0:
256,192,22408,1,2,0:0:0:0:
109,192,22408,1,8,0:0:0:0:
329,192,22545,1,0,0:0:0:0:
36,192,22545,1,0,0:0:0:0:
182,192,22613,1,0,0:0:0:0:
109,192,22613,1,0,0:0:0:0:
256,192,22681,1,2,0:0:0:0:
475,192,22681,1,8,0:0:0:0:
402,192,22715,1,0,0:0:0:0:
329,192,22749,1,0,0:0:0:0:
36,192,22749,1,0,0:0:0:0:
109,192,22783,1,0,0:0:0:0:
182,192,22817,1,0,0:0:0:0:
475,192,22817,1,0,0:0:0:0:
402,192,22851,1,0,0:0:0:0:
36,192,22885,1,0,0:0:0:0:
329,192,22885,1,0,0:0:0:0:
109,192,22920,1,0,0:0:0:0:
256,192,22954,1,2,0:0:0:0:
182,192,22954,1,8,0:0:0:0:
475,192,23090,1,0,0:0:0:0:
329,192,23090,1,0,0:0:0:0:
109,192,23090,1,0,0:0:0:0:
182,192,23158,1,0,0:0:0:0:
256,192,23226,1,2,0:0:0:0:
36,192,23226,1,0,0:0:0:0:
402,192,23226,1,8,0:0:0:0:
36,192,23363,1,0,0:0:0:0:
182,192,23363,1,0,0:0:0:0:
402,192,23363,1,0,0:0:0:0:
329,192,23431,1,0,0:0:0:0:
256,192,23499,1,2,0:0:0:0:
475,192,23499,1,0,0:0:0:0:
109,192,23499,1,8,0:0:0:0:
475,192,23635,1,0,0:0:0:0:
329,192,23635,1,0,0:0:0:0:
182,192,23704,1,0,0:0:0:0:
256,192,23772,1,2,0:0:0:0:
36,192,23772,1,0,0:0:0:0:
402,192,23772,1,8,0:0:0:0:
182,192,23908,1,0,0:0:0:0:
329,192,23976,1,0,0:0:0:0:
36,192,24045,1,8,0:0:0:0:
256,192,24045,1,2,0:0:0:0:
475,192,24113,1,0,0:0:0:0:
402,192,24113,1,0,0:0:0:0:
329,192,24181,1,0,0:0:0:0:
109,192,24249,1,0,0:0:0:0:
182,192,24249,1,0,0:0:0:0:
256,192,24317,1,2,0:0:0:0:
402,192,24317,1,8,0:0:0:0:
182,192,24454,1,0,0:0:0:0:
475,192,24522,1,0,0:0:0:0:
329,192,24522,1,0,0:0:0:0:
256,192,24590,1,2,0:0:0:0:
109,192,24590,1,8,0:0:0:0:
36,192,24726,1,0,0:0:0:0:
329,192,24726,1,0,0:0:0:0:
109,192,24795,1,0,0:0:0:0:
182,192,24795,1,0,0:0:0:0:
256,192,24863,1,2,0:0:0:0:
402,192,24863,1,8,0:0:0:0:
36,192,24931,1,0,0:0:0:0:
475,192,24931,1,0,0:0:0:0:
182,192,24999,1,0,0:0:0:0:
329,192,25067,1,0,0:0:0:0:
402,192,25067,1,0,0:0:0:0:
256,192,25135,1,2,0:0:0:0:
475,192,25135,1,8,0:0:0:0:
36,192,25135,128,0,25681:0:0:0:0:
475,192,25272,1,0,0:0:0:0:
329,192,25272,1,0,0:0:0:0:
182,192,25340,1,0,0:0:0:0:
256,192,25408,1,2,0:0:0:0:
475,192,25408,1,8,0:0:0:0:
475,192,25545,1,0,0:0:0:0:
182,192,25545,1,0,0:0:0:0:
329,192,25613,1,0,0:0:0:0:
256,192,25681,1,2,0:0:0:0:
109,192,25681,1,8,0:0:0:0:
475,192,25681,128,0,26090:0:0:0:0:
109,192,25817,1,0,0:0:0:0:
182,192,25817,1,0,0:0:0:0:
329,192,25885,1,0,0:0:0:0:
36,192,25885,1,8,0:0:0:0:
256,192,25954,1,2,0:0:0:0:
109,192,25954,1,8,0:0:0:0:
109,192,26090,1,0,0:0:0:0:
329,192,26090,1,0,0:0:0:0:
182,192,26158,1,0,0:0:0:0:
256,192,26226,1,2,0:0:0:0:
475,192,26226,1,8,0:0:0:0:
109,192,26295,1,0,0:0:0:0:
36,192,26295,1,0,0:0:0:0:
182,192,26363,1,0,0:0:0:0:
329,192,26431,1,0,0:0:0:0:
402,192,26431,1,0,0:0:0:0:
109,192,26499,1,8,0:0:0:0:
256,192,26499,1,2,0:0:0:0:
329,192,26635,1,0,0:0:0:0:
182,192,26704,1,0,0:0:0:0:
36,192,26704,1,0,0:0:0:0:
256,192,26772,1,2,0:0:0:0:
402,192,26772,1,8,0:0:0:0:
182,192,26908,1,0,0:0:0:0:
475,192,26908,1,0,0:0:0:0:
329,192,26976,1,0,0:0:0:0:
109,192,26976,1,0,0:0:0:0:
475,192,27045,1,8,0:0:0:0:
256,192,27045,1,2,0:0:0:0:
182,192,27079,1,0,0:0:0:0:
109,192,27113,1,0,0:0:0:0:
402,192,27113,1,0,0:0:0:0:
329,192,27147,1,0,0:0:0:0:
36,192,27181,1,0,0:0:0:0:
475,192,27181,1,0,0:0:0:0:
182,192,27215,1,0,0:0:0:0:
402,192,27249,1,0,0:0:0:0:
109,192,27249,1,0,0:0:0:0:
329,192,27283,1,0,0:0:0:0:
36,192,27317,1,8,0:0:0:0:
256,192,27317,1,2,0:0:0:0:
36,192,27454,1,0,0:0:0:0:
402,192,27454,1,0,0:0:0:0:
182,192,27454,1,0,0:0:0:0:
329,192,27522,1,0,0:0:0:0:
256,192,27590,1,2,0:0:0:0:
475,192,27590,1,0,0:0:0:0:
109,192,27590,1,8,0:0:0:0:
475,192,27726,1,0,0:0:0:0:
182,192,27726,1,0,0:0:0:0:
329,192,27726,1,0,0:0:0:0:
109,192,27795,1,0,0:0:0:0:
256,192,27863,1,2,0:0:0:0:
36,192,27863,1,0,0:0:0:0:
402,192,27863,1,8,0:0:0:0:
36,192,27999,1,0,0:0:0:0:
182,192,27999,1,0,0:0:0:0:
256,192,28067,1,2,0:0:0:0:
329,192,28067,1,0,0:0:0:0:
475,192,28067,1,0,0:0:0:0:
109,192,28135,1,8,0:0:0:0:
256,192,28204,1,2,0:0:0:0:
402,192,28204,1,0,0:0:0:0:
329,192,28272,1,0,0:0:0:0:
36,192,28340,1,2,0:0:0:0:
182,192,28340,1,0,0:0:0:0:
109,192,28340,1,0,0:0:0:0:
256,192,28408,1,2,0:0:0:0:
402,192,28408,1,8,0:0:0:0:
329,192,28408,1,4,0:0:0:0:
475,192,28476,1,0,0:0:0:0:
36,192,28476,1,0,0:0:0:0:
182,192,28545,1,0,0:0:0:0:
402,192,28613,1,0,0:0:0:0:
329,192,28613,1,0,0:0:0:0:
256,192,28681,1,2,0:0:0:0:
109,192,28681,1,8,0:0:0:0:
329,192,28817,1,0,0:0:0:0:
182,192,28885,1,0,0:0:0:0:
36,192,28885,1,0,0:0:0:0:
256,192,28954,1,2,0:0:0:0:
402,192,28954,1,8,0:0:0:0:
475,192,29090,1,0,0:0:0:0:
182,192,29090,1,0,0:0:0:0:
329,192,29158,1,0,0:0:0:0:
402,192,29158,1,0,0:0:0:0:
256,192,29226,1,2,0:0:0:0:
182,192,29226,1,8,0:0:0:0:
109,192,29295,1,0,0:0:0:0:
36,192,29295,1,0,0:0:0:0:
329,192,29363,1,0,0:0:0:0:
109,192,29431,1,0,0:0:0:0:
182,192,29431,1,0,0:0:0:0:
475,192,29499,128,0,30045:0:0:0:0:
36,192,29499,1,8,0:0:0:0:
256,192,29499,1,2,0:0:0:0:
182,192,29635,1,0,0:0:0:0:
36,192,29635,1,0,0:0:0:0:
329,192,29704,1,0,0:0:0:0:
36,192,29772,1,8,0:0:0:0:
256,192,29772,1,2,0:0:0:0:
109,192,29772,1,0,0:0:0:0:
329,192,29908,1,0,0:0:0:0:
36,192,29908,1,0,0:0:0:0:
182,192,29976,1,0,0:0:0:0:
402,192,30045,1,8,0:0:0:0:
36,192,30045,128,0,30454:0:0:0:0:
256,192,30045,1,2,0:0:0:0:
402,192,30181,1,0,0:0:0:0:
329,192,30181,1,0,0:0:0:0:
182,192,30249,1,0,0:0:0:0:
475,192,30317,1,0,0:0:0:0:
256,192,30317,1,2,0:0:0:0:
402,192,30317,1,8,0:0:0:0:
402,192,30454,1,0,0:0:0:0:
182,192,30454,1,0,0:0:0:0:
329,192,30522,1,0,0:0:0:0:
475,192,30590,1,8,0:0:0:0:
256,192,30590,1,2,0:0:0:0:
36,192,30658,1,0,0:0:0:0:
109,192,30658,1,0,0:0:0:0:
182,192,30726,1,0,0:0:0:0:
329,192,30795,1,0,0:0:0:0:
402,192,30795,1,0,0:0:0:0:
109,192,30863,1,8,0:0:0:0:
256,192,30863,1,2,0:0:0:0:
329,192,30999,1,0,0:0:0:0:
182,192,31067,1,0,0:0:0:0:
36,192,31067,1,0,0:0:0:0:
256,192,31135,1,2,0:0:0:0:
402,192,31135,1,8,0:0:0:0:
475,192,31272,1,0,0:0:0:0:
182,192,31272,1,0,0:0:0:0:
402,192,31340,1,0,0:0:0:0:
329,192,31340,1,0,0:0:0:0:
36,192,31408,1,8,0:0:0:0:
256,192,31408,1,2,0:0:0:0:
109,192,31442,1,0,0:0:0:0:
182,192,31476,1,0,0:0:0:0:
475,192,31476,1,0,0:0:0:0:
402,192,31510,1,0,0:0:0:0:
329,192,31545,1,0,0:0:0:0:
36,192,31545,1,0,0:0:0:0:
109,192,31579,1,0,0:0:0:0:
182,192,31613,1,0,0:0:0:0:
475,192,31613,1,0,0:0:0:0:
402,192,31647,1,0,0:0:0:0:
329,192,31681,1,8,0:0:0:0:
256,192,31681,1,2,0:0:0:0:
182,192,31817,1,0,0:0:0:0:
402,192,31817,1,0,0:0:0:0:
36,192,31817,1,0,0:0:0:0:
329,192,31885,1,0,0:0:0:0:
475,192,31954,1,0,0:0:0:0:
109,192,31954,1,8,0:0:0:0:
256,192,31954,1,2,0:0:0:0:
329,192,32090,1,0,0:0:0:0:
475,192,32090,1,0,0:0:0:0:
182,192,32090,1,0,0:0:0:0:
109,192,32158,1,0,0:0:0:0:
256,192,32226,1,2,0:0:0:0:
402,192,32226,1,8,0:0:0:0:
36,192,32226,1,0,0:0:0:0:
182,192,32363,1,0,0:0:0:0:
36,192,32363,1,0,0:0:0:0:
329,192,32431,1,0,0:0:0:0:
475,192,32499,1,0,0:0:0:0:
256,192,32499,1,2,0:0:0:0:
109,192,32499,1,8,0:0:0:0:
329,192,32635,1,0,0:0:0:0:
182,192,32704,1,0,0:0:0:0:
256,192,32772,1,2,0:0:0:0:
109,192,32772,1,8,0:0:0:0:
402,192,32840,1,0,0:0:0:0:
475,192,32840,1,0,0:0:0:0:
182,192,32908,1,0,0:0:0:0:
329,192,32976,1,0,0:0:0:0:
109,192,32976,1,0,0:0:0:0:
256,192,33045,1,2,0:0:0:0:
36,192,33045,1,8,0:0:0:0:
329,192,33181,1,0,0:0:0:0:
182,192,33249,1,0,0:0:0:0:
402,192,33249,1,0,0:0:0:0:
256,192,33317,1,2,0:0:0:0:
109,192,33317,1,8,0:0:0:0:
182,192,33454,1,0,0:0:0:0:
36,192,33454,1,0,0:0:0:0:
329,192,33522,1,0,0:0:0:0:
109,192,33522,1,0,0:0:0:0:
256,192,33590,1,2,0:0:0:0:
182,192,33590,1,8,0:0:0:0:
475,192,33658,1,0,0:0:0:0:
402,192,33658,1,0,0:0:0:0:
329,192,33726,1,0,0:0:0:0:
182,192,33795,1,0,0:0:0:0:
402,192,33795,1,0,0:0:0:0:
256,192,33863,1,2,0:0:0:0:
36,192,33863,128,0,34408:0:0:0:0:
475,192,33863,1,8,0:0:0:0:
182,192,33999,1,0,0:0:0:0:
475,192,33999,1,0,0:0:0:0:
329,192,34067,1,0,0:0:0:0:
256,192,34135,1,2,0:0:0:0:
475,192,34135,1,8,0:0:0:0:
402,192,34135,1,0,0:0:0:0:
329,192,34272,1,0,0:0:0:0:
475,192,34272,1,0,0:0:0:0:
182,192,34340,1,0,0:0:0:0:
256,192,34408,1,2,0:0:0:0:
475,192,34408,128,0,34817:0:0:0:0:
109,192,34408,1,8,0:0:0:0:
182,192,34545,1,0,0:0:0:0:
109,192,34545,1,0,0:0:0:0:
329,192,34613,1,0,0:0:0:0:
256,192,34681,1,2,0:0:0:0:
36,192,34681,1,0,0:0:0:0:
109,192,34681,1,8,0:0:0:0:
256,192,34817,1,2,0:0:0:0:
329,192,34817,1,0,0:0:0:0:
109,192,34817,1,0,0:0:0:0:
182,192,34885,1,0,0:0:0:0:
256,192,34954,1,2,0:0:0:0:
402,192,34954,128,8,35226:0:0:0:0:
109,192,35022,1,0,0:0:0:0:
36,192,35022,1,0,0:0:0:0:
182,192,35090,1,0,0:0:0:0:
329,192,35158,1,0,0:0:0:0:
109,192,35158,1,0,0:0:0:0:
256,192,35226,1,2,0:0:0:0:
182,192,35226,1,8,0:0:0:0:
329,192,35363,1,0,0:0:0:0:
109,192,35363,128,0,35635:0:0:0:0:
182,192,35431,1,0,0:0:0:0:
402,192,35431,1,0,0:0:0:0:
256,192,35499,1,2,0:0:0:0:
475,192,35499,1,8,0:0:0:0:
182,192,35635,1,0,0:0:0:0:
402,192,35635,1,0,0:0:0:0:
329,192,35704,1,0,0:0:0:0:
109,192,35772,1,2,0:0:0:0:
36,192,35772,1,8,0:0:0:0:
475,192,35806,1,0,0:0:0:0:
402,192,35840,1,0,0:0:0:0:
329,192,35874,1,0,0:0:0:0:
256,192,35908,1,0,0:0:0:0:
182,192,35942,1,0,0:0:0:0:
109,192,35976,1,0,0:0:0:0:
36,192,36010,1,0,0:0:0:0:
182,192,36045,128,0,36181:0:0:0:0:
256,192,36045,128,2,36181:0:0:0:0:
329,192,36045,128,0,36181:0:0:0:0:
402,192,36045,1,0,0:0:0:40:ht.wav
475,192,36045,1,0,0:0:0:40:ht.wav
329,192,36249,128,0,36385:0:0:0:0:
256,192,36249,128,2,36385:0:0:0:0:
182,192,36249,128,0,36385:0:0:0:0:
36,192,36249,1,0,0:0:0:40:ht.wav
109,192,36249,1,0,0:0:0:40:ht.wav
182,192,36454,128,0,36590:0:0:0:0:
256,192,36454,128,2,36590:0:0:0:0:
329,192,36454,128,0,36590:0:0:0:0:
402,192,36454,1,0,0:0:0:40:ht.wav
475,192,36454,1,0,0:0:0:40:ht.wav
329,192,36658,128,0,36795:0:0:0:0:
256,192,36658,128,2,36795:0:0:0:0:
182,192,36658,128,0,36795:0:0:0:0:
36,192,36658,1,0,0:0:0:40:ht.wav
109,192,36658,1,0,0:0:0:40:ht.wav
182,192,36863,128,0,36999:0:0:0:0:
256,192,36863,128,2,36999:0:0:0:0:
329,192,36863,128,0,36999:0:0:0:0:
109,192,36863,1,0,0:0:0:40:ht.wav
402,192,36863,1,0,0:0:0:40:ht.wav
36,192,36999,1,0,0:0:0:0:
475,192,36999,1,0,0:0:0:0:
109,192,37033,1,0,0:0:0:0:
402,192,37033,1,0,0:0:0:0:
182,192,37067,1,0,0:0:0:0:
329,192,37067,1,0,0:0:0:0:
36,192,37101,1,0,0:0:0:0:
475,192,37101,1,0,0:0:0:0:
402,192,37135,1,8,0:0:0:0:
109,192,37135,1,10,0:0:0:40:crx.wav
256,192,37135,1,2,0:0:0:0:
36,192,37272,1,0,0:0:0:0:
475,192,37272,1,0,0:0:0:0:
256,192,37408,1,2,0:0:0:0:
329,192,37408,1,8,0:0:0:0:
402,192,37408,1,0,0:0:0:0:
36,192,37545,1,0,0:0:0:0:
475,192,37545,1,0,0:0:0:0:
256,192,37681,1,2,0:0:0:0:
182,192,37681,1,8,0:0:0:0:
109,192,37681,1,0,0:0:0:0:
36,192,37817,1,0,0:0:0:0:
475,192,37817,1,0,0:0:0:0:
256,192,37954,1,2,0:0:0:0:
329,192,37954,1,8,0:0:0:0:
402,192,37954,1,0,0:0:0:0:
36,192,38090,1,0,0:0:0:0:
475,192,38090,1,0,0:0:0:0:
109,192,38226,1,0,0:0:0:0:
182,192,38226,1,8,0:0:0:0:
256,192,38226,1,2,0:0:0:0:
36,192,38363,1,0,0:0:0:0:
475,192,38363,1,0,0:0:0:0:
256,192,38499,1,2,0:0:0:0:
329,192,38499,1,8,0:0:0:0:
402,192,38499,1,0,0:0:0:0:
36,192,38635,1,0,0:0:0:0:
475,192,38635,1,0,0:0:0:0:
329,192,38704,1,0,0:0:0:0:
182,192,38772,1,2,0:0:0:0:
109,192,38772,1,8,0:0:0:0:
256,192,38772,1,0,0:0:0:0:
475,192,38840,1,0,0:0:0:0:
402,192,38874,1,0,0:0:0:0:
36,192,38908,1,0,0:0:0:0:
329,192,38908,1,0,0:0:0:0:
109,192,38942,1,0,0:0:0:0:
182,192,38976,1,8,0:0:0:0:
256,192,39010,1,0,0:0:0:0:
36,192,39045,1,0,0:0:0:0:
109,192,39045,1,2,0:0:0:0:
329,192,39045,1,8,0:0:0:0:
475,192,39113,1,0,0:0:0:0:
402,192,39147,1,0,0:0:0:0:
36,192,39181,1,0,0:0:0:0:
329,192,39181,1,0,0:0:0:0:
109,192,39215,1,0,0:0:0:0:
182,192,39249,1,0,0:0:0:0:
256,192,39283,1,0,0:0:0:0:
329,192,39317,1,8,0:0:0:0:
475,192,39317,1,2,0:0:0:0:
402,192,39317,1,0,0:0:0:0:
36,192,39454,1,0,0:0:0:0:
475,192,39454,1,0,0:0:0:0:
256,192,39590,1,2,0:0:0:0:
329,192,39590,1,8,0:0:0:0:
402,192,39590,1,0,0:0:0:0:
36,192,39726,1,0,0:0:0:0:
475,192,39726,1,0,0:0:0:0:
329,192,39795,1,0,0:0:0:0:
256,192,39863,1,2,0:0:0:0:
109,192,39863,1,0,0:0:0:0:
182,192,39863,1,8,0:0:0:0:
36,192,39999,1,0,0:0:0:0:
475,192,39999,1,0,0:0:0:0:
36,192,40135,1,0,0:0:0:0:
475,192,40135,1,8,0:0:0:0:
256,192,40135,1,2,0:0:0:0:
109,192,40170,1,0,0:0:0:0:
402,192,40204,1,0,0:0:0:0:
182,192,40238,1,0,0:0:0:0:
329,192,40272,1,0,0:0:0:0:
256,192,40272,1,0,0:0:0:0:
109,192,40306,1,0,0:0:0:0:
402,192,40340,1,0,0:0:0:0:
36,192,40374,1,0,0:0:0:0:
475,192,40408,1,0,0:0:0:0:
182,192,40408,1,8,0:0:0:0:
256,192,40408,1,2,0:0:0:0:
36,192,40545,1,0,0:0:0:0:
475,192,40545,1,0,0:0:0:0:
256,192,40681,1,2,0:0:0:0:
182,192,40681,1,8,0:0:0:0:
109,192,40681,1,0,0:0:0:0:
36,192,40817,1,0,0:0:0:0:
475,192,40817,1,0,0:0:0:0:
182,192,40954,1,2,0:0:0:0:
329,192,40954,1,8,0:0:0:40:
402,192,40954,1,0,0:0:0:40:
109,192,40954,1,0,0:0:0:0:
256,192,41022,1,0,0:0:0:0:
36,192,41090,1,0,0:0:0:0:
402,192,41090,1,0,0:0:0:40:
109,192,41090,1,2,0:0:0:0:
475,192,41090,1,0,0:0:0:0:
256,192,41158,1,0,0:0:0:0:
182,192,41226,1,2,0:0:0:0:
109,192,41226,1,0,0:0:0:0:
329,192,41226,1,8,0:0:0:40:
402,192,41226,1,0,0:0:0:0:
256,192,41295,1,0,0:0:0:0:
109,192,41363,1,2,0:0:0:0:
402,192,41363,1,0,0:0:0:40:
475,192,41363,1,0,0:0:0:0:
36,192,41363,1,0,0:0:0:0:
256,192,41431,1,0,0:0:0:40:
329,192,41499,1,2,0:0:0:0:
182,192,41499,1,8,0:0:0:0:
109,192,41499,1,0,0:0:0:0:
402,192,41499,1,0,0:0:0:0:
36,192,41635,1,0,0:0:0:0:
475,192,41635,1,0,0:0:0:0:
256,192,41772,1,2,0:0:0:0:
329,192,41772,1,8,0:0:0:0:
402,192,41772,1,0,0:0:0:0:
36,192,41908,1,0,0:0:0:0:
475,192,41908,1,0,0:0:0:0:
329,192,41976,1,0,0:0:0:0:
256,192,42045,1,2,0:0:0:0:
182,192,42045,1,8,0:0:0:0:
109,192,42045,1,0,0:0:0:0:
36,192,42181,1,0,0:0:0:0:
475,192,42181,1,0,0:0:0:0:
256,192,42317,1,2,0:0:0:0:
329,192,42317,1,8,0:0:0:0:
402,192,42317,1,0,0:0:0:0:
36,192,42454,1,0,0:0:0:0:
475,192,42454,1,0,0:0:0:0:
402,192,42522,1,0,0:0:0:0:
256,192,42590,1,2,0:0:0:0:
182,192,42590,1,8,0:0:0:0:
109,192,42590,1,0,0:0:0:0:
36,192,42726,1,0,0:0:0:0:
475,192,42726,1,0,0:0:0:0:
256,192,42863,1,2,0:0:0:0:
329,192,42863,1,8,0:0:0:0:
402,192,42863,1,0,0:0:0:0:
36,192,42999,1,0,0:0:0:0:
475,192,42999,1,0,0:0:0:0:
329,192,43067,1,0,0:0:0:0:
256,192,43135,1,2,0:0:0:0:
182,192,43135,1,8,0:0:0:0:
109,192,43135,1,0,0:0:0:0:
36,192,43272,1,0,0:0:0:0:
475,192,43272,1,0,0:0:0:0:
182,192,43340,1,0,0:0:0:0:
329,192,43340,1,8,0:0:0:0:
256,192,43408,1,8,0:0:0:0:
182,192,43545,128,0,43681:0:0:0:0:
329,192,43681,1,8,0:0:0:0:
402,192,43681,1,0,0:0:0:0:
256,192,43681,1,2,0:0:0:0:
36,192,43817,1,0,0:0:0:0:
475,192,43817,1,0,0:0:0:0:
109,192,43954,1,0,0:0:0:0:
256,192,43954,1,2,0:0:0:0:
182,192,43954,1,8,0:0:0:0:
475,192,44090,1,0,0:0:0:0:
36,192,44090,1,0,0:0:0:0:
182,192,44158,1,0,0:0:0:0:
256,192,44226,1,2,0:0:0:0:
329,192,44226,1,8,0:0:0:0:
402,192,44226,1,0,0:0:0:0:
36,192,44363,1,0,0:0:0:0:
475,192,44363,1,0,0:0:0:0:
182,192,44499,1,8,0:0:0:0:
36,192,44499,1,2,0:0:0:0:
475,192,44499,1,0,0:0:0:0:
402,192,44533,1,0,0:0:0:0:
109,192,44567,1,0,0:0:0:0:
329,192,44567,1,0,0:0:0:0:
256,192,44601,1,0,0:0:0:0:
182,192,44635,1,0,0:0:0:0:
475,192,44635,1,0,0:0:0:0:
402,192,44670,1,0,0:0:0:0:
109,192,44704,1,0,0:0:0:0:
329,192,44704,1,0,0:0:0:0:
256,192,44738,1,0,0:0:0:0:
182,192,44772,1,0,0:0:0:0:
36,192,44772,1,2,0:0:0:0:
475,192,44772,1,8,0:0:0:0:
402,192,44908,1,0,0:0:0:0:
109,192,44908,1,0,0:0:0:0:
402,192,45045,1,0,0:0:0:0:
329,192,45045,1,8,0:0:0:0:
256,192,45045,1,2,0:0:0:0:
36,192,45181,1,0,0:0:0:0:
475,192,45181,1,0,0:0:0:0:
182,192,45181,1,8,0:0:0:0:
256,192,45181,1,0,0:0:0:0:
402,192,45249,1,0,0:0:0:0:
329,192,45249,1,8,0:0:0:0:
256,192,45317,1,2,0:0:0:0:
109,192,45317,1,0,0:0:0:0:
182,192,45317,1,8,0:0:0:0:
329,192,45385,1,0,0:0:0:0:
475,192,45454,1,0,0:0:0:0:
36,192,45454,1,0,0:0:0:0:
402,192,45454,1,0,0:0:0:0:
182,192,45522,1,0,0:0:0:0:
256,192,45590,1,2,0:0:0:0:
329,192,45590,1,8,0:0:0:0:
402,192,45590,1,0,0:0:0:0:
109,192,45590,1,0,0:0:0:0:
182,192,45658,1,0,0:0:0:0:
36,192,45726,1,0,0:0:0:0:
475,192,45726,1,0,0:0:0:0:
329,192,45726,1,0,0:0:0:0:
109,192,45863,1,0,0:0:0:0:
182,192,45863,1,8,0:0:0:0:
256,192,45863,1,2,0:0:0:0:
36,192,45999,1,0,0:0:0:0:
475,192,45999,1,0,0:0:0:0:
256,192,46135,1,2,0:0:0:0:
329,192,46135,1,8,0:0:0:0:
402,192,46135,1,0,0:0:0:0:
36,192,46272,1,0,0:0:0:0:
475,192,46272,1,0,0:0:0:0:
329,192,46340,1,0,0:0:0:0:
256,192,46408,1,2,0:0:0:0:
182,192,46408,1,8,0:0:0:0:
109,192,46408,1,0,0:0:0:0:
36,192,46545,1,0,0:0:0:0:
475,192,46545,1,0,0:0:0:0:
256,192,46681,1,2,0:0:0:0:
329,192,46681,1,8,0:0:0:0:
402,192,46681,1,0,0:0:0:0:
36,192,46817,1,0,0:0:0:0:
475,192,46817,1,0,0:0:0:0:
402,192,46885,1,0,0:0:0:0:
256,192,46954,1,2,0:0:0:0:
109,192,46954,1,0,0:0:0:0:
182,192,46954,1,8,0:0:0:0:
36,192,47090,1,0,0:0:0:0:
475,192,47090,1,0,0:0:0:0:
256,192,47226,1,2,0:0:0:0:
329,192,47226,1,8,0:0:0:0:
402,192,47226,1,0,0:0:0:0:
36,192,47363,1,0,0:0:0:0:
475,192,47363,1,0,0:0:0:0:
329,192,47431,1,0,0:0:0:0:
256,192,47499,1,2,0:0:0:0:
182,192,47499,1,8,0:0:0:0:
109,192,47499,1,0,0:0:0:0:
36,192,47635,1,0,0:0:0:0:
475,192,47635,1,0,0:0:0:0:
182,192,47704,1,0,0:0:0:0:
329,192,47704,1,0,0:0:0:0:
256,192,47772,1,8,0:0:0:0:
109,192,47908,1,0,0:0:0:0:
182,192,47976,1,0,0:0:0:0:
256,192,48045,1,2,0:0:0:0:
329,192,48045,1,8,0:0:0:0:
402,192,48045,1,0,0:0:0:0:
36,192,48181,1,0,0:0:0:0:
475,192,48181,1,0,0:0:0:0:
109,192,48317,1,0,0:0:0:0:
256,192,48317,1,2,0:0:0:0:
182,192,48317,1,8,0:0:0:0:
36,192,48454,1,0,0:0:0:0:
475,192,48454,1,0,0:0:0:0:
182,192,48522,1,0,0:0:0:0:
256,192,48590,1,2,0:0:0:0:
329,192,48590,1,8,0:0:0:0:
402,192,48590,1,0,0:0:0:0:
36,192,48726,1,0,0:0:0:0:
475,192,48726,1,0,0:0:0:0:
475,192,48863,1,2,0:0:0:0:
329,192,48863,1,0,0:0:0:0:
402,192,48863,1,8,0:0:0:0:
36,192,48897,1,0,0:0:0:0:
109,192,48931,1,0,0:0:0:0:
182,192,48965,1,0,0:0:0:0:
475,192,48999,1,0,0:0:0:0:
256,192,48999,1,0,0:0:0:0:
402,192,49033,1,0,0:0:0:0:
329,192,49067,1,0,0:0:0:0:
256,192,49101,1,0,0:0:0:0:
182,192,49135,1,0,0:0:0:0:
36,192,49135,1,2,0:0:0:0:
109,192,49135,1,8,0:0:0:0:
36,192,49272,1,0,0:0:0:0:
475,192,49272,1,0,0:0:0:0:
256,192,49408,1,2,0:0:0:0:
329,192,49408,1,8,0:0:0:0:
402,192,49408,1,0,0:0:0:0:
36,192,49545,1,0,0:0:0:0:
475,192,49545,1,0,0:0:0:0:
256,192,49681,1,2,0:0:0:0:
182,192,49681,1,8,0:0:0:0:
109,192,49681,1,0,0:0:0:0:
36,192,49817,1,0,0:0:0:0:
475,192,49817,1,0,0:0:0:0:
256,192,49817,1,8,0:0:0:0:
329,192,49817,1,0,0:0:0:0:
256,192,49954,1,2,0:0:0:0:
182,192,49954,1,8,0:0:0:0:
109,192,49954,1,0,0:0:0:0:
329,192,50022,1,0,0:0:0:0:
402,192,50022,1,0,0:0:0:0:
36,192,50090,1,0,0:0:0:0:
475,192,50090,1,0,0:0:0:0:
182,192,50158,1,0,0:0:0:0:
109,192,50158,1,0,0:0:0:0:
256,192,50226,1,2,0:0:0:0:
329,192,50226,1,8,0:0:0:0:
402,192,50226,1,0,0:0:0:0:
182,192,50295,1,0,0:0:0:0:
36,192,50363,1,0,0:0:0:0:
475,192,50363,1,0,0:0:0:0:
329,192,50431,1,0,0:0:0:0:
256,192,50499,1,2,0:0:0:0:
182,192,50499,1,8,0:0:0:0:
109,192,50499,1,0,0:0:0:0:
329,192,50567,1,0,0:0:0:0:
36,192,50635,1,0,0:0:0:0:
475,192,50635,1,0,0:0:0:0:
182,192,50704,1,0,0:0:0:0:
109,192,50704,1,0,0:0:0:0:
256,192,50772,1,2,0:0:0:0:
329,192,50772,1,8,0:0:0:0:
402,192,50772,1,0,0:0:0:0:
109,192,50840,1,0,0:0:0:0:
36,192,50908,1,0,0:0:0:0:
475,192,50908,1,0,0:0:0:0:
402,192,50976,1,0,0:0:0:0:
256,192,51045,1,2,0:0:0:0:
182,192,51045,1,8,0:0:0:0:
109,192,51045,1,0,0:0:0:0:
329,192,51113,1,0,0:0:0:0:
36,192,51181,1,0,0:0:0:0:
475,192,51181,1,0,0:0:0:0:
182,192,51249,1,0,0:0:0:0:
109,192,51249,1,0,0:0:0:0:
256,192,51317,1,2,0:0:0:0:
329,192,51317,1,8,0:0:0:0:
402,192,51317,1,0,0:0:0:0:
182,192,51385,1,0,0:0:0:0:
36,192,51454,1,0,0:0:0:0:
475,192,51454,1,0,0:0:0:0:
402,192,51522,1,0,0:0:0:0:
256,192,51590,1,2,0:0:0:0:
182,192,51590,1,8,0:0:0:0:
109,192,51590,1,0,0:0:0:0:
329,192,51658,1,0,0:0:0:0:
36,192,51726,1,0,0:0:0:0:
475,192,51726,1,0,0:0:0:0:
182,192,51795,1,0,0:0:0:0:
109,192,51795,1,0,0:0:0:0:
256,192,51863,1,2,0:0:0:0:
329,192,51863,1,8,0:0:0:0:
402,192,51863,1,0,0:0:0:0:
182,192,51931,1,0,0:0:0:0:
36,192,51999,1,0,0:0:0:0:
475,192,51999,1,0,0:0:0:0:
329,192,52067,1,0,0:0:0:0:
256,192,52135,1,2,0:0:0:0:
182,192,52135,1,8,0:0:0:0:
109,192,52135,1,0,0:0:0:0:
329,192,52204,1,0,0:0:0:0:
36,192,52272,1,0,0:0:0:0:
475,192,52272,1,0,0:0:0:0:
402,192,52272,1,0,0:0:0:0:
256,192,52272,1,2,0:0:0:0:
182,192,52340,1,0,0:0:0:0:
109,192,52340,1,0,0:0:0:0:
256,192,52408,1,2,0:0:0:0:
329,192,52408,1,8,0:0:0:0:
402,192,52408,1,0,0:0:0:0:
182,192,52476,1,0,0:0:0:0:
36,192,52545,1,0,0:0:0:0:
475,192,52545,1,0,0:0:0:0:
329,192,52613,1,0,0:0:0:0:
256,192,52681,1,2,0:0:0:0:
182,192,52681,1,8,0:0:0:0:
109,192,52681,1,0,0:0:0:0:
329,192,52749,1,0,0:0:0:0:
36,192,52817,1,0,0:0:0:0:
475,192,52817,1,0,0:0:0:0:
182,192,52885,1,0,0:0:0:0:
109,192,52885,1,0,0:0:0:0:
256,192,52954,1,2,0:0:0:0:
402,192,52954,1,0,0:0:0:0:
329,192,52954,1,8,0:0:0:0:
109,192,53022,1,0,0:0:0:0:
36,192,53090,1,0,0:0:0:0:
475,192,53090,1,0,0:0:0:0:
402,192,53158,1,0,0:0:0:0:
256,192,53226,1,2,0:0:0:0:
182,192,53226,1,8,0:0:0:0:
109,192,53226,1,0,0:0:0:0:
329,192,53295,1,0,0:0:0:0:
36,192,53363,1,0,0:0:0:0:
475,192,53363,1,0,0:0:0:0:
182,192,53431,1,0,0:0:0:0:
109,192,53431,1,0,0:0:0:0:
402,192,53499,1,0,0:0:0:0:
329,192,53499,1,8,0:0:0:0:
256,192,53499,1,2,0:0:0:0:
475,192,53567,1,0,0:0:0:0:
36,192,53590,1,0,0:0:0:0:
402,192,53635,1,0,0:0:0:0:
109,192,53681,1,0,0:0:0:0:
329,192,53704,1,0,0:0:0:0:
256,192,53772,1,0,0:0:0:40:ht.wav
475,192,53772,1,0,0:0:0:0:
182,192,53772,1,0,0:0:0:0:
402,192,53840,1,0,0:0:0:0:
36,192,53863,1,0,0:0:0:0:
329,192,53908,1,0,0:0:0:0:
109,192,53954,1,0,0:0:0:0:
475,192,53976,1,0,0:0:0:0:
402,192,54045,1,0,0:0:0:0:
256,192,54045,1,0,0:0:0:40:ht.wav
182,192,54045,1,0,0:0:0:0:
329,192,54113,1,0,0:0:0:0:
36,192,54135,1,0,0:0:0:0:
475,192,54181,1,0,0:0:0:0:
109,192,54226,1,0,0:0:0:0:
402,192,54249,1,0,0:0:0:0:
329,192,54317,1,0,0:0:0:0:
256,192,54317,1,0,0:0:0:40:ht.wav
182,192,54317,1,0,0:0:0:0:
475,192,54385,1,0,0:0:0:0:
36,192,54408,1,0,0:0:0:0:
402,192,54454,1,0,0:0:0:0:
109,192,54499,1,0,0:0:0:0:
329,192,54522,1,0,0:0:0:0:
256,192,54590,1,0,0:0:0:40:crx.wav
475,192,54590,1,0,0:0:0:0:
36,192,54590,1,2,0:0:0:0:
402,192,54590,1,0,0:0:0:0:
182,192,54590,1,0,0:0:0:0:
329,192,54658,1,0,0:0:0:0:
109,192,54726,1,0,0:0:0:0:
182,192,54795,1,0,0:0:0:0:
329,192,54863,1,0,0:0:0:0:
36,192,54863,1,2,0:0:0:0:
256,192,54931,1,0,0:0:0:0:
182,192,54999,1,0,0:0:0:0:
329,192,55067,1,0,0:0:0:0:
402,192,55135,1,0,0:0:0:0:
36,192,55135,1,2,0:0:0:0:
256,192,55204,1,0,0:0:0:0:
329,192,55272,1,0,0:0:0:0:
182,192,55340,1,0,0:0:0:0:
36,192,55408,1,2,0:0:0:0:
475,192,55408,128,0,55476:0:0:0:0:
402,192,55476,1,0,0:0:0:0:
256,192,55545,1,0,0:0:0:0:
329,192,55613,1,0,0:0:0:0:
36,192,55681,1,2,0:0:0:0:
109,192,55681,1,0,0:0:0:0:
402,192,55749,1,0,0:0:0:0:
329,192,55817,1,0,0:0:0:0:
256,192,55885,1,0,0:0:0:0:
402,192,55954,1,0,0:0:0:0:
36,192,55954,1,2,0:0:0:0:
182,192,56022,1,0,0:0:0:0:
329,192,56090,1,0,0:0:0:0:
402,192,56158,1,0,0:0:0:0:
256,192,56226,1,0,0:0:0:0:
36,192,56226,1,2,0:0:0:0:
182,192,56295,1,0,0:0:0:0:
402,192,56363,1,0,0:0:0:0:
329,192,56431,1,0,0:0:0:0:
36,192,56499,1,2,0:0:0:0:
475,192,56499,128,0,56567:0:0:0:0:
256,192,56567,1,0,0:0:0:0:
329,192,56635,1,0,0:0:0:0:
182,192,56704,1,0,0:0:0:0:
36,192,56772,1,2,0:0:0:0:
109,192,56772,1,0,0:0:0:0:
256,192,56840,1,0,0:0:0:0:
329,192,56908,1,0,0:0:0:0:
402,192,56976,1,0,0:0:0:0:
36,192,57045,1,2,0:0:0:0:
182,192,57045,1,0,0:0:0:0:
256,192,57113,1,0,0:0:0:0:
329,192,57181,1,0,0:0:0:0:
182,192,57249,1,0,0:0:0:0:
36,192,57317,1,2,0:0:0:0:
256,192,57317,1,0,0:0:0:0:
109,192,57385,1,0,0:0:0:0:
182,192,57454,1,0,0:0:0:0:
329,192,57522,1,0,0:0:0:0:
36,192,57590,1,2,0:0:0:0:
475,192,57590,128,0,57658:0:0:0:0:
182,192,57658,1,0,0:0:0:0:
329,192,57726,1,0,0:0:0:0:
402,192,57795,1,0,0:0:0:0:
36,192,57863,1,2,0:0:0:0:
109,192,57863,1,0,0:0:0:0:
402,192,57931,1,0,0:0:0:0:
182,192,57999,1,0,0:0:0:0:
256,192,58067,1,0,0:0:0:0:
329,192,58135,1,0,0:0:0:0:
36,192,58135,1,2,0:0:0:0:
402,192,58204,1,0,0:0:0:0:
256,192,58272,1,0,0:0:0:0:
329,192,58340,1,0,0:0:0:0:
182,192,58408,1,0,0:0:0:0:
36,192,58408,1,2,0:0:0:0:
109,192,58476,1,0,0:0:0:0:
256,192,58545,1,0,0:0:0:0:
402,192,58613,1,0,0:0:0:0:
475,192,58681,128,0,58749:0:0:0:0:
109,192,58681,1,0,0:0:0:0:
329,192,58749,1,0,0:0:0:0:
256,192,58817,128,0,58954:0:0:0:0:
182,192,58885,1,0,0:0:0:0:
36,192,58954,1,2,0:0:0:0:
329,192,58954,1,0,0:0:0:0:
402,192,59022,1,0,0:0:0:0:
109,192,59090,1,0,0:0:0:0:
182,192,59158,1,0,0:0:0:0:
36,192,59226,1,2,0:0:0:0:
256,192,59226,1,0,0:0:0:0:
402,192,59295,1,0,0:0:0:0:
329,192,59363,1,0,0:0:0:0:
182,192,59431,1,0,0:0:0:0:
36,192,59499,1,2,0:0:0:0:
402,192,59499,1,0,0:0:0:0:
329,192,59567,1,0,0:0:0:0:
109,192,59635,1,0,0:0:0:0:
256,192,59704,1,0,0:0:0:0:
36,192,59772,1,2,0:0:0:0:
475,192,59772,128,0,59840:0:0:0:0:
182,192,59840,1,0,0:0:0:0:
256,192,59908,1,0,0:0:0:0:
329,192,59976,1,0,0:0:0:0:
36,192,60045,1,2,0:0:0:0:
109,192,60045,1,0,0:0:0:0:
256,192,60113,1,0,0:0:0:0:
402,192,60181,1,0,0:0:0:0:
182,192,60249,1,0,0:0:0:0:
256,192,60317,1,0,0:0:0:0:
36,192,60317,1,2,0:0:0:0:
329,192,60385,1,0,0:0:0:0:
402,192,60454,1,0,0:0:0:0:
109,192,60522,1,0,0:0:0:0:
329,192,60590,1,0,0:0:0:0:
36,192,60590,1,2,0:0:0:0:
182,192,60658,1,0,0:0:0:0:
256,192,60726,1,0,0:0:0:0:
329,192,60795,1,0,0:0:0:0:
36,192,60863,1,2,0:0:0:0:
475,192,60863,128,0,60931:0:0:0:0:
182,192,60931,1,0,0:0:0:0:
402,192,60999,1,0,0:0:0:0:
256,192,61067,1,0,0:0:0:0:
36,192,61135,1,2,0:0:0:0:
109,192,61135,1,0,0:0:0:0:
329,192,61204,1,0,0:0:0:0:
256,192,61272,1,0,0:0:0:0:
402,192,61340,1,0,0:0:0:0:
36,192,61408,1,2,0:0:0:0:
329,192,61408,1,0,0:0:0:0:
182,192,61476,1,0,0:0:0:0:
256,192,61545,1,0,0:0:0:0:
329,192,61613,1,0,0:0:0:0:
182,192,61681,1,0,0:0:0:0:
36,192,61681,1,2,0:0:0:0:
402,192,61749,1,0,0:0:0:0:
329,192,61817,1,0,0:0:0:0:
182,192,61885,1,0,0:0:0:0:
36,192,61954,1,2,0:0:0:0:
475,192,61954,128,0,62022:0:0:0:0:
182,192,62022,1,0,0:0:0:0:
256,192,62090,1,0,0:0:0:0:
329,192,62158,1,0,0:0:0:0:
36,192,62226,1,2,0:0:0:0:
109,192,62226,1,0,0:0:0:0:
256,192,62295,1,0,0:0:0:0:
329,192,62363,1,0,0:0:0:0:
402,192,62431,1,0,0:0:0:0:
36,192,62431,1,2,0:0:0:0:
182,192,62499,1,0,0:0:0:0:
36,192,62499,1,2,0:0:0:0:
329,192,62567,1,0,0:0:0:0:
182,192,62635,1,0,0:0:0:0:
36,192,62704,1,2,0:0:0:0:
329,192,62704,1,0,0:0:0:0:
256,192,62772,1,0,0:0:0:0:
182,192,62840,1,0,0:0:0:0:
329,192,62908,1,0,0:0:0:0:
36,192,62908,1,2,0:0:0:0:
182,192,62976,1,0,0:0:0:0:
36,192,63045,1,2,0:0:0:0:
475,192,63045,128,0,63113:0:0:0:0:
329,192,63045,1,0,0:0:0:0:
256,192,63113,1,0,0:0:0:0:
182,192,63181,1,0,0:0:0:0:
36,192,63181,1,2,0:0:0:0:
329,192,63249,1,0,0:0:0:0:
402,192,63317,1,0,0:0:0:40:normal-hitnormal.wav
36,192,63317,1,2,0:0:0:0:
475,192,63317,1,0,0:0:0:40:ht.wav
109,192,63317,1,2,0:0:0:0:
256,192,63385,1,0,0:0:0:0:
109,192,63454,1,0,0:0:0:0:
402,192,63454,1,0,0:0:0:0:
182,192,63522,1,0,0:0:0:0:
36,192,63590,1,2,0:0:0:0:
256,192,63590,1,0,0:0:0:0:
329,192,63658,1,0,0:0:0:0:
402,192,63726,1,0,0:0:0:0:
109,192,63726,1,0,0:0:0:0:
256,192,63795,1,0,0:0:0:0:
329,192,63863,1,0,0:0:0:0:
36,192,63863,1,2,0:0:0:0:
182,192,63931,1,0,0:0:0:0:
109,192,63999,1,0,0:0:0:0:
402,192,63999,1,0,0:0:0:0:
256,192,64067,1,0,0:0:0:0:
475,192,64135,128,0,64204:0:0:0:0:
36,192,64135,1,2,0:0:0:0:
182,192,64135,1,0,0:0:0:0:
329,192,64204,1,0,0:0:0:0:
256,192,64272,1,0,0:0:0:0:
109,192,64272,1,0,0:0:0:0:
402,192,64340,1,0,0:0:0:0:
182,192,64408,1,0,0:0:0:0:
36,192,64408,1,2,0:0:0:0:
256,192,64476,1,0,0:0:0:0:
402,192,64545,1,0,0:0:0:0:
109,192,64545,1,0,0:0:0:0:
329,192,64613,1,0,0:0:0:0:
256,192,64681,1,0,0:0:0:0:
36,192,64681,1,2,0:0:0:0:
182,192,64749,1,0,0:0:0:0:
109,192,64817,1,0,0:0:0:0:
402,192,64817,1,0,0:0:0:0:
256,192,64885,1,0,0:0:0:0:
329,192,64954,1,0,0:0:0:0:
36,192,64954,1,2,0:0:0:0:
402,192,65022,1,0,0:0:0:0:
109,192,65090,1,0,0:0:0:0:
256,192,65090,1,0,0:0:0:0:
182,192,65158,1,0,0:0:0:0:
329,192,65226,1,0,0:0:0:0:
475,192,65226,128,0,65295:0:0:0:0:
36,192,65226,1,2,0:0:0:0:
256,192,65295,1,0,0:0:0:0:
402,192,65363,1,0,0:0:0:0:
109,192,65363,1,0,0:0:0:0:
329,192,65431,1,0,0:0:0:0:
36,192,65499,1,2,0:0:0:0:
256,192,65499,1,0,0:0:0:0:
402,192,65567,1,0,0:0:0:0:
329,192,65635,1,0,0:0:0:0:
109,192,65635,1,0,0:0:0:0:
256,192,65704,1,0,0:0:0:0:
402,192,65772,1,0,0:0:0:0:
36,192,65772,1,2,0:0:0:0:
182,192,65840,1,0,0:0:0:0:
109,192,65908,1,0,0:0:0:0:
329,192,65908,1,0,0:0:0:0:
256,192,65976,1,0,0:0:0:0:
182,192,66045,1,0,0:0:0:0:
36,192,66045,1,2,0:0:0:0:
329,192,66113,1,0,0:0:0:0:
256,192,66181,1,0,0:0:0:0:
109,192,66181,1,0,0:0:0:0:
402,192,66249,1,0,0:0:0:0:
36,192,66317,1,2,0:0:0:0:
475,192,66317,128,0,66385:0:0:0:0:
329,192,66317,1,0,0:0:0:0:
182,192,66385,1,0,0:0:0:0:
256,192,66454,1,0,0:0:0:0:
109,192,66454,1,0,0:0:0:0:
402,192,66522,1,0,0:0:0:0:
36,192,66590,1,2,0:0:0:0:
329,192,66590,1,0,0:0:0:0:
182,192,66658,1,0,0:0:0:0:
109,192,66726,1,0,0:0:0:0:
256,192,66726,1,0,0:0:0:0:
329,192,66795,1,0,0:0:0:0:
402,192,66863,1,0,0:0:0:0:
36,192,66863,1,2,0:0:0:0:
256,192,66931,1,0,0:0:0:0:
329,192,66999,1,0,0:0:0:0:
109,192,66999,1,0,0:0:0:0:
182,192,67067,1,0,0:0:0:0:
36,192,67135,1,2,0:0:0:0:
475,192,67135,1,0,0:0:0:0:
402,192,67170,1,0,0:0:0:0:
329,192,67204,1,0,0:0:0:0:
109,192,67204,1,0,0:0:0:0:
256,192,67238,1,0,0:0:0:0:
475,192,67272,1,0,0:0:0:0:
182,192,67272,1,0,0:0:0:0:
402,192,67306,1,0,0:0:0:0:
109,192,67340,1,0,0:0:0:0:
329,192,67340,1,0,0:0:0:0:
256,192,67374,1,0,0:0:0:0:
475,192,67408,128,0,67476:0:0:0:0:
182,192,67408,1,0,0:0:0:0:
402,192,67442,1,0,0:0:0:0:
109,192,67476,1,0,0:0:0:0:
329,192,67476,1,0,0:0:0:0:
256,192,67510,1,0,0:0:0:0:
182,192,67545,1,0,0:0:0:0:
475,192,67545,1,0,0:0:0:0:
402,192,67579,1,0,0:0:0:0:
329,192,67613,1,0,0:0:0:0:
109,192,67613,128,0,67681:0:0:0:0:
256,192,67647,1,0,0:0:0:0:
36,192,67681,1,0,0:0:0:0:
402,192,67681,1,0,0:0:0:40:ht.wav
475,192,67681,1,0,0:0:0:0:
182,192,67681,1,2,0:0:0:0:
329,192,67749,1,0,0:0:0:0:
109,192,67817,1,0,0:0:0:0:
256,192,67817,1,0,0:0:0:0:
402,192,67885,1,0,0:0:0:0:
36,192,67954,1,2,0:0:0:0:
329,192,67954,1,0,0:0:0:0:
182,192,68022,1,0,0:0:0:0:
402,192,68090,1,0,0:0:0:0:
109,192,68090,1,0,0:0:0:0:
256,192,68158,1,0,0:0:0:0:
36,192,68226,1,2,0:0:0:0:
182,192,68226,1,0,0:0:0:0:
329,192,68295,1,0,0:0:0:0:
402,192,68363,1,0,0:0:0:0:
109,192,68363,1,0,0:0:0:0:
182,192,68431,1,0,0:0:0:0:
475,192,68499,128,0,68567:0:0:0:0:
36,192,68499,1,2,0:0:0:0:
256,192,68499,1,0,0:0:0:0:
329,192,68567,1,0,0:0:0:0:
402,192,68635,1,0,0:0:0:0:
109,192,68635,1,0,0:0:0:0:
256,192,68704,1,0,0:0:0:0:
36,192,68772,1,2,0:0:0:0:
182,192,68772,1,0,0:0:0:0:
329,192,68840,1,0,0:0:0:0:
109,192,68908,1,0,0:0:0:0:
402,192,68908,1,0,0:0:0:0:
256,192,68976,1,0,0:0:0:0:
329,192,69045,1,0,0:0:0:0:
36,192,69045,1,2,0:0:0:0:
182,192,69113,1,0,0:0:0:0:
109,192,69181,1,0,0:0:0:0:
402,192,69181,1,0,0:0:0:0:
329,192,69249,1,0,0:0:0:0:
256,192,69317,1,0,0:0:0:0:
36,192,69317,1,2,0:0:0:0:
182,192,69385,1,0,0:0:0:0:
329,192,69454,1,0,0:0:0:0:
109,192,69454,1,0,0:0:0:0:
402,192,69522,1,0,0:0:0:0:
36,192,69590,1,2,0:0:0:0:
475,192,69590,128,0,69658:0:0:0:0:
182,192,69590,1,0,0:0:0:0:
329,192,69658,1,0,0:0:0:0:
109,192,69726,1,0,0:0:0:0:
256,192,69726,1,0,0:0:0:0:
182,192,69795,5,0,0:0:0:0:
36,192,69863,1,2,0:0:0:0:
402,192,69863,1,0,0:0:0:0:
329,192,69931,1,0,0:0:0:0:
256,192,69999,1,0,0:0:0:0:
109,192,69999,1,0,0:0:0:0:
182,192,70067,1,0,0:0:0:0:
36,192,70135,1,2,0:0:0:0:
329,192,70135,1,0,0:0:0:0:
256,192,70204,1,0,0:0:0:0:
402,192,70272,1,0,0:0:0:0:
109,192,70272,1,0,0:0:0:0:
182,192,70340,1,0,0:0:0:0:
36,192,70408,1,2,0:0:0:0:
256,192,70408,1,0,0:0:0:0:
329,192,70476,1,0,0:0:0:0:
109,192,70545,1,0,0:0:0:0:
402,192,70545,1,0,0:0:0:0:
182,192,70613,1,0,0:0:0:0:
329,192,70681,1,0,0:0:0:0:
475,192,70681,128,0,70749:0:0:0:0:
36,192,70681,1,2,0:0:0:0:
256,192,70749,1,0,0:0:0:0:
109,192,70817,1,0,0:0:0:0:
402,192,70817,1,0,0:0:0:0:
256,192,70885,1,0,0:0:0:0:
36,192,70954,5,2,0:0:0:0:
109,192,70954,1,0,0:0:0:0:
329,192,71022,1,0,0:0:0:0:
182,192,71022,1,0,0:0:0:0:
475,192,71090,1,0,0:0:0:0:
402,192,71090,1,0,0:0:0:0:
329,192,71158,1,0,0:0:0:0:
182,192,71158,1,0,0:0:0:0:
256,192,71158,128,0,71226:0:0:0:0:
36,192,71226,1,2,0:0:0:0:
109,192,71226,1,0,0:0:0:0:
329,192,71295,1,0,0:0:0:0:
182,192,71295,1,0,0:0:0:0:
475,192,71363,1,0,0:0:0:0:
402,192,71363,1,0,0:0:0:0:
182,192,71431,1,0,0:0:0:0:
329,192,71431,1,0,0:0:0:0:
256,192,71431,128,0,71499:0:0:0:0:
36,192,71499,1,2,0:0:0:0:
109,192,71499,1,0,0:0:0:0:
475,192,71499,1,0,0:0:0:0:
402,192,71533,1,0,0:0:0:0:
182,192,71567,1,0,0:0:0:0:
329,192,71567,1,0,0:0:0:0:
256,192,71601,1,0,0:0:0:0:
36,192,71635,1,0,0:0:0:0:
475,192,71635,1,0,0:0:0:0:
109,192,71670,1,0,0:0:0:0:
182,192,71704,1,0,0:0:0:0:
402,192,71704,1,0,0:0:0:0:
256,192,71738,1,0,0:0:0:0:
36,192,71772,1,0,0:0:0:0:
329,192,71772,1,0,0:0:0:0:
109,192,71806,1,0,0:0:0:0:
182,192,71840,1,0,0:0:0:0:
475,192,71840,1,0,0:0:0:0:
402,192,71874,1,0,0:0:0:0:
256,192,71908,1,0,0:0:0:0:
329,192,71908,1,0,0:0:0:0:
36,192,71942,1,0,0:0:0:0:
109,192,71976,1,0,0:0:0:0:
182,192,72010,1,0,0:0:0:0:
402,192,72045,1,0,0:0:0:40:crx.wav
256,192,72045,1,2,0:0:0:0:
329,192,72045,1,8,0:0:0:0:
475,192,72045,1,0,0:0:0:0:
329,192,72181,1,0,0:0:0:0:
36,192,72181,1,0,0:0:0:0:
109,192,72317,128,0,72385:0:0:0:0:
475,192,72317,1,0,0:0:0:0:
402,192,72317,1,0,0:0:0:0:
182,192,72317,1,8,0:0:0:0:
329,192,72454,1,0,0:0:0:0:
256,192,72454,1,0,0:0:0:0:
475,192,72590,1,0,0:0:0:0:
402,192,72590,1,0,0:0:0:0:
182,192,72590,1,8,0:0:0:0:
329,192,72726,1,0,0:0:0:0:
109,192,72726,128,0,72795:0:0:0:0:
36,192,72726,1,0,0:0:0:0:
256,192,72863,1,0,0:0:0:0:
402,192,72863,1,0,0:0:0:0:
182,192,72863,1,8,0:0:0:0:
36,192,72999,1,0,0:0:0:0:
182,192,72999,1,0,0:0:0:0:
475,192,73135,128,0,73681:0:0:0:0:
256,192,73135,1,8,0:0:0:0:
329,192,73135,1,0,0:0:0:0:
109,192,73135,128,0,73204:0:0:0:0:
182,192,73272,1,0,0:0:0:0:
402,192,73272,1,0,0:0:0:0:
329,192,73408,128,0,73476:0:0:0:0:
109,192,73408,1,8,0:0:0:0:
256,192,73408,1,0,0:0:0:0:
36,192,73408,1,0,0:0:0:0:
182,192,73545,1,0,0:0:0:0:
109,192,73545,1,0,0:0:0:0:
36,192,73681,128,0,74090:0:0:0:0:
256,192,73681,1,0,0:0:0:0:
402,192,73681,1,0,0:0:0:0:
182,192,73681,1,8,0:0:0:0:
329,192,73817,128,0,73885:0:0:0:0:
475,192,73817,1,0,0:0:0:0:
256,192,73817,1,0,0:0:0:0:
182,192,73885,1,8,0:0:0:0:
402,192,73954,1,0,0:0:0:0:
329,192,73954,1,0,0:0:0:0:
109,192,73954,1,8,0:0:0:0:
475,192,74090,1,0,0:0:0:0:
402,192,74090,1,0,0:0:0:0:
402,192,74226,1,8,0:0:0:0:
475,192,74226,1,0,0:0:0:0:
329,192,74226,128,0,74295:0:0:0:0:
36,192,74260,1,0,0:0:0:0:
109,192,74295,1,0,0:0:0:0:
182,192,74329,1,0,0:0:0:0:
256,192,74363,1,0,0:0:0:0:
329,192,74397,1,0,0:0:0:0:
402,192,74431,1,0,0:0:0:0:
475,192,74465,1,0,0:0:0:0:
182,192,74499,128,0,74567:0:0:0:0:
109,192,74499,1,8,0:0:0:0:
36,192,74499,1,0,0:0:0:0:
36,192,74635,1,0,0:0:0:0:
109,192,74670,1,0,0:0:0:0:
182,192,74704,1,0,0:0:0:0:
256,192,74738,1,0,0:0:0:0:
475,192,74772,1,0,0:0:0:0:
402,192,74772,1,0,0:0:0:0:
329,192,74772,1,8,0:0:0:0:
182,192,74908,128,0,74976:0:0:0:0:
109,192,74908,1,0,0:0:0:0:
475,192,74908,1,0,0:0:0:0:
329,192,75045,1,8,0:0:0:0:
402,192,75045,1,0,0:0:0:0:
475,192,75045,1,0,0:0:0:0:
182,192,75079,1,0,0:0:0:0:
109,192,75113,1,0,0:0:0:0:
36,192,75147,1,0,0:0:0:0:
475,192,75181,1,0,0:0:0:0:
402,192,75215,1,0,0:0:0:0:
329,192,75249,1,0,0:0:0:0:
256,192,75283,1,0,0:0:0:0:
36,192,75317,1,0,0:0:0:0:
109,192,75317,1,8,0:0:0:0:
182,192,75317,128,0,75385:0:0:0:0:
402,192,75454,1,0,0:0:0:0:
256,192,75454,1,0,0:0:0:0:
109,192,75590,128,0,75658:0:0:0:0:
36,192,75590,1,0,0:0:0:0:
329,192,75590,1,8,0:0:0:0:
475,192,75590,1,0,0:0:0:0:
256,192,75726,1,0,0:0:0:0:
402,192,75726,1,0,0:0:0:0:
182,192,75863,1,8,0:0:0:0:
36,192,75863,1,0,0:0:0:0:
329,192,75863,1,0,0:0:0:0:
109,192,75999,128,0,76067:0:0:0:0:
402,192,75999,1,0,0:0:0:0:
256,192,75999,1,0,0:0:0:0:
402,192,76135,1,0,0:0:0:0:
329,192,76135,1,0,0:0:0:0:
475,192,76135,1,8,0:0:0:0:
182,192,76170,1,0,0:0:0:0:
109,192,76204,1,0,0:0:0:0:
36,192,76238,1,0,0:0:0:0:
475,192,76272,1,0,0:0:0:0:
256,192,76272,1,8,0:0:0:0:
402,192,76306,1,0,0:0:0:0:
329,192,76340,1,0,0:0:0:0:
256,192,76374,1,0,0:0:0:0:
182,192,76408,1,0,0:0:0:0:
36,192,76408,1,8,0:0:0:0:
109,192,76408,128,0,76476:0:0:0:0:
475,192,76442,1,0,0:0:0:0:
402,192,76476,1,0,0:0:0:0:
329,192,76510,1,0,0:0:0:0:
256,192,76545,1,0,0:0:0:0:
36,192,76545,1,0,0:0:0:0:
109,192,76579,1,0,0:0:0:0:
182,192,76613,1,0,0:0:0:0:
256,192,76647,1,0,0:0:0:0:
475,192,76681,1,0,0:0:0:0:
402,192,76681,1,8,0:0:0:0:
329,192,76681,128,0,76749:0:0:0:0:
475,192,76817,1,0,0:0:0:0:
36,192,76817,1,0,0:0:0:0:
109,192,76851,1,0,0:0:0:0:
182,192,76885,1,0,0:0:0:0:
256,192,76920,1,0,0:0:0:0:
329,192,76954,1,8,0:0:0:0:
402,192,76954,1,0,0:0:0:0:
475,192,76954,1,0,0:0:0:0:
329,192,77090,128,0,77158:0:0:0:0:
402,192,77090,1,0,0:0:0:0:
182,192,77090,1,0,0:0:0:0:
36,192,77226,1,0,0:0:0:0:
109,192,77226,1,8,0:0:0:0:
256,192,77226,1,0,0:0:0:0:
475,192,77363,1,0,0:0:0:0:
402,192,77363,1,0,0:0:0:0:
36,192,77499,128,0,78045:0:0:0:0:
402,192,77499,1,0,0:0:0:0:
182,192,77499,1,8,0:0:0:0:
329,192,77499,128,0,77567:0:0:0:0:
109,192,77635,1,0,0:0:0:0:
256,192,77635,1,0,0:0:0:0:
402,192,77772,1,0,0:0:0:0:
475,192,77772,1,0,0:0:0:0:
182,192,77772,128,0,77840:0:0:0:0:
329,192,77772,1,8,0:0:0:0:
402,192,77908,1,0,0:0:0:0:
256,192,77908,1,0,0:0:0:0:
475,192,78045,128,0,78454:0:0:0:0:
329,192,78045,1,8,0:0:0:0:
182,192,78045,1,0,0:0:0:0:
256,192,78045,1,0,0:0:0:0:
36,192,78181,1,0,0:0:0:0:
109,192,78181,1,0,0:0:0:0:
182,192,78181,128,0,78249:0:0:0:0:
329,192,78249,1,8,0:0:0:0:
256,192,78317,1,0,0:0:0:0:
402,192,78317,1,8,0:0:0:0:
109,192,78317,1,0,0:0:0:0:
402,192,78454,1,0,0:0:0:0:
256,192,78454,1,8,0:0:0:0:
109,192,78454,1,0,0:0:0:0:
329,192,78590,1,8,0:0:0:0:
475,192,78590,1,0,0:0:0:0:
402,192,78590,128,0,78658:0:0:0:0:
36,192,78624,1,0,0:0:0:0:
109,192,78658,1,0,0:0:0:0:
182,192,78692,1,0,0:0:0:0:
256,192,78726,1,0,0:0:0:0:
475,192,78726,1,0,0:0:0:0:
402,192,78760,1,0,0:0:0:0:
329,192,78795,1,0,0:0:0:0:
256,192,78829,1,0,0:0:0:0:
182,192,78863,1,0,0:0:0:0:
36,192,78863,1,0,0:0:0:0:
109,192,78863,1,8,0:0:0:0:
329,192,78999,1,0,0:0:0:0:
36,192,78999,1,0,0:0:0:0:
402,192,78999,128,0,79067:0:0:0:0:
109,192,79033,1,0,0:0:0:0:
182,192,79067,1,0,0:0:0:0:
256,192,79101,1,0,0:0:0:0:
475,192,79135,1,8,0:0:0:0:
329,192,79135,1,0,0:0:0:0:
402,192,79135,1,0,0:0:0:0:
256,192,79272,1,0,0:0:0:0:
36,192,79272,1,0,0:0:0:0:
109,192,79272,1,0,0:0:0:0:
475,192,79408,1,0,0:0:0:0:
36,192,79408,1,8,0:0:0:0:
182,192,79408,1,0,0:0:0:0:
402,192,79442,1,0,0:0:0:0:
329,192,79476,1,0,0:0:0:0:
256,192,79510,1,0,0:0:0:0:
475,192,79545,1,0,0:0:0:0:
109,192,79545,128,0,79613:0:0:0:0:
36,192,79545,1,0,0:0:0:0:
402,192,79579,1,0,0:0:0:0:
329,192,79613,1,0,0:0:0:0:
256,192,79647,1,0,0:0:0:0:
475,192,79681,1,8,0:0:0:0:
36,192,79681,1,0,0:0:0:0:
182,192,79681,1,0,0:0:0:0:
475,192,79817,1,8,0:0:0:0:
182,192,79817,1,0,0:0:0:0:
329,192,79817,1,0,0:0:0:0:
36,192,79954,128,0,80022:0:0:0:0:
402,192,79954,1,0,0:0:0:0:
109,192,79954,1,0,0:0:0:0:
329,192,80090,1,0,0:0:0:0:
256,192,80090,1,8,0:0:0:0:
182,192,80090,1,0,0:0:0:0:
109,192,80226,1,8,0:0:0:0:
36,192,80226,1,0,0:0:0:0:
182,192,80226,1,0,0:0:0:0:
402,192,80295,1,0,0:0:0:0:
329,192,80295,1,8,0:0:0:0:
36,192,80363,128,0,80431:0:0:0:0:
109,192,80363,1,8,0:0:0:0:
182,192,80363,1,0,0:0:0:0:
329,192,80431,1,8,0:0:0:0:
402,192,80431,1,0,0:0:0:0:
36,192,80499,1,8,0:0:0:0:
256,192,80499,1,0,0:0:0:0:
109,192,80533,1,0,0:0:0:0:
182,192,80567,1,0,0:0:0:0:
475,192,80567,1,0,0:0:0:0:
402,192,80601,1,0,0:0:0:0:
36,192,80635,1,0,0:0:0:0:
329,192,80635,1,0,0:0:0:0:
109,192,80670,1,0,0:0:0:0:
182,192,80704,1,0,0:0:0:0:
475,192,80704,1,0,0:0:0:0:
402,192,80738,1,0,0:0:0:0:
109,192,80772,1,2,0:0:0:0:
256,192,80772,1,0,0:0:0:40:crx.wav
329,192,80772,1,8,0:0:0:0:
36,192,80772,128,0,80840:0:0:0:0:
256,192,80908,1,0,0:0:0:0:
182,192,80908,1,0,0:0:0:0:
109,192,81045,128,0,81113:0:0:0:0:
475,192,81045,1,0,0:0:0:0:
329,192,81045,1,0,0:0:0:0:
402,192,81045,1,8,0:0:0:0:
182,192,81181,1,0,0:0:0:0:
256,192,81181,1,0,0:0:0:0:
475,192,81317,1,0,0:0:0:0:
329,192,81317,1,0,0:0:0:0:
182,192,81317,1,8,0:0:0:0:
402,192,81454,1,0,0:0:0:0:
109,192,81454,128,0,81522:0:0:0:0:
36,192,81454,1,0,0:0:0:0:
256,192,81590,1,0,0:0:0:0:
329,192,81590,1,0,0:0:0:0:
182,192,81590,1,8,0:0:0:0:
402,192,81726,1,0,0:0:0:0:
36,192,81726,1,0,0:0:0:0:
475,192,81863,128,0,82408:0:0:0:0:
256,192,81863,1,8,0:0:0:0:
329,192,81863,1,0,0:0:0:0:
109,192,81863,128,0,81931:0:0:0:0:
182,192,81999,1,0,0:0:0:0:
402,192,81999,1,0,0:0:0:0:
329,192,82135,128,0,82204:0:0:0:0:
109,192,82135,1,0,0:0:0:0:
256,192,82135,1,8,0:0:0:0:
36,192,82135,1,0,0:0:0:0:
182,192,82272,1,0,0:0:0:0:
109,192,82272,1,0,0:0:0:0:
36,192,82408,128,0,82817:0:0:0:0:
402,192,82408,1,0,0:0:0:0:
256,192,82408,1,8,0:0:0:0:
329,192,82408,1,0,0:0:0:0:
329,192,82545,128,0,82613:0:0:0:0:
182,192,82545,1,0,0:0:0:0:
109,192,82545,1,0,0:0:0:0:
402,192,82613,1,8,0:0:0:0:
475,192,82681,1,8,0:0:0:0:
182,192,82681,1,0,0:0:0:0:
256,192,82681,1,0,0:0:0:0:
109,192,82817,1,0,0:0:0:0:
256,192,82817,1,0,0:0:0:0:
402,192,82954,1,8,0:0:0:0:
329,192,82954,128,0,83022:0:0:0:0:
475,192,82954,1,0,0:0:0:0:
36,192,82988,1,0,0:0:0:0:
109,192,83022,1,0,0:0:0:0:
182,192,83056,1,0,0:0:0:0:
475,192,83090,1,0,0:0:0:0:
256,192,83090,1,0,0:0:0:0:
402,192,83124,1,0,0:0:0:0:
329,192,83158,1,0,0:0:0:0:
256,192,83192,1,0,0:0:0:0:
36,192,83226,1,8,0:0:0:0:
182,192,83226,1,0,0:0:0:0:
475,192,83226,128,0,83295:0:0:0:0:
109,192,83363,1,0,0:0:0:0:
36,192,83363,1,0,0:0:0:0:
182,192,83397,1,0,0:0:0:0:
256,192,83431,1,0,0:0:0:0:
329,192,83465,1,0,0:0:0:0:
109,192,83499,1,0,0:0:0:0:
475,192,83499,1,8,0:0:0:0:
402,192,83499,1,0,0:0:0:0:
475,192,83635,128,0,83704:0:0:0:0:
329,192,83635,1,0,0:0:0:0:
182,192,83635,1,0,0:0:0:0:
109,192,83772,1,0,0:0:0:0:
36,192,83772,1,8,0:0:0:0:
182,192,83772,1,0,0:0:0:0:
475,192,83806,1,0,0:0:0:0:
402,192,83840,1,0,0:0:0:0:
329,192,83874,1,0,0:0:0:0:
256,192,83908,1,0,0:0:0:0:
182,192,83942,1,0,0:0:0:0:
109,192,83976,1,0,0:0:0:0:
36,192,84010,1,0,0:0:0:0:
329,192,84045,1,0,0:0:0:0:
402,192,84045,1,8,0:0:0:0:
475,192,84045,128,0,84113:0:0:0:0:
256,192,84181,1,0,0:0:0:0:
109,192,84181,1,0,0:0:0:0:
329,192,84317,1,0,0:0:0:0:
475,192,84317,1,0,0:0:0:0:
182,192,84317,1,8,0:0:0:0:
256,192,84317,128,0,84385:0:0:0:0:
329,192,84454,1,0,0:0:0:0:
36,192,84454,1,0,0:0:0:0:
182,192,84590,1,8,0:0:0:0:
109,192,84590,1,0,0:0:0:0:
402,192,84590,1,0,0:0:0:0:
256,192,84726,128,0,84795:0:0:0:0:
475,192,84726,1,0,0:0:0:0:
329,192,84726,1,0,0:0:0:0:
182,192,84795,1,0,0:0:0:0:
36,192,84795,1,0,0:0:0:0:
109,192,84795,1,0,0:0:0:0:
475,192,84863,1,0,0:0:0:0:
402,192,84863,1,0,0:0:0:0:
329,192,84863,1,8,0:0:0:0:
256,192,84897,1,0,0:0:0:0:
182,192,84931,1,0,0:0:0:0:
109,192,84965,1,0,0:0:0:0:
475,192,84999,1,8,0:0:0:0:
36,192,84999,1,0,0:0:0:0:
402,192,85033,1,0,0:0:0:0:
329,192,85067,1,0,0:0:0:0:
256,192,85101,1,0,0:0:0:0:
182,192,85135,1,0,0:0:0:0:
109,192,85135,1,8,0:0:0:0:
36,192,85135,128,0,85204:0:0:0:0:
475,192,85170,1,0,0:0:0:0:
402,192,85204,1,0,0:0:0:0:
329,192,85238,1,0,0:0:0:0:
36,192,85272,1,0,0:0:0:0:
256,192,85272,1,0,0:0:0:0:
109,192,85306,1,0,0:0:0:0:
182,192,85340,1,0,0:0:0:0:
256,192,85374,1,0,0:0:0:0:
475,192,85408,1,8,0:0:0:0:
402,192,85408,128,0,85476:0:0:0:0:
329,192,85408,1,0,0:0:0:0:
36,192,85545,1,0,0:0:0:0:
475,192,85545,1,0,0:0:0:0:
182,192,85579,1,0,0:0:0:0:
329,192,85613,1,0,0:0:0:0:
475,192,85647,1,0,0:0:0:0:
109,192,85681,1,8,0:0:0:0:
256,192,85681,1,0,0:0:0:0:
36,192,85681,1,0,0:0:0:0:
475,192,85817,128,0,85885:0:0:0:0:
329,192,85817,1,0,0:0:0:0:
182,192,85817,1,0,0:0:0:0:
256,192,85954,1,0,0:0:0:0:
402,192,85954,1,8,0:0:0:0:
36,192,85954,1,0,0:0:0:0:
109,192,86090,1,0,0:0:0:0:
475,192,86090,1,0,0:0:0:0:
36,192,86226,128,0,86772:0:0:0:0:
256,192,86226,1,0,0:0:0:0:
182,192,86226,1,8,0:0:0:0:
402,192,86226,128,0,86295:0:0:0:0:
329,192,86363,1,0,0:0:0:0:
109,192,86363,1,0,0:0:0:0:
256,192,86499,1,8,0:0:0:0:
402,192,86499,1,0,0:0:0:0:
475,192,86499,1,0,0:0:0:0:
182,192,86499,128,0,86567:0:0:0:0:
402,192,86635,1,0,0:0:0:0:
329,192,86635,1,0,0:0:0:0:
475,192,86772,128,0,87181:0:0:0:0:
329,192,86772,1,8,0:0:0:0:
109,192,86772,1,0,0:0:0:0:
256,192,86772,1,0,0:0:0:0:
256,192,86908,1,0,0:0:0:0:
402,192,86908,1,0,0:0:0:0:
182,192,86908,128,0,86976:0:0:0:0:
36,192,86976,1,8,0:0:0:0:
329,192,87045,1,8,0:0:0:0:
109,192,87045,1,0,0:0:0:0:
402,192,87045,1,0,0:0:0:0:
256,192,87181,1,0,0:0:0:0:
109,192,87181,1,0,0:0:0:0:
402,192,87317,1,8,0:0:0:0:
329,192,87317,1,0,0:0:0:0:
475,192,87317,128,0,87385:0:0:0:0:
256,192,87351,1,0,0:0:0:0:
182,192,87385,1,0,0:0:0:0:
109,192,87420,1,0,0:0:0:0:
36,192,87454,1,0,0:0:0:0:
256,192,87454,1,0,0:0:0:0:
329,192,87488,1,0,0:0:0:0:
402,192,87522,1,0,0:0:0:0:
475,192,87556,1,0,0:0:0:0:
36,192,87590,1,0,0:0:0:0:
182,192,87590,1,0,0:0:0:0:
256,192,87590,128,8,87658:0:1:0:0:
475,192,87726,1,0,0:0:0:0:
109,192,87726,1,0,0:0:0:0:
182,192,87760,1,0,0:0:0:0:
402,192,87795,1,0,0:0:0:0:
329,192,87829,1,0,0:0:0:0:
109,192,87863,1,8,0:0:0:0:
36,192,87863,1,0,0:0:0:0:
256,192,87863,1,0,0:0:0:0:
256,192,87999,128,0,88067:0:0:0:0:
182,192,87999,1,0,0:0:0:0:
329,192,87999,1,0,0:0:0:0:
402,192,88135,1,0,0:0:0:0:
329,192,88135,1,8,0:0:0:0:
475,192,88135,1,0,0:0:0:0:
36,192,88170,1,0,0:0:0:0:
182,192,88204,1,0,0:0:0:0:
329,192,88238,1,0,0:0:0:0:
475,192,88272,1,0,0:0:0:0:
36,192,88272,1,0,0:0:0:0:
182,192,88306,1,0,0:0:0:0:
329,192,88340,1,0,0:0:0:0:
475,192,88374,1,0,0:0:0:0:
109,192,88408,1,0,0:0:0:0:
182,192,88408,1,8,0:0:0:0:
36,192,88408,128,0,88476:0:0:0:0:
109,192,88545,1,0,0:0:0:0:
182,192,88545,1,8,0:0:0:0:
36,192,88545,1,0,0:0:0:0:
256,192,88681,128,0,88749:0:0:0:0:
402,192,88681,1,0,0:0:0:0:
475,192,88681,1,0,0:0:0:0:
182,192,88817,1,8,0:0:0:0:
109,192,88817,1,0,0:0:0:0:
36,192,88817,1,0,0:0:0:0:
256,192,88954,1,8,0:0:0:0:
329,192,88954,1,0,0:0:0:0:
182,192,88954,1,0,0:0:0:0:
402,192,89022,1,8,0:0:0:0:
475,192,89022,1,0,0:0:0:0:
109,192,89090,128,0,89158:0:0:0:0:
329,192,89090,1,0,0:0:0:0:
256,192,89090,1,8,0:0:0:0:
402,192,89158,1,8,0:0:0:0:
475,192,89158,1,0,0:0:0:0:
256,192,89226,1,8,0:0:0:0:
329,192,89226,1,0,0:0:0:0:
182,192,89226,1,0,0:0:0:0:
109,192,89260,1,0,0:0:0:0:
475,192,89295,1,0,0:0:0:0:
402,192,89295,1,0,0:0:0:0:
36,192,89329,1,0,0:0:0:0:
329,192,89363,1,0,0:0:0:0:
256,192,89363,1,0,0:0:0:0:
109,192,89397,1,0,0:0:0:0:
475,192,89431,1,0,0:0:0:0:
402,192,89431,1,0,0:0:0:0:
182,192,89465,1,0,0:0:0:0:
329,192,89499,1,0,0:0:0:0:
36,192,89499,1,0,0:0:0:40:crx.wav
256,192,89499,1,2,0:0:0:0:
402,192,89567,1,0,0:0:0:0:
329,192,89635,1,0,0:0:0:0:
402,192,89704,1,0,0:0:0:0:
329,192,89772,1,0,0:0:0:0:
36,192,89772,1,2,0:0:0:0:
256,192,89840,1,0,0:0:0:0:
329,192,89908,1,0,0:0:0:0:
256,192,89976,1,0,0:0:0:0:
182,192,90045,1,0,0:0:0:0:
36,192,90045,1,2,0:0:0:0:
109,192,90113,1,0,0:0:0:0:
182,192,90181,1,0,0:0:0:0:
109,192,90249,1,0,0:0:0:0:
36,192,90317,128,2,90454:0:0:0:0:
182,192,90317,128,0,90454:0:0:0:40:ht.wav
329,192,90317,128,0,90454:0:0:0:40:ht.wav
475,192,90590,1,0,0:0:0:0:
36,192,90590,1,2,0:0:0:0:
402,192,90658,1,0,0:0:0:0:
329,192,90726,1,0,0:0:0:0:
256,192,90760,1,0,0:0:0:0:
182,192,90817,1,0,0:0:0:0:
402,192,90863,1,0,0:0:0:0:
36,192,90863,1,2,0:0:0:0:
329,192,90931,1,0,0:0:0:0:
256,192,90999,1,0,0:0:0:0:
182,192,91033,1,0,0:0:0:0:
109,192,91090,1,0,0:0:0:0:
329,192,91135,1,0,0:0:0:0:
36,192,91135,1,2,0:0:0:0:
256,192,91204,1,0,0:0:0:0:
182,192,91272,1,0,0:0:0:0:
109,192,91306,1,0,0:0:0:0:
36,192,91363,1,0,0:0:0:0:
256,192,91408,1,0,0:0:0:0:
475,192,91408,1,2,0:0:0:0:
182,192,91476,1,0,0:0:0:0:
109,192,91545,1,0,0:0:0:0:
36,192,91613,1,0,0:0:0:0:
402,192,91681,1,0,0:0:0:0:
329,192,91681,1,2,0:0:0:0:
182,192,91749,1,0,0:0:0:0:
256,192,91817,1,0,0:0:0:0:
109,192,91885,1,0,0:0:0:0:
182,192,91954,1,0,0:0:0:0:
329,192,91954,1,2,0:0:0:0:
36,192,92022,1,0,0:0:0:0:
109,192,92090,1,0,0:0:0:0:
256,192,92158,1,0,0:0:0:0:
402,192,92226,1,0,0:0:0:0:
182,192,92226,1,2,0:0:0:0:
329,192,92295,1,0,0:0:0:0:
256,192,92363,1,0,0:0:0:0:
182,192,92431,1,0,0:0:0:0:
36,192,92499,128,0,92590:0:0:0:40:ht.wav
109,192,92499,128,0,92590:0:0:0:40:ht.wav
402,192,92499,128,2,92590:0:0:0:0:
475,192,92772,1,0,0:0:0:0:
36,192,92772,1,2,0:0:0:0:
329,192,92840,1,0,0:0:0:0:
256,192,92908,1,0,0:0:0:0:
182,192,92976,1,0,0:0:0:0:
36,192,93045,1,2,0:0:0:0:
475,192,93045,1,0,0:0:0:0:
329,192,93113,1,0,0:0:0:0:
182,192,93181,1,0,0:0:0:0:
36,192,93249,1,0,0:0:0:0:
182,192,93317,1,0,0:0:0:0:
329,192,93317,1,2,0:0:0:0:
329,192,93408,1,2,0:0:0:0:
109,192,93408,1,0,0:0:0:0:
36,192,93499,1,0,0:0:0:0:
329,192,93499,1,2,0:0:0:0:
475,192,93590,1,0,0:0:0:0:
182,192,93590,1,2,0:0:0:0:
182,192,93681,1,2,0:0:0:0:
402,192,93681,1,0,0:0:0:0:
329,192,93772,1,0,0:0:0:0:
182,192,93772,1,2,0:0:0:0:
256,192,93863,1,0,0:0:0:0:
36,192,93863,1,2,0:0:0:0:
182,192,93931,1,0,0:0:0:0:
109,192,93999,1,0,0:0:0:0:
36,192,94067,1,0,0:0:0:0:
475,192,94135,1,0,0:0:0:0:
256,192,94135,1,2,0:0:0:0:
402,192,94204,1,0,0:0:0:0:
182,192,94272,1,0,0:0:0:0:
329,192,94340,1,0,0:0:0:0:
109,192,94408,1,0,0:0:0:0:
256,192,94408,1,2,0:0:0:0:
36,192,94476,1,0,0:0:0:0:
475,192,94545,1,0,0:0:0:0:
402,192,94613,1,0,0:0:0:0:
182,192,94681,128,0,94749:0:0:0:40:ht.wav
256,192,94681,128,2,94749:0:0:0:0:
329,192,94681,128,0,94749:0:0:0:40:ht.wav
402,192,94954,1,0,0:0:0:0:
475,192,94954,1,2,0:0:0:0:
329,192,95022,1,0,0:0:0:0:
256,192,95090,1,0,0:0:0:0:
182,192,95158,1,0,0:0:0:0:
475,192,95226,1,2,0:0:0:0:
329,192,95226,1,0,0:0:0:0:
256,192,95295,1,0,0:0:0:0:
182,192,95363,1,0,0:0:0:0:
109,192,95431,1,0,0:0:0:0:
475,192,95499,1,2,0:0:0:0:
256,192,95499,1,0,0:0:0:0:
182,192,95567,1,0,0:0:0:0:
109,192,95635,1,0,0:0:0:0:
36,192,95704,1,0,0:0:0:0:
475,192,95772,1,2,0:0:0:0:
256,192,95772,1,0,0:0:0:0:
402,192,95806,1,0,0:0:0:0:
329,192,95840,1,0,0:0:0:0:
182,192,95874,1,0,0:0:0:0:
109,192,95908,1,0,0:0:0:0:
36,192,95942,1,0,0:0:0:0:
475,192,95976,1,0,0:0:0:0:
402,192,96010,1,0,0:0:0:0:
329,192,96045,1,0,0:0:0:0:
256,192,96045,1,2,0:0:0:0:
256,192,96317,1,2,0:0:0:0:
182,192,96317,1,0,0:0:0:0:
256,192,96590,1,2,0:0:0:0:
329,192,96590,1,0,0:0:0:0:
256,192,96863,1,2,0:0:0:0:
182,192,96863,1,0,0:0:0:0:
256,192,97135,128,0,97545:0:0:0:0:
109,192,97442,1,0,0:0:0:0:
182,192,97476,1,0,0:0:0:0:
402,192,97510,1,0,0:0:0:0:
329,192,97545,1,0,0:0:0:0:
109,192,97579,1,0,0:0:0:0:
182,192,97613,1,0,0:0:0:0:
329,192,97647,1,0,0:0:0:0:
36,192,97681,1,0,0:0:0:40:ht.wav
475,192,97681,1,0,0:0:0:40:normal-hitnormal.wav
256,192,97681,1,2,0:0:0:0:
109,192,97749,1,0,0:0:0:0:
402,192,97749,1,0,0:0:0:0:
182,192,97817,1,0,0:0:0:0:
329,192,97817,1,0,0:0:0:0:
475,192,97954,1,0,0:0:0:40:normal-hitnormal.wav
36,192,97954,1,0,0:0:0:40:ht.wav
256,192,97954,1,0,0:0:0:0:
256,192,98090,1,0,0:0:0:0:
329,192,98226,1,0,0:0:0:0:
256,192,98226,1,0,0:0:0:40:crx.wav
36,192,98226,1,2,0:0:0:0:
182,192,98226,1,0,0:0:0:0:
475,192,98226,1,0,0:0:0:40:ht.wav
182,192,98363,1,0,0:0:0:0:
256,192,98431,1,0,0:0:0:0:
109,192,98499,1,0,0:0:0:0:
329,192,98499,1,0,0:0:0:0:
36,192,98499,1,2,0:0:0:0:
256,192,98567,1,0,0:0:0:0:
182,192,98635,1,0,0:0:0:0:
329,192,98704,1,0,0:0:0:0:
36,192,98772,1,2,0:0:0:0:
402,192,98772,1,0,0:0:0:0:
475,192,98840,1,0,0:0:0:0:
182,192,98908,1,0,0:0:0:0:
329,192,98976,1,0,0:0:0:0:
109,192,99045,1,0,0:0:0:0:
36,192,99045,1,2,0:0:0:0:
475,192,99045,1,0,0:0:0:0:
402,192,99113,1,0,0:0:0:0:
329,192,99181,1,0,0:0:0:0:
256,192,99249,1,0,0:0:0:0:
36,192,99317,1,2,0:0:0:0:
182,192,99317,1,0,0:0:0:0:
329,192,99454,1,0,0:0:0:0:
256,192,99522,1,0,0:0:0:0:
402,192,99590,1,0,0:0:0:0:
36,192,99590,1,2,0:0:0:0:
475,192,99590,1,0,0:0:0:0:
256,192,99658,1,0,0:0:0:0:
329,192,99726,1,0,0:0:0:0:
182,192,99795,1,0,0:0:0:0:
36,192,99863,1,2,0:0:0:0:
402,192,99863,1,0,0:0:0:0:
109,192,99931,1,0,0:0:0:0:
329,192,99999,1,0,0:0:0:0:
182,192,100067,1,0,0:0:0:0:
256,192,100135,1,0,0:0:0:0:
36,192,100135,1,2,0:0:0:0:
475,192,100135,1,0,0:0:0:0:
329,192,100204,1,0,0:0:0:0:
256,192,100272,1,0,0:0:0:0:
182,192,100340,1,0,0:0:0:0:
475,192,100408,1,0,0:0:0:0:
36,192,100408,1,2,0:0:0:0:
256,192,100545,1,0,0:0:0:0:
329,192,100613,1,0,0:0:0:0:
36,192,100681,1,2,0:0:0:0:
182,192,100681,1,0,0:0:0:0:
402,192,100681,1,0,0:0:0:0:
256,192,100749,1,0,0:0:0:0:
329,192,100817,1,0,0:0:0:0:
182,192,100885,1,0,0:0:0:0:
402,192,100954,1,0,0:0:0:0:
36,192,100954,1,2,0:0:0:0:
475,192,101022,1,0,0:0:0:0:
329,192,101090,1,0,0:0:0:0:
182,192,101158,1,0,0:0:0:0:
475,192,101226,1,0,0:0:0:0:
329,192,101226,1,0,0:0:0:0:
36,192,101226,1,2,0:0:0:0:
256,192,101295,1,0,0:0:0:0:
182,192,101363,1,0,0:0:0:0:
256,192,101431,1,0,0:0:0:0:
329,192,101499,1,0,0:0:0:0:
36,192,101499,1,2,0:0:0:0:
182,192,101635,1,0,0:0:0:0:
256,192,101704,1,0,0:0:0:0:
36,192,101772,1,2,0:0:0:0:
329,192,101772,1,0,0:0:0:0:
109,192,101772,1,0,0:0:0:0:
256,192,101840,1,0,0:0:0:0:
182,192,101908,1,0,0:0:0:0:
329,192,101976,1,0,0:0:0:0:
402,192,102045,1,0,0:0:0:0:
36,192,102045,1,2,0:0:0:0:
109,192,102113,1,0,0:0:0:0:
329,192,102181,1,0,0:0:0:0:
182,192,102249,1,0,0:0:0:0:
256,192,102317,1,0,0:0:0:0:
36,192,102317,1,2,0:0:0:0:
475,192,102317,1,0,0:0:0:0:
329,192,102385,1,0,0:0:0:0:
256,192,102454,1,0,0:0:0:0:
182,192,102522,1,0,0:0:0:0:
402,192,102590,1,0,0:0:0:40:ht.wav
475,192,102590,1,0,0:0:0:40:ht.wav
36,192,102590,1,2,0:0:0:0:
329,192,102590,1,0,0:0:0:0:
256,192,102726,1,0,0:0:0:0:
182,192,102795,1,0,0:0:0:0:
109,192,102863,1,0,0:0:0:0:
329,192,102863,1,2,0:0:0:0:
475,192,102863,1,8,0:0:0:0:
256,192,102931,1,0,0:0:0:0:
182,192,102999,1,0,0:0:0:0:
329,192,103067,1,0,0:0:0:0:
256,192,103135,1,2,0:0:0:0:
402,192,103135,1,0,0:0:0:0:
109,192,103135,1,8,0:0:0:0:
36,192,103204,1,0,0:0:0:0:
182,192,103272,1,0,0:0:0:0:
329,192,103340,1,0,0:0:0:0:
256,192,103408,1,2,0:0:0:0:
475,192,103408,1,8,0:0:0:0:
36,192,103408,1,0,0:0:0:0:
182,192,103476,1,0,0:0:0:0:
256,192,103545,1,0,0:0:0:0:
329,192,103613,1,0,0:0:0:0:
475,192,103681,1,0,0:0:0:0:
182,192,103681,1,2,0:0:0:0:
109,192,103681,1,8,0:0:0:0:
329,192,103817,1,0,0:0:0:0:
256,192,103885,1,0,0:0:0:0:
402,192,103954,1,0,0:0:0:0:
182,192,103954,1,8,0:0:0:0:
36,192,103954,1,2,0:0:0:0:
256,192,104022,1,0,0:0:0:0:
475,192,104090,1,0,0:0:0:0:
182,192,104158,1,0,0:0:0:0:
329,192,104226,1,8,0:0:0:0:
402,192,104226,1,0,0:0:0:0:
109,192,104226,1,2,0:0:0:0:
475,192,104295,1,0,0:0:0:0:
329,192,104363,1,0,0:0:0:0:
182,192,104431,1,0,0:0:0:0:
256,192,104499,1,8,0:0:0:0:
36,192,104499,1,2,0:0:0:0:
475,192,104499,1,0,0:0:0:0:
329,192,104567,1,0,0:0:0:0:
256,192,104635,1,0,0:0:0:0:
182,192,104704,1,0,0:0:0:0:
36,192,104772,1,2,0:0:0:0:
329,192,104772,1,8,0:0:0:0:
475,192,104772,1,0,0:0:0:0:
182,192,104908,1,0,0:0:0:0:
256,192,104976,1,0,0:0:0:0:
109,192,105045,1,2,0:0:0:0:
475,192,105045,1,8,0:0:0:0:
329,192,105045,1,0,0:0:0:0:
256,192,105113,1,0,0:0:0:0:
36,192,105181,1,0,0:0:0:0:
329,192,105249,1,0,0:0:0:0:
182,192,105317,1,0,0:0:0:0:
402,192,105317,1,8,0:0:0:0:
109,192,105317,1,2,0:0:0:0:
36,192,105385,1,0,0:0:0:0:
182,192,105454,1,0,0:0:0:0:
329,192,105522,1,0,0:0:0:0:
256,192,105590,1,0,0:0:0:0:
36,192,105590,1,2,0:0:0:0:
475,192,105590,1,8,0:0:0:0:
182,192,105658,1,0,0:0:0:0:
256,192,105726,1,0,0:0:0:0:
329,192,105795,1,0,0:0:0:0:
36,192,105863,1,2,0:0:0:0:
182,192,105863,1,0,0:0:0:0:
475,192,105863,1,8,0:0:0:0:
256,192,105999,1,0,0:0:0:0:
329,192,106067,1,2,0:0:0:0:
402,192,106067,1,0,0:0:0:0:
475,192,106067,1,0,0:0:0:0:
36,192,106135,1,0,0:0:0:0:
109,192,106135,1,8,0:0:0:0:
182,192,106135,1,2,0:0:0:0:
256,192,106204,1,0,0:0:0:0:
329,192,106272,1,0,0:0:0:0:
402,192,106340,1,0,0:0:0:0:
36,192,106340,1,2,0:0:0:0:
182,192,106340,1,0,0:0:0:0:
256,192,106408,1,8,0:0:0:0:
329,192,106476,1,0,0:0:0:0:
109,192,106545,1,2,0:0:0:0:
475,192,106545,1,0,0:0:0:0:
402,192,106545,1,0,0:0:0:0:
329,192,106613,1,0,0:0:0:0:
36,192,106681,1,2,0:0:0:0:
182,192,106681,1,0,0:0:0:0:
256,192,106681,1,8,0:0:0:0:
329,192,106749,1,0,0:0:0:0:
36,192,106817,1,2,0:0:0:0:
182,192,106817,1,0,0:0:0:0:
256,192,106817,1,8,0:0:0:0:
329,192,106885,1,0,0:0:0:0:
475,192,106954,1,0,0:0:0:40:crx.wav
256,192,106954,1,8,0:0:0:0:
36,192,106954,1,2,0:0:0:0:
182,192,106954,1,0,0:0:0:0:
109,192,107090,1,0,0:0:0:0:
182,192,107158,1,0,0:0:0:0:
36,192,107226,1,2,0:0:0:0:
475,192,107226,1,0,0:0:0:0:
329,192,107226,1,8,0:0:0:0:
256,192,107295,1,0,0:0:0:0:
182,192,107363,1,0,0:0:0:0:
109,192,107431,1,0,0:0:0:0:
256,192,107499,1,2,0:0:0:0:
475,192,107499,1,0,0:0:0:0:
329,192,107499,1,8,0:0:0:0:
36,192,107567,1,0,0:0:0:0:
182,192,107635,1,0,0:0:0:0:
329,192,107704,1,0,0:0:0:0:
182,192,107772,1,2,0:0:0:0:
109,192,107772,1,8,0:0:0:0:
36,192,107772,1,8,0:0:0:0:
402,192,107840,1,0,0:0:0:0:
329,192,107908,1,0,0:0:0:0:
256,192,107976,1,0,0:0:0:0:
109,192,108045,1,2,0:0:0:0:
182,192,108045,1,8,0:0:0:0:
475,192,108045,1,0,0:0:0:0:
329,192,108181,1,0,0:0:0:0:
256,192,108249,1,0,0:0:0:0:
182,192,108317,1,8,0:0:0:0:
36,192,108317,1,2,0:0:0:0:
402,192,108317,1,0,0:0:0:0:
256,192,108385,1,0,0:0:0:0:
475,192,108454,1,0,0:0:0:0:
182,192,108522,1,0,0:0:0:0:
329,192,108590,1,8,0:0:0:0:
109,192,108590,1,2,0:0:0:0:
402,192,108590,1,0,0:0:0:0:
475,192,108658,1,0,0:0:0:0:
329,192,108726,1,0,0:0:0:0:
182,192,108795,1,0,0:0:0:0:
256,192,108863,1,8,0:0:0:0:
36,192,108863,1,2,0:0:0:0:
475,192,108863,1,0,0:0:0:0:
109,192,108931,1,0,0:0:0:0:
182,192,108999,1,0,0:0:0:0:
256,192,109067,1,0,0:0:0:0:
109,192,109135,1,2,0:0:0:0:
402,192,109135,1,8,0:0:0:0:
475,192,109135,1,0,0:0:0:0:
256,192,109272,1,0,0:0:0:0:
329,192,109340,1,0,0:0:0:0:
182,192,109408,1,8,0:0:0:0:
402,192,109408,1,0,0:0:0:0:
36,192,109408,1,2,0:0:0:0:
256,192,109476,1,0,0:0:0:0:
329,192,109545,1,0,0:0:0:0:
182,192,109613,1,0,0:0:0:0:
256,192,109681,1,8,0:0:0:0:
402,192,109681,1,0,0:0:0:0:
109,192,109681,1,2,0:0:0:0:
475,192,109749,1,0,0:0:0:0:
36,192,109817,1,0,0:0:0:0:
182,192,109885,1,0,0:0:0:0:
475,192,109954,1,8,0:0:0:0:
329,192,109954,1,2,0:0:0:0:
402,192,109954,1,8,0:0:0:0:
109,192,110022,1,0,0:0:0:0:
182,192,110090,1,0,0:0:0:0:
256,192,110158,1,0,0:0:0:0:
36,192,110226,1,2,0:0:0:0:
329,192,110226,1,8,0:0:0:0:
402,192,110226,1,0,0:0:0:0:
182,192,110363,1,0,0:0:0:0:
256,192,110431,1,0,0:0:0:0:
109,192,110499,1,2,0:0:0:0:
475,192,110499,1,0,0:0:0:0:
329,192,110499,1,8,0:0:0:0:
256,192,110567,1,0,0:0:0:0:
182,192,110635,1,0,0:0:0:0:
329,192,110704,1,0,0:0:0:0:
36,192,110772,1,2,0:0:0:0:
475,192,110772,1,8,0:0:0:0:
256,192,110772,1,0,0:0:0:0:
182,192,110840,1,0,0:0:0:0:
329,192,110908,1,0,0:0:0:0:
182,192,110976,1,0,0:0:0:0:
256,192,111045,1,0,0:0:0:0:
109,192,111045,1,2,0:0:0:0:
36,192,111045,1,8,0:0:0:0:
475,192,111045,1,8,0:0:0:0:
329,192,111079,1,0,0:0:0:0:
402,192,111113,1,0,0:0:0:0:
475,192,111147,1,0,0:0:0:0:
256,192,111181,128,0,111317:0:0:0:0:
182,192,111215,1,0,0:0:0:0:
109,192,111249,1,0,0:0:0:0:
36,192,111283,1,0,0:0:0:0:
402,192,111317,1,2,0:0:0:0:
329,192,111317,1,0,0:0:0:0:
475,192,111317,1,8,0:0:0:0:
182,192,111454,1,0,0:0:0:0:
256,192,111522,1,0,0:0:0:0:
36,192,111590,1,2,0:0:0:0:
109,192,111590,1,8,0:0:0:0:
329,192,111590,1,0,0:0:0:0:
256,192,111658,1,0,0:0:0:0:
475,192,111726,1,0,0:0:0:0:
329,192,111795,1,0,0:0:0:0:
182,192,111863,1,8,0:0:0:0:
402,192,111863,1,0,0:0:0:0:
109,192,111863,1,2,0:0:0:0:
475,192,111931,1,0,0:0:0:0:
256,192,111999,1,0,0:0:0:0:
329,192,112067,1,0,0:0:0:0:
182,192,112135,1,2,0:0:0:0:
109,192,112135,1,8,0:0:0:0:
36,192,112135,1,8,0:0:0:0:
402,192,112204,1,0,0:0:0:0:
329,192,112272,1,0,0:0:0:0:
256,192,112340,1,0,0:0:0:0:
475,192,112408,1,0,0:0:0:0:
109,192,112408,1,2,0:0:0:0:
402,192,112408,1,8,0:0:0:0:
256,192,112545,1,0,0:0:0:0:
182,192,112613,1,0,0:0:0:0:
329,192,112681,1,0,0:0:0:0:
36,192,112681,1,2,0:0:0:0:
109,192,112681,1,8,0:0:0:0:
256,192,112749,1,0,0:0:0:0:
182,192,112817,1,0,0:0:0:0:
329,192,112885,1,0,0:0:0:0:
256,192,112954,1,8,0:0:0:0:
402,192,112954,1,0,0:0:0:0:
109,192,112954,1,2,0:0:0:0:
475,192,113022,1,0,0:0:0:0:
36,192,113090,1,0,0:0:0:0:
329,192,113158,1,0,0:0:0:0:
475,192,113226,1,8,0:0:0:0:
256,192,113226,1,0,0:0:0:0:
182,192,113226,1,2,0:0:0:0:
402,192,113295,1,0,0:0:0:0:
329,192,113363,1,0,0:0:0:0:
256,192,113431,1,0,0:0:0:0:
182,192,113499,1,0,0:0:0:0:
402,192,113499,1,8,0:0:0:0:
36,192,113499,1,2,0:0:0:0:
329,192,113635,1,0,0:0:0:0:
256,192,113704,1,0,0:0:0:0:
475,192,113772,1,0,0:0:0:0:
402,192,113772,1,8,0:0:0:0:
182,192,113772,1,2,0:0:0:0:
256,192,113840,1,0,0:0:0:0:
36,192,113908,1,0,0:0:0:0:
182,192,113976,1,0,0:0:0:0:
329,192,114045,1,8,0:0:0:0:
402,192,114045,1,0,0:0:0:0:
109,192,114045,1,2,0:0:0:0:
36,192,114113,1,0,0:0:0:0:
182,192,114181,1,0,0:0:0:0:
109,192,114249,1,0,0:0:0:0:
402,192,114317,1,8,0:0:0:0:
329,192,114317,1,8,0:0:0:0:
475,192,114317,1,2,0:0:0:0:
109,192,114385,1,0,0:0:0:0:
182,192,114454,1,0,0:0:0:0:
256,192,114522,1,0,0:0:0:0:
402,192,114590,5,2,0:0:0:0:
475,192,114590,1,0,0:0:0:0:
109,192,114658,1,2,0:0:0:0:
36,192,114658,1,0,0:0:0:0:
402,192,114726,1,2,0:0:0:0:
475,192,114726,1,0,0:0:0:0:
109,192,114795,1,2,0:0:0:0:
36,192,114795,1,0,0:0:0:0:
402,192,114863,1,2,0:0:0:0:
475,192,114863,1,0,0:0:0:0:
109,192,114931,1,2,0:0:0:0:
36,192,114931,1,0,0:0:0:0:
329,192,114999,1,2,0:0:0:0:
402,192,114999,1,0,0:0:0:0:
475,192,114999,1,0,0:0:0:0:
182,192,115067,1,2,0:0:0:0:
109,192,115067,1,0,0:0:0:0:
36,192,115067,1,0,0:0:0:0:
329,192,115135,1,2,0:0:0:0:
402,192,115135,1,0,0:0:0:0:
475,192,115135,1,0,0:0:0:0:
182,192,115204,1,2,0:0:0:0:
109,192,115204,1,0,0:0:0:0:
36,192,115204,1,0,0:0:0:0:
329,192,115272,1,2,0:0:0:0:
402,192,115272,1,0,0:0:0:0:
475,192,115272,1,0,0:0:0:0:
182,192,115340,1,2,0:0:0:0:
109,192,115340,1,0,0:0:0:0:
36,192,115340,1,0,0:0:0:0:
329,192,115408,1,2,0:0:0:0:
402,192,115408,1,0,0:0:0:0:
475,192,115408,1,0,0:0:0:0:
256,192,115408,1,0,0:0:0:40:ht.wav
182,192,115476,1,2,0:0:0:0:
109,192,115476,1,0,0:0:0:0:
36,192,115476,1,0,0:0:0:0:
329,192,115545,1,2,0:0:0:0:
402,192,115545,1,0,0:0:0:0:
475,192,115545,1,0,0:0:0:0:
182,192,115613,1,2,0:0:0:0:
109,192,115613,1,0,0:0:0:0:
36,192,115613,1,0,0:0:0:0:
329,192,115681,1,2,0:0:0:0:
402,192,115681,1,2,0:0:0:0:
256,192,115681,1,0,0:0:0:40:crx.wav
475,192,115681,1,0,0:0:0:0:
109,192,115817,1,0,0:0:0:0:
36,192,115817,1,0,0:0:0:0:
182,192,115885,1,0,0:0:0:0:
36,192,115954,1,2,0:0:0:0:
402,192,115954,1,2,0:0:0:0:
329,192,115954,1,0,0:0:0:0:
256,192,115954,1,0,0:0:0:0:
182,192,116022,1,0,0:0:0:0:
329,192,116090,1,0,0:0:0:0:
256,192,116158,1,0,0:0:0:0:
402,192,116226,1,0,0:0:0:0:
36,192,116226,1,2,0:0:0:0:
109,192,116226,1,2,0:0:0:0:
329,192,116226,1,0,0:0:0:0:
475,192,116295,1,0,0:0:0:0:
256,192,116363,1,0,0:0:0:0:
109,192,116363,1,0,0:0:0:0:
182,192,116431,1,0,0:0:0:0:
402,192,116499,1,8,0:0:0:0:
475,192,116499,1,8,0:0:0:0:
36,192,116499,1,0,0:0:0:0:
109,192,116567,1,0,0:0:0:0:
329,192,116567,1,0,0:0:0:0:
182,192,116635,1,0,0:0:0:0:
256,192,116704,1,0,0:0:0:0:
36,192,116772,1,0,0:0:0:0:
329,192,116772,1,2,0:0:0:0:
475,192,116772,1,2,0:0:0:0:
182,192,116772,1,0,0:0:0:0:
109,192,116840,1,0,0:0:0:0:
402,192,116840,1,0,0:0:0:0:
256,192,116908,1,0,0:0:0:0:
402,192,116976,1,0,0:0:0:0:
475,192,117045,1,2,0:0:0:0:
329,192,117045,1,2,0:0:0:0:
109,192,117045,1,0,0:0:0:0:
182,192,117045,1,0,0:0:0:0:
256,192,117113,1,0,0:0:0:0:
36,192,117181,1,0,0:0:0:0:
329,192,117249,1,0,0:0:0:0:
256,192,117249,1,0,0:0:0:0:
182,192,117317,1,0,0:0:0:0:
402,192,117317,1,2,0:0:0:0:
109,192,117317,1,0,0:0:0:0:
475,192,117317,1,2,0:0:0:0:
36,192,117385,1,0,0:0:0:0:
182,192,117454,1,0,0:0:0:0:
256,192,117454,1,0,0:0:0:0:
329,192,117522,1,0,0:0:0:0:
256,192,117590,1,0,0:0:0:0:
36,192,117590,1,0,0:0:0:0:
475,192,117590,1,0,0:0:0:0:
402,192,117658,1,0,0:0:0:0:
109,192,117658,1,0,0:0:0:0:
329,192,117726,1,0,0:0:0:0:
182,192,117726,1,0,0:0:0:0:
256,192,117795,1,0,0:0:0:0:
109,192,117795,1,0,0:0:0:0:
36,192,117863,1,2,0:0:0:0:
182,192,117863,1,2,0:0:0:0:
329,192,117863,1,0,0:0:0:0:
475,192,117863,1,0,0:0:0:40:ht.wav
402,192,117999,1,0,0:0:0:0:
109,192,117999,1,0,0:0:0:0:
182,192,118067,1,0,0:0:0:0:
402,192,118135,1,0,0:0:0:0:
109,192,118135,1,2,0:0:0:0:
36,192,118135,1,2,0:0:0:0:
329,192,118135,1,0,0:0:0:0:
256,192,118204,1,0,0:0:0:0:
475,192,118272,1,0,0:0:0:0:
36,192,118340,1,0,0:0:0:0:
109,192,118340,1,0,0:0:0:0:
329,192,118408,1,2,0:0:0:0:
402,192,118408,1,0,0:0:0:0:
182,192,118408,1,2,0:0:0:0:
475,192,118476,1,0,0:0:0:0:
329,192,118545,1,0,0:0:0:0:
109,192,118545,1,0,0:0:0:0:
182,192,118613,1,0,0:0:0:0:
256,192,118681,1,0,0:0:0:0:
36,192,118681,1,8,0:0:0:0:
475,192,118681,1,8,0:0:0:0:
109,192,118749,1,0,0:0:0:0:
402,192,118749,1,0,0:0:0:0:
182,192,118817,1,0,0:0:0:0:
256,192,118885,1,0,0:0:0:0:
402,192,118885,1,0,0:0:0:0:
36,192,118954,1,0,0:0:0:0:
329,192,118954,1,2,0:0:0:0:
475,192,118954,1,2,0:0:0:0:
109,192,119022,1,0,0:0:0:0:
182,192,119022,1,0,0:0:0:0:
256,192,119090,1,0,0:0:0:0:
329,192,119090,1,0,0:0:0:0:
182,192,119158,1,0,0:0:0:0:
475,192,119226,1,2,0:0:0:0:
402,192,119226,1,2,0:0:0:0:
109,192,119226,1,0,0:0:0:0:
36,192,119226,1,0,0:0:0:0:
329,192,119295,1,0,0:0:0:0:
256,192,119363,1,0,0:0:0:0:
36,192,119431,1,0,0:0:0:0:
475,192,119431,1,0,0:0:0:0:
182,192,119431,1,0,0:0:0:0:
329,192,119499,1,0,0:0:0:0:
402,192,119499,1,2,0:0:0:0:
109,192,119499,1,2,0:0:0:0:
36,192,119567,1,0,0:0:0:0:
402,192,119635,1,0,0:0:0:0:
109,192,119635,1,0,0:0:0:0:
475,192,119635,1,0,0:0:0:0:
256,192,119635,1,0,0:0:0:0:
329,192,119704,1,0,0:0:0:0:
182,192,119704,1,0,0:0:0:0:
256,192,119772,1,0,0:0:0:0:
329,192,119806,1,0,0:0:0:0:
402,192,119840,1,0,0:0:0:0:
475,192,119874,1,0,0:0:0:0:
36,192,119908,1,0,0:0:0:0:
109,192,119942,1,0,0:0:0:0:
256,192,119976,1,0,0:0:0:0:
182,192,119976,1,2,0:0:0:0:
329,192,119976,1,2,0:0:0:0:
402,192,120010,1,0,0:0:0:0:
36,192,120045,1,2,0:0:0:0:
109,192,120045,1,2,0:0:0:0:
475,192,120045,1,0,0:0:0:0:
329,192,120113,1,0,0:0:0:0:
182,192,120113,1,0,0:0:0:0:
256,192,120181,1,0,0:0:0:0:
402,192,120249,1,0,0:0:0:0:
36,192,120317,1,0,0:0:0:0:
329,192,120317,1,2,0:0:0:0:
109,192,120317,1,0,0:0:0:0:
475,192,120317,1,2,0:0:0:0:
256,192,120385,1,0,0:0:0:0:
182,192,120454,1,0,0:0:0:0:
329,192,120522,1,0,0:0:0:0:
475,192,120522,1,0,0:0:0:0:
256,192,120590,1,2,0:0:0:0:
109,192,120590,1,2,0:0:0:0:
402,192,120590,1,0,0:0:0:0:
36,192,120658,1,0,0:0:0:0:
182,192,120726,1,0,0:0:0:0:
256,192,120726,1,0,0:0:0:0:
329,192,120795,1,0,0:0:0:0:
36,192,120863,1,8,0:0:0:0:
109,192,120863,1,8,0:0:0:0:
475,192,120863,1,0,0:0:0:0:
402,192,120931,1,0,0:0:0:0:
329,192,120999,1,0,0:0:0:0:
182,192,120999,1,0,0:0:0:0:
256,192,121067,1,0,0:0:0:0:
402,192,121067,1,0,0:0:0:0:
109,192,121135,1,2,0:0:0:0:
475,192,121135,1,0,0:0:0:0:
36,192,121135,1,2,0:0:0:0:
182,192,121204,1,0,0:0:0:0:
256,192,121204,1,0,0:0:0:0:
329,192,121272,1,0,0:0:0:0:
402,192,121272,1,0,0:0:0:0:
475,192,121340,1,0,0:0:0:0:
36,192,121408,1,0,0:0:0:0:
182,192,121408,1,0,0:0:0:0:
402,192,121408,1,2,0:0:0:0:
109,192,121408,1,2,0:0:0:0:
256,192,121476,1,0,0:0:0:0:
475,192,121545,1,0,0:0:0:0:
182,192,121613,1,0,0:0:0:0:
109,192,121613,1,0,0:0:0:0:
329,192,121681,1,2,0:0:0:0:
402,192,121681,1,2,0:0:0:0:
36,192,121681,1,0,0:0:0:0:
475,192,121749,1,0,0:0:0:0:
329,192,121817,1,0,0:0:0:0:
109,192,121817,1,0,0:0:0:0:
182,192,121885,1,0,0:0:0:0:
256,192,121954,1,0,0:0:0:0:
475,192,121954,1,0,0:0:0:0:
36,192,121954,1,0,0:0:0:0:
109,192,122022,1,0,0:0:0:0:
329,192,122022,1,0,0:0:0:0:
182,192,122090,1,0,0:0:0:0:
256,192,122158,1,0,0:0:0:0:
475,192,122226,1,0,0:0:0:40:ht.wav
329,192,122226,1,0,0:0:0:0:
36,192,122226,1,2,0:0:0:0:
109,192,122226,1,2,0:0:0:0:
182,192,122363,1,0,0:0:0:0:
256,192,122431,1,0,0:0:0:0:
329,192,122499,1,0,0:0:0:0:
475,192,122499,1,2,0:0:0:0:
109,192,122499,1,0,0:0:0:0:
402,192,122499,1,2,0:0:0:0:
182,192,122567,1,0,0:0:0:0:
36,192,122635,1,0,0:0:0:0:
329,192,122704,1,0,0:0:0:0:
256,192,122704,1,0,0:0:0:0:
182,192,122772,1,2,0:0:0:0:
109,192,122772,1,2,0:0:0:0:
402,192,122772,1,0,0:0:0:0:
36,192,122840,1,0,0:0:0:0:
182,192,122908,1,0,0:0:0:0:
475,192,122908,1,0,0:0:0:0:
329,192,122976,1,0,0:0:0:0:
256,192,123045,1,0,0:0:0:0:
475,192,123045,1,8,0:0:0:0:
36,192,123045,1,8,0:0:0:0:
402,192,123113,1,0,0:0:0:0:
109,192,123113,1,0,0:0:0:0:
329,192,123181,1,0,0:0:0:0:
256,192,123249,1,0,0:0:0:0:
182,192,123249,1,0,0:0:0:0:
475,192,123317,1,0,0:0:0:0:
36,192,123317,1,2,0:0:0:0:
109,192,123317,1,2,0:0:0:0:
329,192,123385,1,0,0:0:0:0:
182,192,123385,1,0,0:0:0:0:
256,192,123454,1,0,0:0:0:0:
329,192,123522,1,0,0:0:0:0:
36,192,123590,1,0,0:0:0:0:
402,192,123590,1,2,0:0:0:0:
475,192,123590,1,2,0:0:0:0:
182,192,123590,1,0,0:0:0:0:
256,192,123658,1,0,0:0:0:0:
109,192,123726,1,0,0:0:0:0:
36,192,123795,1,0,0:0:0:0:
329,192,123795,1,0,0:0:0:0:
475,192,123795,1,0,0:0:0:0:
182,192,123863,1,2,0:0:0:0:
256,192,123863,1,2,0:0:0:0:
402,192,123863,1,0,0:0:0:0:
109,192,123931,1,0,0:0:0:0:
402,192,123999,1,0,0:0:0:0:
475,192,123999,1,0,0:0:0:0:
256,192,123999,1,0,0:0:0:0:
182,192,123999,1,0,0:0:0:0:
329,192,124067,1,0,0:0:0:0:
36,192,124135,1,2,0:0:0:0:
475,192,124135,1,0,0:0:0:0:
109,192,124135,1,2,0:0:0:0:
402,192,124170,1,0,0:0:0:0:
329,192,124204,1,0,0:0:0:0:
256,192,124238,1,0,0:0:0:0:
182,192,124272,1,0,0:0:0:0:
475,192,124306,1,0,0:0:0:0:
402,192,124340,1,0,0:0:0:0:
329,192,124374,1,0,0:0:0:0:
475,192,124408,1,0,0:0:0:0:
256,192,124408,1,0,0:0:0:40:crx.wav
109,192,124408,1,2,0:0:0:0:
36,192,124408,1,2,0:0:0:0:
182,192,124408,1,8,0:0:0:0:
402,192,124476,1,0,0:0:0:0:
329,192,124545,1,0,0:0:0:0:
182,192,124613,1,0,0:0:0:0:
36,192,124681,1,2,0:0:0:0:
402,192,124681,1,8,0:0:0:0:
475,192,124681,1,0,0:0:0:0:
329,192,124681,1,2,0:0:0:0:
256,192,124749,1,0,0:0:0:0:
182,192,124817,1,0,0:0:0:0:
109,192,124885,1,0,0:0:0:0:
329,192,124954,1,2,0:0:0:0:
475,192,124954,1,0,0:0:0:0:
256,192,124954,1,8,0:0:0:0:
182,192,124954,1,2,0:0:0:0:
36,192,125022,1,0,0:0:0:0:
402,192,125090,1,0,0:0:0:0:
182,192,125158,1,0,0:0:0:0:
329,192,125226,1,0,0:0:0:0:
475,192,125226,1,8,0:0:0:0:
36,192,125226,1,0,0:0:0:0:
109,192,125226,1,8,0:0:0:0:
256,192,125295,1,0,0:0:0:0:
329,192,125363,1,0,0:0:0:0:
402,192,125431,1,0,0:0:0:0:
475,192,125499,1,0,0:0:0:0:
182,192,125499,1,2,0:0:0:0:
256,192,125499,1,8,0:0:0:0:
36,192,125499,1,2,0:0:0:0:
329,192,125567,1,0,0:0:0:0:
109,192,125635,1,0,0:0:0:0:
329,192,125704,1,0,0:0:0:0:
36,192,125772,1,2,0:0:0:0:
182,192,125772,1,2,0:0:0:0:
402,192,125772,1,8,0:0:0:0:
475,192,125772,1,0,0:0:0:0:
256,192,125840,1,0,0:0:0:0:
329,192,125908,1,0,0:0:0:0:
182,192,125976,1,0,0:0:0:0:
402,192,126045,1,8,0:0:0:0:
109,192,126045,1,2,0:0:0:0:
36,192,126045,1,2,0:0:0:0:
475,192,126045,1,0,0:0:0:0:
329,192,126113,1,0,0:0:0:0:
256,192,126181,1,0,0:0:0:0:
182,192,126249,1,0,0:0:0:0:
329,192,126317,1,0,0:0:0:0:
402,192,126317,1,0,0:0:0:0:
475,192,126317,1,8,0:0:0:0:
36,192,126317,1,0,0:0:0:0:
109,192,126385,1,0,0:0:0:0:
182,192,126454,1,0,0:0:0:0:
329,192,126454,1,0,0:0:0:0:
402,192,126454,1,0,0:0:0:0:
475,192,126454,1,8,0:0:0:0:
256,192,126522,1,0,0:0:0:0:
475,192,126590,1,2,0:0:0:0:
402,192,126590,1,2,0:0:0:0:
109,192,126590,1,8,0:0:0:0:
329,192,126590,1,0,0:0:0:40:ht.wav
182,192,126658,1,0,0:0:0:0:
256,192,126726,1,0,0:0:0:0:
329,192,126795,1,0,0:0:0:0:
36,192,126863,1,2,0:0:0:0:
402,192,126863,1,8,0:0:0:0:
182,192,126863,1,2,0:0:0:0:
475,192,126863,1,0,0:0:0:0:
256,192,126931,1,0,0:0:0:0:
329,192,126999,1,0,0:0:0:0:
182,192,127067,1,0,0:0:0:0:
256,192,127135,1,0,0:0:0:0:
36,192,127135,1,2,0:0:0:0:
109,192,127135,1,2,0:0:0:0:
402,192,127135,1,8,0:0:0:0:
475,192,127204,1,0,0:0:0:0:
182,192,127272,1,0,0:0:0:0:
256,192,127340,1,0,0:0:0:0:
329,192,127408,1,8,0:0:0:0:
109,192,127408,1,0,0:0:0:0:
36,192,127408,1,0,0:0:0:0:
402,192,127408,1,8,0:0:0:0:
182,192,127476,1,0,0:0:0:0:
109,192,127545,1,0,0:0:0:0:
256,192,127613,1,0,0:0:0:0:
402,192,127681,1,2,0:0:0:0:
329,192,127681,1,2,0:0:0:0:
36,192,127681,1,0,0:0:0:0:
475,192,127681,1,8,0:0:0:0:
109,192,127749,1,0,0:0:0:0:
182,192,127817,1,0,0:0:0:0:
256,192,127885,1,0,0:0:0:0:
329,192,127954,1,8,0:0:0:0:
475,192,127954,1,0,0:0:0:0:
109,192,127954,1,2,0:0:0:0:
36,192,127954,1,2,0:0:0:0:
182,192,128022,1,0,0:0:0:0:
402,192,128090,1,0,0:0:0:0:
329,192,128158,1,0,0:0:0:0:
182,192,128226,1,8,0:0:0:0:
36,192,128226,1,2,0:0:0:0:
475,192,128226,1,0,0:0:0:0:
109,192,128226,1,2,0:0:0:0:
402,192,128295,1,0,0:0:0:0:
182,192,128363,1,0,0:0:0:0:
329,192,128363,1,0,0:0:0:0:
36,192,128363,1,8,0:0:0:0:
109,192,128363,1,0,0:0:0:0:
256,192,128431,1,0,0:0:0:0:
109,192,128499,1,0,0:0:0:0:
182,192,128499,1,0,0:0:0:0:
329,192,128499,1,0,0:0:0:0:
36,192,128499,1,8,0:0:0:0:
256,192,128567,1,0,0:0:0:0:
109,192,128635,1,0,0:0:0:0:
36,192,128635,1,0,0:0:0:0:
329,192,128670,1,0,0:0:0:0:
182,192,128670,1,0,0:0:0:0:
402,192,128704,1,0,0:0:0:0:
475,192,128704,1,0,0:0:0:0:
109,192,128738,1,0,0:0:0:0:
36,192,128738,1,0,0:0:0:0:
329,192,128772,1,2,0:0:0:0:
256,192,128772,1,0,0:0:0:40:ht.wav
182,192,128772,1,10,0:0:0:0:
402,192,128840,1,0,0:0:0:0:
475,192,128908,1,0,0:0:0:0:
256,192,128976,1,0,0:0:0:0:
329,192,129045,1,8,0:0:0:0:
109,192,129045,1,2,0:0:0:0:
36,192,129045,1,2,0:0:0:0:
402,192,129045,1,0,0:0:0:0:
182,192,129113,1,0,0:0:0:0:
475,192,129181,1,0,0:0:0:0:
329,192,129249,1,0,0:0:0:0:
182,192,129317,1,8,0:0:0:0:
109,192,129317,1,2,0:0:0:0:
402,192,129317,1,0,0:0:0:0:
36,192,129317,1,2,0:0:0:0:
256,192,129385,1,0,0:0:0:0:
329,192,129454,1,0,0:0:0:0:
475,192,129522,1,0,0:0:0:0:
182,192,129590,1,8,0:0:0:0:
109,192,129590,1,8,0:0:0:0:
329,192,129590,1,0,0:0:0:0:
475,192,129658,1,0,0:0:0:0:
329,192,129726,1,0,0:0:0:0:
256,192,129795,1,0,0:0:0:0:
402,192,129863,1,2,0:0:0:0:
109,192,129863,1,8,0:0:0:0:
475,192,129863,1,2,0:0:0:0:
36,192,129863,1,0,0:0:0:0:
182,192,129931,1,0,0:0:0:0:
256,192,129999,1,0,0:0:0:0:
329,192,130067,1,0,0:0:0:0:
109,192,130135,1,2,0:0:0:0:
36,192,130135,1,2,0:0:0:0:
475,192,130135,1,0,0:0:0:0:
402,192,130135,1,8,0:0:0:0:
182,192,130204,1,0,0:0:0:0:
329,192,130272,1,0,0:0:0:0:
475,192,130340,1,0,0:0:0:0:
402,192,130408,1,0,0:0:0:0:
256,192,130408,1,2,0:0:0:0:
109,192,130408,1,2,0:0:0:0:
182,192,130408,1,8,0:0:0:0:
329,192,130476,1,0,0:0:0:0:
256,192,130545,1,0,0:0:0:0:
182,192,130613,1,0,0:0:0:0:
475,192,130681,1,0,0:0:0:0:
36,192,130681,1,8,0:0:0:0:
402,192,130681,1,0,0:0:0:0:
109,192,130681,1,0,0:0:0:0:
329,192,130749,1,0,0:0:0:0:
402,192,130817,1,0,0:0:0:0:
36,192,130817,1,8,0:0:0:0:
109,192,130817,1,0,0:0:0:0:
475,192,130817,1,0,0:0:0:0:
329,192,130885,1,0,0:0:0:0:
36,192,130954,1,2,0:0:0:0:
256,192,130954,1,0,0:0:0:0:
182,192,130954,1,8,0:0:0:0:
109,192,130954,1,2,0:0:0:0:
475,192,131022,1,0,0:0:0:0:
109,192,131090,1,0,0:0:0:0:
329,192,131158,1,0,0:0:0:0:
182,192,131226,1,2,0:0:0:0:
402,192,131226,1,8,0:0:0:0:
475,192,131226,1,0,0:0:0:0:
36,192,131226,1,2,0:0:0:0:
256,192,131295,1,0,0:0:0:0:
109,192,131363,1,0,0:0:0:0:
182,192,131431,1,0,0:0:0:0:
329,192,131499,1,2,0:0:0:0:
402,192,131499,1,8,0:0:0:0:
475,192,131499,1,0,0:0:0:0:
36,192,131499,1,2,0:0:0:0:
109,192,131567,1,0,0:0:0:0:
182,192,131635,1,0,0:0:0:0:
256,192,131704,1,0,0:0:0:0:
36,192,131772,1,8,0:0:0:0:
182,192,131772,1,0,0:0:0:0:
329,192,131772,1,0,0:0:0:0:
475,192,131772,1,8,0:0:0:0:
402,192,131840,1,0,0:0:0:0:
109,192,131908,1,0,0:0:0:0:
182,192,131976,1,0,0:0:0:0:
36,192,132045,1,0,0:0:0:0:
256,192,132045,1,8,0:0:0:0:
475,192,132045,1,2,0:0:0:0:
329,192,132045,1,2,0:0:0:0:
182,192,132113,1,0,0:0:0:0:
402,192,132181,1,0,0:0:0:0:
109,192,132249,1,2,0:0:0:0:
256,192,132249,1,2,0:0:0:0:
329,192,132249,1,0,0:0:0:0:
475,192,132317,1,2,0:0:0:0:
182,192,132317,1,8,0:0:0:0:
36,192,132317,1,0,0:0:0:0:
402,192,132317,1,2,0:0:0:0:
256,192,132385,1,0,0:0:0:0:
182,192,132454,1,0,0:0:0:0:
402,192,132522,1,2,0:0:0:0:
329,192,132522,1,2,0:0:0:0:
109,192,132522,1,0,0:0:0:0:
36,192,132590,1,0,0:0:0:0:
256,192,132590,1,8,0:0:0:0:
475,192,132590,1,0,0:0:0:0:
329,192,132658,1,0,0:0:0:0:
402,192,132726,1,0,0:0:0:0:
109,192,132726,1,2,0:0:0:0:
182,192,132726,1,2,0:0:0:0:
475,192,132795,1,0,0:0:0:0:
329,192,132863,1,2,0:0:0:0:
256,192,132863,1,8,0:0:0:0:
36,192,132863,1,2,0:0:0:0:
182,192,132863,1,0,0:0:0:0:
109,192,132931,1,0,0:0:0:0:
256,192,132999,1,0,0:0:0:0:
182,192,132999,1,2,0:0:0:0:
329,192,132999,1,2,0:0:0:0:
402,192,133067,1,0,0:0:0:0:
329,192,133135,1,0,0:0:0:0:
475,192,133135,1,8,0:0:0:0:
256,192,133135,1,0,0:0:0:40:crx.wav
36,192,133135,1,2,0:0:0:0:
182,192,133135,1,0,0:0:0:0:
109,192,133204,1,0,0:0:0:0:
402,192,133272,1,0,0:0:0:0:
182,192,133272,1,0,0:0:0:0:
329,192,133340,1,0,0:0:0:0:
475,188,133408,1,8,0:0:0:0:
182,188,133408,1,0,0:0:0:0:
36,188,133408,1,2,0:0:0:0:
402,188,133408,1,0,0:0:0:0:
256,188,133476,1,0,0:0:0:0:
109,188,133545,1,0,0:0:0:0:
402,188,133613,1,0,0:0:0:0:
475,192,133613,1,0,0:0:0:0:
182,188,133681,1,0,0:0:0:0:
36,188,133681,1,2,0:0:0:0:
256,188,133681,1,0,0:0:0:0:
329,188,133681,1,8,0:0:0:0:
475,188,133749,1,0,0:0:0:0:
109,188,133817,1,0,0:0:0:0:
256,192,133817,1,0,0:0:0:0:
329,188,133885,1,0,0:0:0:0:
109,188,133954,1,0,0:0:0:0:
36,188,133954,1,2,0:0:0:0:
475,188,133954,1,0,0:0:0:0:
402,188,133954,1,8,0:0:0:0:
182,188,134022,1,0,0:0:0:0:
329,188,134090,1,0,0:0:0:0:
402,188,134158,1,0,0:0:0:0:
36,188,134226,1,2,0:0:0:0:
256,188,134226,1,0,0:0:0:0:
109,188,134226,1,0,0:0:0:0:
475,188,134226,1,8,0:0:0:0:
182,188,134295,1,0,0:0:0:0:
329,192,134295,1,0,0:0:0:0:
256,188,134363,1,0,0:0:0:0:
402,192,134363,1,0,0:0:0:0:
329,188,134431,1,0,0:0:0:0:
475,188,134499,1,8,0:0:0:0:
402,188,134499,1,0,0:0:0:0:
109,188,134499,1,0,0:0:0:0:
36,188,134499,1,2,0:0:0:0:
256,188,134567,1,0,0:0:0:0:
182,188,134635,1,0,0:0:0:0:
329,188,134704,1,0,0:0:0:0:
256,192,134704,1,0,0:0:0:0:
109,188,134772,1,0,0:0:0:0:
402,188,134772,1,0,0:0:0:0:
475,188,134772,1,8,0:0:0:0:
36,188,134772,1,2,0:0:0:0:
182,188,134840,1,0,0:0:0:0:
256,188,134908,1,0,0:0:0:0:
402,192,134908,1,0,0:0:0:0:
329,188,134976,1,0,0:0:0:0:
182,188,135045,1,0,0:0:0:0:
109,188,135045,1,0,0:0:0:0:
36,188,135045,1,2,0:0:0:0:
475,188,135045,1,8,0:0:0:0:
402,188,135113,1,0,0:0:0:0:
329,188,135181,1,8,0:0:0:0:
182,188,135181,1,0,0:0:0:0:
109,188,135181,1,0,0:0:0:0:
36,188,135181,1,0,0:0:0:0:
256,188,135249,1,0,0:0:0:0:
36,188,135317,1,2,0:0:0:0:
109,188,135317,1,0,0:0:0:0:
402,188,135317,1,0,0:0:0:0:
182,188,135317,1,8,0:0:0:0:
329,188,135385,1,0,0:0:0:0:
256,188,135454,1,0,0:0:0:0:
475,192,135454,1,0,0:0:0:0:
182,188,135522,1,0,0:0:0:0:
402,188,135590,1,8,0:0:0:0:
109,188,135590,1,0,0:0:0:0:
329,188,135590,1,0,0:0:0:0:
36,188,135590,1,2,0:0:0:0:
256,188,135658,1,0,0:0:0:0:
182,188,135726,1,0,0:0:0:0:
329,188,135795,1,0,0:0:0:0:
109,192,135795,1,0,0:0:0:0:
256,188,135863,1,0,0:0:0:0:
475,188,135863,1,8,0:0:0:0:
402,188,135863,1,0,0:0:0:0:
36,192,135863,1,2,0:0:0:0:
182,192,135931,1,0,0:0:0:0:
36,192,135999,1,0,0:0:0:0:
109,192,135999,1,0,0:0:0:0:
256,188,136067,1,0,0:0:0:0:
182,188,136135,1,0,0:0:0:0:
402,188,136135,1,0,0:0:0:0:
475,188,136135,1,8,0:0:0:0:
109,188,136135,1,2,0:0:0:0:
329,188,136204,1,0,0:0:0:0:
402,188,136272,1,0,0:0:0:0:
256,188,136340,1,0,0:0:0:0:
329,192,136340,1,0,0:0:0:0:
109,188,136408,1,0,0:0:0:0:
182,188,136408,1,0,0:0:0:0:
475,188,136408,1,8,0:0:0:0:
36,188,136408,1,2,0:0:0:0:
402,188,136476,1,0,0:0:0:0:
329,188,136545,1,0,0:0:0:0:
109,192,136545,1,0,0:0:0:0:
256,188,136613,1,0,0:0:0:0:
182,188,136681,1,0,0:0:0:0:
36,188,136681,1,2,0:0:0:0:
402,188,136681,1,0,0:0:0:0:
475,188,136681,1,8,0:0:0:0:
329,188,136749,1,0,0:0:0:0:
256,188,136817,1,0,0:0:0:0:
109,192,136885,1,0,0:0:0:0:
182,192,136885,1,0,0:0:0:0:
329,188,136954,1,0,0:0:0:0:
475,188,136954,1,2,0:0:0:0:
36,188,136954,1,8,0:0:0:0:
402,188,136954,1,0,0:0:0:0:
109,188,137022,1,0,0:0:0:0:
329,188,137090,1,0,0:0:0:0:
182,188,137090,1,8,0:0:0:0:
475,188,137090,1,0,0:0:0:0:
402,188,137090,1,0,0:0:0:0:
256,188,137158,1,0,0:0:0:0:
402,188,137226,1,0,0:0:0:0:
329,188,137226,1,8,0:0:0:0:
182,188,137226,1,0,0:0:0:0:
475,188,137226,1,2,0:0:0:0:
256,188,137295,1,0,0:0:0:0:
36,188,137363,1,0,0:0:0:0:
475,188,137363,1,0,0:0:0:0:
109,188,137397,1,0,0:0:0:0:
402,188,137397,1,0,0:0:0:0:
182,188,137431,1,0,0:0:0:0:
329,188,137431,1,0,0:0:0:0:
256,192,137465,1,0,0:0:0:0:
109,188,137499,1,0,0:0:0:0:
36,188,137499,1,2,0:0:0:0:
402,188,137499,1,0,0:0:0:0:
475,188,137499,1,8,0:0:0:0:
182,188,137567,1,0,0:0:0:0:
329,188,137635,1,0,0:0:0:0:
256,192,137635,1,0,0:0:0:0:
402,188,137704,1,0,0:0:0:0:
182,188,137772,1,0,0:0:0:0:
475,188,137772,1,8,0:0:0:0:
109,188,137772,1,0,0:0:0:0:
36,192,137772,1,2,0:0:0:0:
256,188,137840,1,0,0:0:0:0:
329,192,137840,1,0,0:0:0:0:
182,188,137908,1,0,0:0:0:0:
109,188,137976,1,0,0:0:0:0:
36,192,137976,1,0,0:0:0:0:
329,188,138045,1,0,0:0:0:0:
402,188,138045,1,0,0:0:0:0:
256,188,138045,1,2,0:0:0:0:
475,188,138045,1,8,0:0:0:0:
182,192,138113,1,0,0:0:0:0:
36,188,138181,1,0,0:0:0:0:
109,192,138181,1,0,0:0:0:0:
182,188,138249,1,0,0:0:0:0:
402,188,138317,1,0,0:0:0:0:
329,188,138317,1,0,0:0:0:0:
475,188,138317,1,8,0:0:0:0:
36,188,138317,1,2,0:0:0:0:
109,188,138385,1,0,0:0:0:0:
256,192,138385,1,0,0:0:0:0:
182,188,138454,1,0,0:0:0:0:
256,188,138522,1,0,0:0:0:0:
329,192,138522,1,0,0:0:0:0:
109,188,138590,1,0,0:0:0:0:
402,188,138590,1,0,0:0:0:0:
36,188,138590,1,2,0:0:0:0:
475,188,138590,1,8,0:0:0:0:
329,188,138658,1,0,0:0:0:0:
182,192,138658,1,0,0:0:0:0:
256,188,138726,1,0,0:0:0:0:
402,192,138726,1,0,0:0:0:0:
475,188,138795,1,0,0:0:0:0:
182,188,138863,1,0,0:0:0:0:
109,188,138863,1,0,0:0:0:0:
36,188,138863,1,2,0:0:0:0:
329,188,138863,1,8,0:0:0:0:
256,188,138931,1,0,0:0:0:0:
182,188,138999,1,0,0:0:0:0:
109,188,139067,1,0,0:0:0:0:
36,192,139067,1,0,0:0:0:0:
256,188,139135,1,0,0:0:0:0:
402,188,139135,1,0,0:0:0:0:
329,188,139135,1,2,0:0:0:0:
475,188,139135,1,8,0:0:0:0:
182,188,139204,1,0,0:0:0:0:
36,188,139272,1,0,0:0:0:0:
109,192,139272,1,0,0:0:0:0:
329,188,139340,1,0,0:0:0:0:
36,188,139408,1,0,0:0:0:0:
475,188,139408,1,2,0:0:0:0:
182,188,139408,1,0,0:0:0:0:
402,188,139408,1,8,0:0:0:0:
256,188,139476,1,0,0:0:0:0:
109,188,139545,1,8,0:0:0:0:
475,188,139545,1,0,0:0:0:0:
402,188,139545,1,0,0:0:0:0:
36,188,139545,1,0,0:0:0:0:
256,188,139613,1,0,0:0:0:0:
475,188,139681,1,2,0:0:0:0:
109,188,139681,1,0,0:0:0:0:
329,188,139681,1,8,0:0:0:0:
402,188,139681,1,0,0:0:0:0:
182,188,139749,1,0,0:0:0:0:
402,188,139817,1,0,0:0:0:0:
329,192,139817,1,0,0:0:0:0:
182,188,139885,1,0,0:0:0:0:
329,188,139954,1,0,0:0:0:0:
109,188,139954,1,0,0:0:0:0:
36,188,139954,1,2,0:0:0:0:
475,188,139954,1,8,0:0:0:0:
256,188,140022,1,0,0:0:0:0:
182,192,140022,1,0,0:0:0:0:
402,188,140090,1,0,0:0:0:0:
329,188,140158,1,0,0:0:0:0:
256,192,140158,1,0,0:0:0:0:
182,188,140226,1,0,0:0:0:0:
109,188,140226,1,0,0:0:0:0:
36,188,140226,1,2,0:0:0:0:
475,188,140226,1,8,0:0:0:0:
402,188,140295,1,0,0:0:0:0:
329,188,140363,1,0,0:0:0:0:
109,192,140363,1,0,0:0:0:0:
256,188,140431,1,0,0:0:0:0:
475,188,140499,1,8,0:0:0:0:
329,188,140499,1,0,0:0:0:0:
402,188,140499,1,0,0:0:0:0:
36,188,140499,1,2,0:0:0:0:
182,188,140567,1,0,0:0:0:0:
256,192,140567,1,0,0:0:0:0:
402,188,140635,1,0,0:0:0:0:
329,188,140704,1,0,0:0:0:0:
109,192,140704,1,0,0:0:0:0:
475,188,140772,1,8,0:0:0:0:
256,188,140772,1,0,0:0:0:0:
36,188,140772,1,2,0:0:0:0:
182,188,140772,1,0,0:0:0:0:
329,188,140840,1,0,0:0:0:0:
402,188,140908,1,0,0:0:0:0:
36,192,140908,1,0,0:0:0:0:
475,188,140976,1,0,0:0:0:0:
109,188,140976,1,0,0:0:0:0:
182,188,140976,1,8,0:0:0:0:
256,188,140976,1,2,0:0:0:0:
36,188,141045,1,0,0:0:0:0:
402,188,141045,1,0,0:0:0:0:
329,188,141045,1,0,0:0:0:0:
182,188,141113,1,0,0:0:0:0:
109,192,141113,1,0,0:0:0:0:
256,188,141181,1,8,0:0:0:0:
402,188,141181,1,0,0:0:0:0:
475,188,141181,1,0,0:0:0:0:
329,192,141181,1,2,0:0:0:0:
36,188,141249,1,0,0:0:0:0:
475,188,141317,1,0,0:0:0:0:
109,188,141317,1,0,0:0:0:0:
402,188,141317,1,0,0:0:0:0:
182,192,141385,1,0,0:0:0:0:
329,192,141385,1,2,0:0:0:0:
36,188,141385,1,8,0:0:0:0:
109,188,141454,1,0,0:0:0:0:
256,192,141454,1,0,0:0:0:0:
475,192,141454,1,0,0:0:0:0:
402,192,141522,1,0,0:0:0:0:
36,188,141590,1,0,0:0:0:0:
475,188,141590,1,0,0:0:0:0:
329,188,141590,1,8,0:0:0:0:
182,192,141590,1,2,0:0:0:0:
256,192,141658,1,0,0:0:0:0:
36,188,141726,1,0,0:0:0:0:
109,192,141726,1,0,0:0:0:0:
475,192,141795,1,8,0:0:0:0:
329,192,141795,1,2,0:0:0:0:
402,192,141795,1,0,0:0:0:0:
109,188,141863,1,0,0:0:0:0:
36,192,141863,1,0,0:0:0:0:
182,192,141863,1,2,0:0:0:0:
256,192,141863,1,8,0:0:0:0:
329,192,141931,1,0,0:0:0:0:
402,192,141999,1,0,0:0:0:0:
256,192,141999,1,0,0:0:0:0:
182,192,142067,1,0,0:0:0:0:
36,192,142135,5,2,0:0:0:0:
329,192,142135,1,0,0:0:0:0:
475,192,142135,1,8,0:0:0:0:
109,192,142135,1,0,0:0:0:0:
256,192,142204,1,0,0:0:0:0:
402,192,142204,1,0,0:0:0:0:
182,192,142272,1,0,0:0:0:0:
109,192,142340,1,0,0:0:0:0:
36,192,142340,1,0,0:0:0:0:
182,192,142408,5,2,0:0:0:0:
256,192,142408,1,0,0:0:0:0:
329,192,142408,1,0,0:0:0:0:
475,192,142408,1,8,0:0:0:0:
36,192,142476,1,0,0:0:0:0:
402,192,142545,1,0,0:0:0:0:
329,192,142545,1,0,0:0:0:0:
256,192,142613,1,0,0:0:0:0:
36,192,142681,5,2,0:0:0:0:
182,192,142681,1,8,0:0:0:0:
109,192,142681,1,0,0:0:0:0:
475,192,142681,1,0,0:0:0:0:
256,192,142749,1,0,0:0:0:0:
329,192,142817,1,0,0:0:0:0:
402,192,142885,1,0,0:0:0:0:
36,192,142954,5,2,0:0:0:0:
256,192,142954,1,0,0:0:0:0:
182,192,142954,1,0,0:0:0:0:
475,192,142954,1,8,0:0:0:0:
329,192,143022,1,0,0:0:0:0:
109,192,143090,1,0,0:0:0:0:
36,192,143090,1,0,0:0:0:0:
329,192,143158,1,0,0:0:0:0:
36,192,143226,5,2,0:0:0:0:
182,192,143226,1,0,0:0:0:0:
475,192,143226,1,8,0:0:0:0:
402,192,143226,1,0,0:0:0:0:
256,192,143295,1,0,0:0:0:0:
109,192,143295,1,0,0:0:0:0:
329,192,143363,1,0,0:0:0:0:
182,192,143431,1,0,0:0:0:0:
256,192,143431,1,0,0:0:0:0:
36,192,143499,5,2,0:0:0:0:
109,192,143499,1,0,0:0:0:0:
402,192,143499,1,0,0:0:0:0:
475,192,143499,1,8,0:0:0:0:
329,192,143567,1,0,0:0:0:0:
256,192,143635,1,0,0:0:0:0:
109,192,143635,1,0,0:0:0:0:
182,192,143704,1,0,0:0:0:0:
329,192,143772,1,0,0:0:0:0:
402,192,143772,1,0,0:0:0:0:
36,192,143772,1,8,0:0:0:0:
475,192,143772,1,2,0:0:0:0:
109,192,143840,1,0,0:0:0:0:
329,192,143908,1,0,0:0:0:0:
402,192,143908,1,0,0:0:0:0:
182,192,143908,1,0,0:0:0:0:
475,192,143908,1,8,0:0:0:0:
256,192,143976,1,0,0:0:0:0:
329,192,144045,1,8,0:0:0:0:
475,192,144045,1,2,0:0:0:0:
109,192,144045,1,0,0:0:0:0:
402,192,144045,1,0,0:0:0:0:
182,192,144113,1,0,0:0:0:0:
36,192,144113,1,0,0:0:0:0:
256,192,144181,1,0,0:0:0:0:
109,192,144181,1,0,0:0:0:0:
329,192,144249,1,0,0:0:0:0:
475,192,144317,1,8,0:0:0:0:
402,192,144317,1,0,0:0:0:0:
182,192,144317,1,0,0:0:0:0:
36,192,144317,1,2,0:0:0:0:
256,192,144385,1,0,0:0:0:0:
109,192,144385,1,0,0:0:0:0:
329,192,144454,1,0,0:0:0:0:
182,192,144522,1,0,0:0:0:0:
475,192,144522,1,0,0:0:0:0:
109,192,144590,1,0,0:0:0:0:
36,192,144590,1,2,0:0:0:0:
256,192,144590,1,0,0:0:0:0:
402,192,144590,1,8,0:0:0:0:
329,192,144658,1,0,0:0:0:0:
182,192,144726,1,0,0:0:0:0:
402,192,144726,1,0,0:0:0:0:
256,192,144795,1,0,0:0:0:0:
329,192,144863,1,8,0:0:0:0:
475,192,144863,1,8,0:0:0:0:
109,192,144863,1,0,0:0:0:0:
36,192,144863,1,2,0:0:0:0:
182,192,144931,1,0,0:0:0:0:
256,192,144931,1,0,0:0:0:0:
109,192,144999,1,0,0:0:0:0:
256,192,145067,1,0,0:0:0:0:
182,192,145067,1,0,0:0:0:0:
402,192,145135,1,0,0:0:0:0:
475,192,145135,1,8,0:0:0:0:
36,192,145135,1,2,0:0:0:0:
329,192,145135,1,0,0:0:0:0:
109,192,145204,1,0,0:0:0:0:
182,192,145204,1,0,0:0:0:0:
402,192,145272,1,0,0:0:0:0:
329,192,145272,1,0,0:0:0:0:
256,192,145340,1,0,0:0:0:0:
475,192,145408,1,8,0:0:0:0:
109,192,145408,1,0,0:0:0:0:
329,192,145408,1,0,0:0:0:0:
36,192,145408,1,2,0:0:0:0:
182,192,145476,1,0,0:0:0:0:
402,192,145476,1,0,0:0:0:0:
256,192,145545,1,0,0:0:0:0:
329,192,145613,1,0,0:0:0:0:
475,192,145613,1,0,0:0:0:0:
109,192,145681,1,0,0:0:0:0:
182,192,145681,1,0,0:0:0:0:
36,192,145681,1,2,0:0:0:0:
402,192,145681,1,8,0:0:0:0:
256,192,145749,1,0,0:0:0:0:
402,192,145817,1,0,0:0:0:0:
182,192,145817,1,0,0:0:0:0:
36,192,145817,1,8,0:0:0:0:
109,192,145817,1,0,0:0:0:0:
256,192,145885,1,0,0:0:0:0:
402,192,145954,1,0,0:0:0:0:
475,192,145954,1,0,0:0:0:0:
329,192,145954,1,8,0:0:0:0:
36,192,145988,1,0,0:0:0:0:
109,192,146022,1,0,0:0:0:0:
256,192,146022,1,0,0:0:0:0:
475,192,146056,1,0,0:0:0:0:
329,192,146090,1,0,0:0:0:0:
182,192,146090,1,0,0:0:0:0:
36,192,146124,1,0,0:0:0:0:
402,192,146158,1,0,0:0:0:0:
256,192,146158,1,0,0:0:0:0:
475,192,146192,1,0,0:0:0:0:
36,192,146226,1,0,0:0:0:0:
329,192,146226,1,0,0:0:0:0:
109,192,146226,1,2,0:0:0:0:
182,192,146226,1,8,0:0:0:0:
475,192,146295,1,0,0:0:0:0:
402,192,146295,1,0,0:0:0:0:
329,192,146363,1,0,0:0:0:0:
182,192,146363,1,0,0:0:0:0:
402,192,146431,1,0,0:0:0:0:
256,192,146499,1,0,0:0:0:0:
109,192,146499,1,0,0:0:0:0:
36,192,146499,1,2,0:0:0:0:
475,192,146499,1,8,0:0:0:0:
402,192,146567,1,0,0:0:0:0:
329,192,146567,1,0,0:0:0:0:
182,192,146635,1,0,0:0:0:0:
256,192,146704,1,0,0:0:0:0:
475,192,146704,1,0,0:0:0:0:
329,192,146772,1,8,0:0:0:0:
109,192,146772,1,0,0:0:0:0:
36,192,146772,1,2,0:0:0:0:
182,192,146772,1,0,0:0:0:0:
475,192,146840,1,0,0:0:0:0:
256,192,146908,1,0,0:0:0:0:
402,192,146908,1,0,0:0:0:0:
329,192,146976,1,0,0:0:0:0:
475,192,147045,1,2,0:0:0:0:
36,192,147045,1,0,0:0:0:0:
109,192,147045,1,8,0:0:0:0:
182,192,147045,1,8,0:0:0:0:
402,192,147113,1,0,0:0:0:0:
256,192,147113,1,0,0:0:0:0:
329,192,147181,1,0,0:0:0:0:
256,192,147249,1,0,0:0:0:0:
182,192,147249,1,0,0:0:0:0:
109,192,147317,1,0,0:0:0:0:
402,192,147317,1,0,0:0:0:0:
475,192,147317,1,8,0:0:0:0:
36,192,147317,1,2,0:0:0:0:
182,192,147385,1,0,0:0:0:0:
256,192,147454,1,0,0:0:0:0:
329,192,147454,1,0,0:0:0:0:
182,192,147522,1,0,0:0:0:0:
109,192,147590,1,0,0:0:0:0:
329,192,147590,1,0,0:0:0:0:
36,192,147590,1,2,0:0:0:0:
402,192,147590,1,8,0:0:0:0:
256,192,147658,1,0,0:0:0:0:
475,192,147658,1,0,0:0:0:0:
182,192,147726,1,0,0:0:0:0:
329,192,147795,1,0,0:0:0:0:
256,192,147795,1,0,0:0:0:0:
402,192,147863,1,0,0:0:0:0:
109,192,147863,1,0,0:0:0:0:
475,192,147863,1,8,0:0:0:0:
36,192,147863,1,2,0:0:0:0:
329,192,147931,1,0,0:0:0:0:
182,192,147931,1,0,0:0:0:0:
256,192,147999,1,0,0:0:0:0:
402,192,148067,1,0,0:0:0:0:
109,192,148067,1,0,0:0:0:0:
329,192,148067,1,2,0:0:0:0:
475,192,148135,1,8,0:0:0:0:
256,192,148135,1,0,0:0:0:0:
36,192,148135,1,2,0:0:0:0:
182,192,148135,1,0,0:0:0:0:
329,192,148204,1,0,0:0:0:0:
36,192,148272,1,0,0:0:0:0:
475,192,148272,1,0,0:0:0:0:
256,192,148272,1,0,0:0:0:0:
109,192,148272,1,8,0:0:0:0:
329,192,148340,1,0,0:0:0:0:
36,192,148408,5,2,0:0:0:0:
256,192,148408,1,0,0:0:0:0:
475,192,148408,1,8,0:0:0:0:
182,192,148408,1,0,0:0:0:0:
109,192,148545,1,0,0:0:0:0:
402,192,148545,1,0,0:0:0:0:
182,192,148681,1,0,0:0:0:0:
329,192,148681,1,0,0:0:0:0:
256,192,148817,1,0,0:0:0:0:
36,192,148817,1,0,0:0:0:0:
109,192,148954,1,0,0:0:0:0:
329,192,148954,1,0,0:0:0:0:
402,192,149090,1,0,0:0:0:0:
182,192,149090,1,0,0:0:0:0:
475,192,149226,1,0,0:0:0:0:
256,192,149226,1,0,0:0:0:0:
329,192,149363,1,0,0:0:0:0:
182,192,149363,1,0,0:0:0:0:
36,192,149499,5,0,0:0:0:0:
256,192,149499,1,0,0:0:0:0:
109,192,149567,1,0,0:0:0:0:
329,192,149567,1,0,0:0:0:0:
182,192,149635,1,0,0:0:0:0:
402,192,149635,1,0,0:0:0:0:
256,192,149704,1,0,0:0:0:0:
475,192,149704,1,0,0:0:0:0:
329,192,149772,1,0,0:0:0:0:
36,192,149772,1,0,0:0:0:0:
402,192,149840,1,0,0:0:0:0:
109,192,149840,1,0,0:0:0:0:
475,192,149908,1,0,0:0:0:0:
182,192,149908,1,0,0:0:0:0:
36,192,149976,1,0,0:0:0:0:
256,192,149976,1,0,0:0:0:0:
109,192,150045,1,0,0:0:0:0:
329,192,150045,1,0,0:0:0:0:
402,192,150113,1,0,0:0:0:0:
182,192,150113,1,0,0:0:0:0:
256,192,150181,1,0,0:0:0:0:
475,192,150181,1,0,0:0:0:0:
329,192,150249,1,0,0:0:0:0:
36,192,150249,1,0,0:0:0:0:
109,192,150317,1,0,0:0:0:0:
402,192,150317,1,0,0:0:0:0:
182,192,150385,1,0,0:0:0:0:
475,192,150385,1,0,0:0:0:0:
109,192,150454,1,2,0:0:0:0:
402,192,150454,1,2,0:0:0:0:
256,192,150454,1,0,0:0:0:40:
109,192,150590,128,2,152772:0:0:0:0:
256,192,150590,128,0,152772:0:0:0:40:crx.wav
402,192,150590,128,2,152772:0:0:0:0:
256,192,167772,5,0,0:0:0:40:normal-hitwhistle.wav
36,192,168045,1,0,0:0:0:40:
182,192,168045,1,0,0:0:0:40:crx.wav
329,192,168045,1,0,0:0:0:40:soft-hitnormal.wav
256,192,168045,1,0,0:0:0:40:normal-hitwhistle.wav
475,192,168045,1,0,0:0:0:40:
109,192,168317,1,0,0:0:0:0:
182,192,168590,1,0,0:0:0:0:
329,192,168726,1,0,0:0:0:0:
36,192,168863,128,0,168931:0:0:0:40:normal-hitnormal.wav
329,192,168999,1,0,0:0:0:0:
182,192,169135,1,0,0:0:0:0:
109,192,169135,128,0,169204:0:0:0:40:normal-hitnormal.wav
329,192,169408,1,0,0:0:0:0:
182,192,169545,1,0,0:0:0:0:
402,192,169681,1,0,0:0:0:0:
109,192,169817,1,0,0:0:0:0:
475,192,169954,128,0,170022:0:0:0:40:normal-hitnormal.wav
329,192,170090,1,0,0:0:0:0:
182,192,170226,1,0,0:0:0:0:
182,192,170499,1,0,0:0:0:0:
329,192,170772,1,0,0:0:0:0:
402,192,170908,1,0,0:0:0:0:
36,192,171045,128,0,171113:0:0:0:40:normal-hitnormal.wav
329,192,171181,1,0,0:0:0:0:
402,192,171317,1,0,0:0:0:0:
109,192,171317,128,0,171385:0:0:0:40:normal-hitnormal.wav
329,192,171590,1,0,0:0:0:0:
402,192,171863,1,0,0:0:0:0:
329,192,171999,1,0,0:0:0:0:
256,192,172135,128,0,172204:0:0:0:40:normal-hitnormal.wav
182,192,172272,1,0,0:0:0:0:
182,192,172681,1,0,0:0:0:0:
329,192,172954,1,0,0:0:0:0:
475,192,173090,1,0,0:0:0:0:
109,192,173226,128,0,173295:0:0:0:40:normal-hitnormal.wav
329,192,173363,1,0,0:0:0:0:
475,192,173499,1,0,0:0:0:0:
182,192,173499,128,0,173567:0:0:0:40:normal-hitnormal.wav
329,192,173772,1,0,0:0:0:0:
475,192,174045,1,0,0:0:0:0:
329,192,174181,1,0,0:0:0:0:
402,192,174317,128,0,174385:0:0:0:40:normal-hitnormal.wav
182,192,174454,1,0,0:0:0:0:
36,192,174590,1,0,0:0:0:0:
36,192,174863,1,0,0:0:0:0:
182,192,175135,1,0,0:0:0:0:
256,192,175272,1,0,0:0:0:0:
36,192,175408,128,0,175476:0:0:0:40:normal-hitnormal.wav
329,192,175545,1,0,0:0:0:0:
256,192,175681,1,0,0:0:0:0:
182,192,175681,128,0,175749:0:0:0:40:normal-hitnormal.wav
109,192,175954,1,0,0:0:0:0:
182,192,176226,1,0,0:0:0:0:
256,192,176363,1,0,0:0:0:0:
402,192,176499,128,0,176567:0:0:0:40:normal-hitnormal.wav
475,192,176635,1,0,0:0:0:0:
256,192,176772,128,0,178954:0:0:0:8:soft-hitnormal.wav
182,192,176772,1,0,0:0:0:0:
329,192,177045,1,0,0:0:0:0:
182,192,177317,1,0,0:0:0:0:
329,192,177454,1,0,0:0:0:0:
36,192,177590,128,0,177658:0:0:0:40:normal-hitnormal.wav
402,192,177726,1,0,0:0:0:0:
329,192,177863,1,0,0:0:0:0:
109,192,177863,128,0,177931:0:0:0:40:normal-hitnormal.wav
182,192,178135,1,0,0:0:0:0:
109,192,178408,1,0,0:0:0:0:
182,192,178545,1,0,0:0:0:0:
329,192,178681,128,0,178749:0:0:0:40:normal-hitnormal.wav
402,192,178817,1,0,0:0:0:0:
182,192,178954,1,0,0:0:0:0:
402,192,179226,1,0,0:0:0:0:
109,192,179499,1,0,0:0:0:0:
182,192,179635,1,0,0:0:0:0:
36,192,179772,128,0,179840:0:0:0:40:normal-hitnormal.wav
329,192,179908,1,0,0:0:0:0:
256,192,180045,1,0,0:0:0:0:
109,192,180045,128,0,180113:0:0:0:40:normal-hitnormal.wav
182,192,180317,1,0,0:0:0:0:
36,192,180590,1,0,0:0:0:0:
109,192,180726,1,0,0:0:0:0:
475,192,180863,128,0,180931:0:0:0:40:normal-hitnormal.wav
329,192,180999,1,0,0:0:0:0:
182,192,181135,1,0,0:0:0:0:
256,192,181408,1,0,0:0:0:0:
109,192,181681,1,0,0:0:0:0:
329,192,181817,1,0,0:0:0:0:
182,192,181954,128,0,182022:0:0:0:40:normal-hitnormal.wav
475,192,182090,1,0,0:0:0:0:
109,192,182226,1,0,0:0:0:0:
256,192,182226,128,0,182295:0:0:0:40:normal-hitnormal.wav
402,192,182499,1,0,0:0:0:0:
109,192,182772,1,0,0:0:0:0:
329,192,182908,1,0,0:0:0:0:
402,192,183045,128,0,183113:0:0:0:40:normal-hitnormal.wav
475,192,183181,1,0,0:0:0:0:
36,192,183317,1,2,0:0:0:0:
475,192,183385,1,2,0:0:0:0:
36,192,183454,1,2,0:0:0:0:
475,192,183522,1,2,0:0:0:0:
36,192,183590,1,2,0:0:0:0:
475,192,183658,1,2,0:0:0:0:
36,192,183726,1,2,0:0:0:0:
475,192,183795,1,2,0:0:0:0:
109,192,183863,1,2,0:0:0:0:
36,192,183863,1,0,0:0:0:0:
402,192,183931,1,2,0:0:0:0:
475,192,183931,1,0,0:0:0:0:
109,192,183999,1,2,0:0:0:0:
36,192,183999,1,0,0:0:0:0:
402,192,184067,1,2,0:0:0:0:
475,192,184067,1,0,0:0:0:0:
109,192,184135,1,2,0:0:0:0:
36,192,184135,1,0,0:0:0:0:
402,192,184204,1,2,0:0:0:0:
475,192,184204,1,0,0:0:0:0:
109,192,184272,1,2,0:0:0:0:
36,192,184272,1,0,0:0:0:0:
402,192,184340,1,2,0:0:0:0:
475,192,184340,1,0,0:0:0:0:
182,192,184408,1,2,0:0:0:0:
109,192,184408,1,0,0:0:0:0:
36,192,184408,1,0,0:0:0:0:
329,192,184476,1,2,0:0:0:0:
402,192,184476,1,0,0:0:0:0:
475,192,184476,1,0,0:0:0:0:
182,192,184545,1,2,0:0:0:0:
109,192,184545,1,0,0:0:0:0:
36,192,184545,1,0,0:0:0:0:
329,192,184613,1,2,0:0:0:0:
402,192,184613,1,0,0:0:0:0:
475,192,184613,1,0,0:0:0:0:
182,192,184681,1,2,0:0:0:0:
109,192,184681,1,0,0:0:0:0:
36,192,184681,1,0,0:0:0:0:
329,192,184749,1,2,0:0:0:0:
402,192,184749,1,0,0:0:0:0:
475,192,184749,1,0,0:0:0:0:
182,192,184817,1,2,0:0:0:0:
109,192,184817,1,0,0:0:0:0:
36,192,184817,1,0,0:0:0:0:
329,192,184885,1,2,0:0:0:0:
402,192,184885,1,0,0:0:0:0:
475,192,184885,1,0,0:0:0:0:
182,192,184954,1,2,0:0:0:0:
109,192,184954,1,0,0:0:0:0:
36,192,184954,1,0,0:0:0:0:
329,192,185022,1,2,0:0:0:0:
402,192,185022,1,0,0:0:0:0:
475,192,185022,1,0,0:0:0:0:
182,192,185090,1,2,0:0:0:0:
109,192,185090,1,0,0:0:0:0:
36,192,185090,1,0,0:0:0:0:
329,192,185158,1,2,0:0:0:0:
402,192,185158,1,0,0:0:0:0:
475,192,185158,1,0,0:0:0:0:
36,192,185226,1,0,0:0:0:0:
182,192,185226,1,2,0:0:0:0:
109,192,185226,1,0,0:0:0:0:
182,192,185499,1,0,0:0:0:0:
256,192,185499,1,2,0:0:0:40:crx.wav
329,192,185499,1,0,0:0:0:0:
109,192,185499,1,0,0:0:0:0:
402,192,185499,1,0,0:0:0:0:
36,192,185635,1,0,0:0:0:0:
256,192,185772,1,2,0:0:0:0:
182,192,185772,1,0,0:0:0:0:
329,192,185772,1,0,0:0:0:0:
36,192,185908,1,0,0:0:0:0:
329,192,186045,1,0,0:0:0:0:
475,192,186045,1,8,0:0:0:0:
256,192,186045,1,0,0:0:0:0:
182,192,186181,1,0,0:0:0:0:
109,192,186317,1,0,0:0:0:0:
329,192,186317,1,8,0:0:0:0:
36,192,186317,1,0,0:0:0:0:
402,192,186454,1,8,0:0:0:0:
256,192,186454,1,0,0:0:0:0:
182,192,186454,1,0,0:0:0:0:
329,192,186590,1,0,0:0:0:0:
36,192,186590,1,0,0:0:0:0:
182,192,186726,1,0,0:0:0:0:
109,192,186863,1,0,0:0:0:0:
475,192,186999,1,0,0:0:0:0:
329,192,186999,1,0,0:0:0:0:
182,192,187135,1,0,0:0:0:0:
36,192,187272,1,0,0:0:0:0:
402,192,187408,1,0,0:0:0:0:
182,192,187408,1,0,0:0:0:0:
256,192,187545,1,0,0:0:0:0:
36,192,187681,1,0,0:0:0:0:
109,192,187681,1,0,0:0:0:0:
256,192,187817,1,0,0:0:0:0:
182,192,187817,1,0,0:0:0:0:
109,192,187954,1,0,0:0:0:0:
36,192,188090,1,0,0:0:0:0:
329,192,188226,1,0,0:0:0:0:
256,192,188226,1,0,0:0:0:0:
182,192,188363,1,0,0:0:0:0:
109,192,188499,1,0,0:0:0:0:
329,192,188635,1,0,0:0:0:0:
475,192,188635,1,0,0:0:0:0:
182,192,188772,1,0,0:0:0:0:
36,192,188908,1,0,0:0:0:0:
475,192,189045,1,0,0:0:0:0:
402,192,189045,1,0,0:0:0:0:
182,192,189181,1,0,0:0:0:0:
475,192,189317,1,0,0:0:0:0:
402,192,189317,1,0,0:0:0:0:
182,192,189454,1,0,0:0:0:0:
402,192,189590,1,0,0:0:0:0:
329,192,189590,1,0,0:0:0:0:
109,192,189726,1,0,0:0:0:0:
182,192,189863,1,0,0:0:0:0:
256,192,189863,1,2,0:0:0:0:
329,192,189863,1,0,0:0:0:0:
36,192,189999,1,0,0:0:0:0:
182,192,190135,1,0,0:0:0:0:
329,192,190135,1,0,0:0:0:0:
256,192,190135,1,2,0:0:0:0:
36,192,190272,1,0,0:0:0:0:
329,192,190408,1,0,0:0:0:0:
256,192,190408,1,0,0:0:0:0:
475,192,190408,1,8,0:0:0:0:
182,192,190545,1,0,0:0:0:0:
329,192,190681,1,0,0:0:0:0:
109,192,190681,1,0,0:0:0:0:
475,192,190681,1,8,0:0:0:0:
182,192,190817,1,0,0:0:0:0:
402,192,190817,1,8,0:0:0:0:
256,192,190817,1,0,0:0:0:0:
329,192,190954,1,0,0:0:0:0:
36,192,190954,1,0,0:0:0:0:
182,192,191090,1,0,0:0:0:0:
109,192,191226,1,0,0:0:0:0:
475,192,191363,1,0,0:0:0:0:
329,192,191363,1,0,0:0:0:0:
182,192,191499,1,0,0:0:0:0:
36,192,191635,1,0,0:0:0:0:
182,192,191772,1,0,0:0:0:0:
402,192,191772,1,0,0:0:0:0:
256,192,191908,1,0,0:0:0:0:
109,192,192045,1,0,0:0:0:0:
36,192,192045,1,0,0:0:0:0:
182,192,192181,1,0,0:0:0:0:
256,192,192181,1,0,0:0:0:0:
109,192,192317,1,0,0:0:0:0:
36,192,192454,1,0,0:0:0:0:
256,192,192590,1,0,0:0:0:0:
329,192,192590,1,0,0:0:0:0:
182,192,192726,1,0,0:0:0:0:
109,192,192863,1,0,0:0:0:0:
329,192,192999,1,0,0:0:0:0:
402,192,192999,1,0,0:0:0:0:
182,192,193135,1,0,0:0:0:0:
36,192,193272,1,0,0:0:0:0:
329,192,193408,1,0,0:0:0:0:
475,192,193408,1,0,0:0:0:0:
182,192,193545,1,0,0:0:0:0:
475,192,193681,1,0,0:0:0:0:
329,192,193681,1,0,0:0:0:0:
182,192,193817,1,0,0:0:0:0:
475,192,193954,1,0,0:0:0:0:
36,192,193954,1,0,0:0:0:0:
402,192,194090,1,0,0:0:0:0:
109,192,194090,1,0,0:0:0:0:
182,192,194226,1,0,0:0:0:0:
329,192,194226,1,0,0:0:0:0:
256,192,194226,1,2,0:0:0:0:
36,192,194363,1,0,0:0:0:0:
329,192,194499,1,0,0:0:0:0:
256,192,194499,1,2,0:0:0:0:
182,192,194499,1,0,0:0:0:0:
36,192,194635,1,0,0:0:0:0:
256,192,194772,1,0,0:0:0:0:
475,192,194772,1,8,0:0:0:0:
329,192,194772,1,0,0:0:0:0:
182,192,194908,1,0,0:0:0:0:
329,192,195045,1,8,0:0:0:0:
36,192,195045,1,0,0:0:0:0:
109,192,195045,1,0,0:0:0:0:
402,192,195181,1,8,0:0:0:0:
182,192,195181,1,0,0:0:0:0:
256,192,195181,1,0,0:0:0:0:
329,192,195317,1,0,0:0:0:0:
36,192,195317,1,0,0:0:0:0:
182,192,195454,1,0,0:0:0:0:
109,192,195590,1,0,0:0:0:0:
475,192,195726,1,0,0:0:0:0:
329,192,195726,1,0,0:0:0:0:
182,192,195863,1,0,0:0:0:0:
36,192,195999,1,0,0:0:0:0:
402,192,196135,1,0,0:0:0:0:
182,192,196135,1,0,0:0:0:0:
256,192,196272,1,0,0:0:0:0:
109,192,196408,1,0,0:0:0:0:
36,192,196408,1,0,0:0:0:0:
256,192,196545,1,0,0:0:0:0:
182,192,196545,1,0,0:0:0:0:
109,192,196681,1,0,0:0:0:0:
36,192,196817,1,0,0:0:0:0:
329,192,196954,1,0,0:0:0:0:
256,192,196954,1,0,0:0:0:0:
182,192,197090,1,0,0:0:0:0:
109,192,197226,1,0,0:0:0:0:
329,192,197363,1,0,0:0:0:0:
475,192,197363,1,0,0:0:0:0:
182,192,197499,1,0,0:0:0:0:
36,192,197635,1,0,0:0:0:0:
475,192,197772,1,0,0:0:0:0:
402,192,197772,1,0,0:0:0:0:
182,192,197908,1,0,0:0:0:0:
402,192,198045,1,0,0:0:0:0:
475,192,198045,1,0,0:0:0:0:
182,192,198181,1,0,0:0:0:0:
402,192,198317,1,0,0:0:0:0:
329,192,198317,1,0,0:0:0:0:
109,192,198454,1,0,0:0:0:0:
256,192,198590,1,2,0:0:0:0:
182,192,198590,1,0,0:0:0:0:
329,192,198590,1,0,0:0:0:0:
36,192,198726,1,0,0:0:0:0:
182,192,198863,1,0,0:0:0:0:
329,192,198863,1,0,0:0:0:0:
256,192,198863,1,2,0:0:0:0:
36,192,198999,1,0,0:0:0:0:
256,192,199135,1,0,0:0:0:0:
329,192,199135,1,0,0:0:0:0:
475,192,199135,1,8,0:0:0:0:
182,192,199272,1,0,0:0:0:0:
475,192,199408,1,8,0:0:0:0:
329,192,199408,1,0,0:0:0:0:
109,192,199408,1,0,0:0:0:0:
182,192,199545,1,0,0:0:0:0:
402,192,199545,1,8,0:0:0:0:
256,192,199545,1,0,0:0:0:0:
329,192,199681,5,0,0:0:0:0:
36,192,199681,1,0,0:0:0:0:
182,192,199817,1,0,0:0:0:0:
109,192,199954,1,0,0:0:0:0:
329,192,200090,1,0,0:0:0:0:
475,192,200090,1,0,0:0:0:0:
182,192,200226,1,0,0:0:0:0:
36,192,200363,1,0,0:0:0:0:
329,192,200499,1,0,0:0:0:0:
256,192,200499,1,0,0:0:0:0:
182,192,200635,1,0,0:0:0:0:
256,192,200772,1,0,0:0:0:40:crx.wav
475,192,200772,1,0,0:0:0:0:
36,192,200772,1,0,0:0:0:0:
256,192,201590,128,0,201863:0:0:0:0:
329,192,201863,1,0,0:0:0:0:
182,192,201863,1,2,0:0:0:0:
182,192,201954,1,2,0:0:0:0:
329,192,201954,1,0,0:0:0:0:
182,192,202045,1,2,0:0:0:0:
329,192,202045,1,0,0:0:0:0:
109,192,202135,1,2,0:0:0:0:
402,192,202135,1,0,0:0:0:0:
109,192,202226,1,2,0:0:0:0:
402,192,202226,1,0,0:0:0:0:
402,192,202317,1,0,0:0:0:0:
109,192,202317,1,2,0:0:0:0:
36,192,202408,1,2,0:0:0:0:
475,192,202408,1,0,0:0:0:0:
36,192,202499,1,2,0:0:0:0:
475,192,202499,1,0,0:0:0:0:
36,192,202590,1,2,0:0:0:0:
475,192,202590,1,0,0:0:0:0:
36,192,202681,1,2,0:0:0:0:
475,192,202681,1,0,0:0:0:0:
109,192,202817,1,0,0:0:0:0:
402,192,202817,1,0,0:0:0:0:
256,192,202817,1,2,0:0:0:0:
109,192,202954,1,4,0:0:0:0:
256,192,202954,1,2,0:0:0:0:
402,192,202954,1,0,0:0:0:0:
182,192,203090,1,0,0:0:0:0:
475,192,203226,1,0,0:0:0:0:
329,192,203226,1,8,0:0:0:0:
475,192,203363,1,0,0:0:0:0:
329,192,203431,1,0,0:0:0:0:
475,192,203499,1,0,0:0:0:0:
329,192,203567,1,0,0:0:0:0:
109,192,203635,1,0,0:0:0:0:
36,192,203772,1,8,0:0:0:0:
182,192,203772,1,0,0:0:0:0:
36,192,203908,1,0,0:0:0:0:
182,192,203976,1,0,0:0:0:0:
475,192,204045,128,0,204590:0:0:0:0:
36,192,204590,128,0,204999:0:0:0:0:
109,192,205135,1,0,0:0:0:0:
256,192,205135,1,2,0:0:0:0:
402,192,205135,1,0,0:0:0:0:
329,192,205272,1,0,0:0:0:0:
36,192,205408,1,0,0:0:0:0:
182,192,205408,1,8,0:0:0:0:
36,192,205545,1,0,0:0:0:0:
182,192,205613,1,0,0:0:0:0:
36,192,205681,1,0,0:0:0:0:
182,192,205749,1,0,0:0:0:0:
402,192,205817,1,0,0:0:0:0:
329,192,205954,1,0,0:0:0:0:
475,192,205954,1,8,0:0:0:0:
36,192,206090,1,0,0:0:0:0:
182,192,206158,1,0,0:0:0:0:
329,192,206226,1,0,0:0:0:0:
475,192,206226,1,8,0:0:0:0:
36,192,206363,1,0,0:0:0:0:
182,192,206431,1,0,0:0:0:0:
36,192,206499,1,0,0:0:0:0:
182,192,206567,1,0,0:0:0:0:
329,192,206635,1,0,0:0:0:0:
475,192,206635,1,8,0:0:0:0:
36,192,206772,1,0,0:0:0:0:
182,192,206840,1,0,0:0:0:0:
36,192,206908,1,0,0:0:0:0:
182,192,206976,1,0,0:0:0:0:
329,192,207045,1,8,0:0:0:0:
475,192,207045,1,0,0:0:0:0:
329,192,207181,1,8,0:0:0:0:
475,192,207181,1,0,0:0:0:0:
182,192,207249,1,8,0:0:0:0:
36,192,207249,1,0,0:0:0:0:
109,192,207317,1,0,0:0:0:0:
402,192,207317,1,4,0:0:0:0:
256,192,207317,1,2,0:0:0:0:
109,192,207454,1,0,0:0:0:0:
256,192,207454,1,2,0:0:0:0:
402,192,207454,1,0,0:0:0:0:
36,192,207590,1,0,0:0:0:0:
182,192,207590,1,8,0:0:0:0:
36,192,207726,1,0,0:0:0:0:
182,192,207795,1,0,0:0:0:0:
36,192,207863,1,0,0:0:0:0:
182,192,207931,1,0,0:0:0:0:
109,192,207999,1,0,0:0:0:0:
256,192,207999,1,2,0:0:0:0:
402,192,207999,1,0,0:0:0:0:
329,192,208135,1,0,0:0:0:0:
475,192,208135,1,8,0:0:0:0:
475,192,208272,1,0,0:0:0:0:
329,192,208340,1,0,0:0:0:0:
36,192,208408,128,0,208954:0:0:0:0:
109,192,208408,1,0,0:0:0:0:
256,192,208408,1,2,0:0:0:0:
402,192,208408,1,0,0:0:0:0:
475,192,208954,128,0,209363:0:0:0:0:
109,192,209499,1,0,0:0:0:0:
256,192,209499,1,2,0:0:0:0:
402,192,209499,1,0,0:0:0:0:
109,192,209635,1,0,0:0:0:0:
256,192,209635,1,2,0:0:0:0:
402,192,209635,1,0,0:0:0:0:
36,192,209772,1,8,0:0:0:0:
182,192,209772,1,0,0:0:0:0:
36,192,209908,1,0,0:0:0:0:
182,192,209976,1,0,0:0:0:0:
36,192,210045,1,0,0:0:0:0:
182,192,210113,1,0,0:0:0:0:
402,192,210181,1,0,0:0:0:0:
256,192,210181,1,2,0:0:0:0:
109,192,210181,1,0,0:0:0:0:
475,192,210317,1,8,0:0:0:0:
329,192,210317,1,0,0:0:0:0:
475,192,210454,1,0,0:0:0:0:
402,192,210522,1,0,0:0:0:0:
182,192,210590,1,0,0:0:0:0:
329,192,210590,1,0,0:0:0:0:
256,192,210590,1,2,0:0:0:0:
182,192,210681,1,0,0:0:0:0:
329,192,210681,1,0,0:0:0:0:
182,192,210772,1,0,0:0:0:0:
329,192,210772,1,0,0:0:0:0:
182,192,210863,1,0,0:0:0:0:
329,192,210863,1,0,0:0:0:0:
182,192,210954,1,0,0:0:0:0:
329,192,210954,1,0,0:0:0:0:
182,192,211045,1,0,0:0:0:0:
329,192,211045,1,0,0:0:0:0:
182,192,211135,1,0,0:0:0:0:
329,192,211135,1,0,0:0:0:0:
109,192,211408,1,0,0:0:0:0:
256,192,211408,1,2,0:0:0:0:
402,192,211408,1,0,0:0:0:0:
109,192,211681,1,0,0:0:0:0:
256,192,211681,1,2,0:0:0:0:
402,192,211681,1,0,0:0:0:0:
402,192,211817,1,0,0:0:0:0:
256,192,211817,1,2,0:0:0:0:
109,192,211817,1,0,0:0:0:0:
36,192,211954,1,0,0:0:0:0:
182,192,211954,1,8,0:0:0:0:
36,192,212090,1,0,0:0:0:0:
182,192,212158,1,0,0:0:0:0:
36,192,212226,1,0,0:0:0:0:
182,192,212295,1,0,0:0:0:0:
109,192,212363,1,0,0:0:0:0:
256,192,212363,1,2,0:0:0:0:
402,192,212363,1,0,0:0:0:0:
182,192,212499,1,8,0:0:0:0:
329,192,212499,1,0,0:0:0:0:
182,192,212635,1,0,0:0:0:0:
329,192,212704,1,0,0:0:0:0:
402,192,212772,1,0,0:0:0:0:
256,192,212772,1,2,0:0:0:0:
109,192,212772,1,0,0:0:0:0:
109,192,212908,1,0,0:0:0:0:
402,192,212908,1,0,0:0:0:0:
256,192,212908,1,2,0:0:0:0:
329,192,213045,1,8,0:0:0:0:
475,192,213045,1,0,0:0:0:0:
475,192,213181,1,0,0:0:0:0:
329,192,213249,1,0,0:0:0:0:
475,192,213317,1,0,0:0:0:0:
329,192,213385,1,0,0:0:0:0:
256,192,213454,1,2,0:0:0:0:
402,192,213454,1,0,0:0:0:0:
109,192,213454,1,0,0:0:0:0:
182,192,213590,1,0,0:0:0:0:
329,192,213590,1,8,0:0:0:0:
329,192,213726,1,0,0:0:0:0:
182,192,213795,1,0,0:0:0:0:
402,192,213863,1,0,0:0:0:0:
256,192,213863,1,2,0:0:0:0:
109,192,213863,1,0,0:0:0:0:
256,192,213999,1,2,0:0:0:0:
109,192,213999,1,0,0:0:0:0:
402,192,213999,1,0,0:0:0:0:
36,192,214135,1,0,0:0:0:0:
182,192,214135,1,8,0:0:0:0:
36,192,214272,1,0,0:0:0:0:
182,192,214340,1,0,0:0:0:0:
36,192,214408,1,0,0:0:0:0:
182,192,214476,1,0,0:0:0:0:
402,192,214545,1,0,0:0:0:0:
109,192,214545,1,0,0:0:0:0:
256,192,214545,1,2,0:0:0:0:
329,192,214681,1,8,0:0:0:0:
182,192,214681,1,0,0:0:0:0:
182,192,214817,1,0,0:0:0:0:
329,192,214885,1,0,0:0:0:0:
256,192,214954,1,2,0:0:0:0:
109,192,214954,1,0,0:0:0:0:
402,192,214954,1,0,0:0:0:0:
402,192,215090,1,0,0:0:0:0:
256,192,215090,1,2,0:0:0:0:
109,192,215090,1,0,0:0:0:0:
329,192,215226,1,8,0:0:0:0:
475,192,215226,1,0,0:0:0:0:
182,192,215363,1,0,0:0:0:0:
182,192,215499,1,0,0:0:0:0:
402,192,215635,1,0,0:0:0:0:
109,192,215635,1,0,0:0:0:0:
256,192,215635,1,2,0:0:0:0:
329,192,215772,1,0,0:0:0:0:
182,192,215840,1,0,0:0:0:0:
329,192,215908,1,0,0:0:0:0:
182,192,215976,1,0,0:0:0:0:
109,192,216045,1,0,0:0:0:0:
256,192,216045,1,2,0:0:0:0:
402,192,216045,1,0,0:0:0:0:
109,192,216181,1,0,0:0:0:0:
256,192,216181,1,2,0:0:0:0:
402,192,216181,1,0,0:0:0:0:
182,192,216317,1,8,0:0:0:0:
36,192,216317,1,0,0:0:0:0:
36,192,216454,1,0,0:0:0:0:
182,192,216522,1,0,0:0:0:0:
256,192,216590,1,2,0:0:0:0:
402,192,216590,1,0,0:0:0:0:
109,192,216590,1,0,0:0:0:0:
256,192,216726,1,2,0:0:0:0:
402,192,216726,1,0,0:0:0:0:
109,192,216726,1,0,0:0:0:0:
329,192,216863,1,8,0:0:0:0:
475,192,216863,1,0,0:0:0:0:
475,192,216999,1,0,0:0:0:0:
329,192,217067,1,0,0:0:0:0:
402,192,217135,1,0,0:0:0:0:
109,192,217135,1,0,0:0:0:0:
256,192,217135,1,2,0:0:0:0:
402,192,217272,1,0,0:0:0:0:
109,192,217272,1,0,0:0:0:0:
256,192,217272,1,2,0:0:0:0:
36,192,217408,1,0,0:0:0:0:
182,192,217408,1,8,0:0:0:0:
36,192,217545,1,0,0:0:0:0:
182,192,217613,1,0,0:0:0:0:
256,192,217681,1,2,0:0:0:0:
402,192,217681,1,0,0:0:0:0:
109,192,217681,1,0,0:0:0:0:
256,192,217817,1,2,0:0:0:0:
402,192,217817,1,0,0:0:0:0:
109,192,217817,1,0,0:0:0:0:
329,192,217954,1,8,0:0:0:0:
475,192,217954,1,0,0:0:0:0:
475,192,218090,1,0,0:0:0:0:
329,192,218158,1,0,0:0:0:0:
256,192,218226,1,2,0:0:0:0:
109,192,218226,1,0,0:0:0:0:
402,192,218226,1,0,0:0:0:0:
109,192,218363,1,0,0:0:0:0:
402,192,218363,1,0,0:0:0:0:
256,192,218363,1,2,0:0:0:0:
182,192,218499,1,8,0:0:0:0:
36,192,218499,1,0,0:0:0:0:
36,192,218635,1,0,0:0:0:0:
182,192,218704,1,0,0:0:0:0:
109,192,218772,1,0,0:0:0:0:
402,192,218772,1,0,0:0:0:0:
256,192,218772,1,2,0:0:0:0:
256,192,218908,1,2,0:0:0:0:
109,192,218908,1,0,0:0:0:0:
402,192,218908,1,0,0:0:0:0:
475,192,219045,1,0,0:0:0:0:
329,192,219045,1,8,0:0:0:0:
475,192,219181,1,0,0:0:0:0:
329,192,219249,1,0,0:0:0:0:
182,192,219590,1,0,0:0:0:0:
256,192,219863,1,0,0:0:0:0:
329,192,220135,1,0,0:0:0:0:
256,192,220408,128,0,242226:0:0:0:40:crx.wav
36,192,220408,1,2,0:0:0:0:
475,192,220408,1,0,0:0:0:0:
402,192,220408,1,0,0:0:0:0:
109,192,220408,1,0,0:0:0:0:
329,192,220545,1,0,0:0:0:0:
36,192,220681,1,2,0:0:0:0:
402,192,220681,1,0,0:0:0:0:
329,192,220817,1,0,0:0:0:0:
36,192,220954,1,2,0:0:0:0:
475,192,220954,1,0,0:0:0:0:
475,192,221090,1,0,0:0:0:0:
36,192,221226,1,2,0:0:0:0:
475,192,221226,1,0,0:0:0:0:
36,192,221499,1,2,0:0:0:0:
475,192,221499,1,0,0:0:0:0:
329,192,221635,1,0,0:0:0:0:
36,192,221772,1,2,0:0:0:0:
402,192,221772,1,0,0:0:0:0:
329,192,221908,1,0,0:0:0:0:
36,192,222045,1,2,0:0:0:0:
475,192,222045,1,0,0:0:0:0:
475,192,222181,1,0,0:0:0:0:
36,192,222317,1,2,0:0:0:0:
475,192,222317,1,0,0:0:0:0:
36,192,222590,1,2,0:0:0:0:
475,192,222590,1,0,0:0:0:0:
329,192,222726,1,0,0:0:0:0:
36,192,222863,1,2,0:0:0:0:
402,192,222863,1,0,0:0:0:0:
329,192,222999,1,0,0:0:0:0:
36,192,223135,1,2,0:0:0:0:
475,192,223135,1,0,0:0:0:0:
475,192,223272,1,0,0:0:0:0:
36,192,223408,1,2,0:0:0:0:
475,192,223408,1,0,0:0:0:0:
36,192,223681,1,2,0:0:0:0:
475,192,223681,1,0,0:0:0:0:
329,192,223817,1,0,0:0:0:0:
36,192,223954,1,2,0:0:0:0:
402,192,223954,1,0,0:0:0:0:
329,192,224090,1,0,0:0:0:0:
36,192,224226,1,2,0:0:0:0:
475,192,224226,1,0,0:0:0:0:
475,192,224363,1,0,0:0:0:0:
36,192,224499,1,2,0:0:0:0:
475,192,224499,1,0,0:0:0:0:
36,192,224772,1,2,0:0:0:0:
475,192,224772,1,0,0:0:0:0:
329,192,224908,1,0,0:0:0:0:
36,192,225045,1,2,0:0:0:0:
402,192,225045,1,0,0:0:0:0:
329,192,225181,1,0,0:0:0:0:
36,192,225317,1,2,0:0:0:0:
475,192,225317,1,0,0:0:0:0:
475,192,225454,1,0,0:0:0:0:
36,192,225590,1,2,0:0:0:0:
475,192,225590,1,0,0:0:0:0:
36,192,225863,1,2,0:0:0:0:
475,192,225863,1,0,0:0:0:0:
329,192,225999,1,0,0:0:0:0:
36,192,226135,1,2,0:0:0:0:
402,192,226135,1,0,0:0:0:0:
329,192,226272,1,0,0:0:0:0:
36,192,226408,1,2,0:0:0:0:
475,192,226408,1,0,0:0:0:0:
475,192,226545,1,0,0:0:0:0:
36,192,226681,1,2,0:0:0:0:
475,192,226681,1,0,0:0:0:0:
36,192,226954,1,2,0:0:0:0:
475,192,226954,1,0,0:0:0:0:
329,192,227090,1,0,0:0:0:0:
36,192,227226,1,2,0:0:0:0:
402,192,227226,1,0,0:0:0:0:
329,192,227363,1,0,0:0:0:0:
36,192,227499,1,2,0:0:0:0:
475,192,227499,1,0,0:0:0:0:
475,192,227635,1,0,0:0:0:0:
36,192,227772,1,2,0:0:0:0:
475,192,227772,1,0,0:0:0:0:
36,192,228045,1,2,0:0:0:0:
475,192,228045,1,0,0:0:0:0:
329,192,228181,1,0,0:0:0:0:
36,192,228317,1,2,0:0:0:0:
402,192,228317,1,0,0:0:0:0:
329,192,228454,1,0,0:0:0:0:
36,192,228590,1,2,0:0:0:0:
475,192,228590,1,0,0:0:0:0:
475,192,228726,1,0,0:0:0:0:
36,192,228863,1,2,0:0:0:0:
182,192,228863,1,8,0:0:0:0:
475,192,228863,1,0,0:0:0:0:
182,192,229101,1,8,0:0:0:0:
36,192,229135,1,2,0:0:0:0:
475,192,229135,1,0,0:0:0:0:
402,192,229272,1,0,0:0:0:0:
36,192,229408,1,2,0:0:0:0:
182,192,229408,1,8,0:0:0:0:
329,192,229408,1,0,0:0:0:0:
402,192,229545,1,0,0:0:0:0:
36,192,229681,1,2,0:0:0:0:
182,192,229681,1,8,0:0:0:0:
475,192,229681,1,0,0:0:0:0:
475,192,229817,1,0,0:0:0:0:
475,192,229954,1,0,0:0:0:0:
36,192,229954,1,2,0:0:0:0:
182,192,229954,1,8,0:0:0:0:
36,192,230226,1,2,0:0:0:0:
182,192,230226,1,8,0:0:0:0:
475,192,230226,1,0,0:0:0:0:
402,192,230363,1,0,0:0:0:0:
36,192,230499,1,2,0:0:0:0:
182,192,230499,1,8,0:0:0:0:
329,192,230499,1,0,0:0:0:0:
402,192,230635,1,0,0:0:0:0:
36,192,230772,1,2,0:0:0:0:
182,192,230772,1,8,0:0:0:0:
475,192,230772,1,0,0:0:0:0:
475,192,230908,1,0,0:0:0:0:
475,192,231045,1,0,0:0:0:0:
36,192,231045,1,2,0:0:0:0:
182,192,231045,1,8,0:0:0:0:
36,192,231317,1,2,0:0:0:0:
182,192,231317,1,8,0:0:0:0:
475,192,231317,1,0,0:0:0:0:
402,192,231454,1,0,0:0:0:0:
36,192,231590,1,2,0:0:0:0:
182,192,231590,1,8,0:0:0:0:
329,192,231590,1,0,0:0:0:0:
402,192,231726,1,0,0:0:0:0:
36,192,231863,1,2,0:0:0:0:
182,192,231863,1,8,0:0:0:0:
475,192,231863,1,0,0:0:0:0:
475,192,231999,1,0,0:0:0:0:
36,192,232135,1,2,0:0:0:0:
182,192,232135,1,8,0:0:0:0:
475,192,232135,1,0,0:0:0:0:
36,192,232408,1,2,0:0:0:0:
182,192,232408,1,8,0:0:0:0:
475,192,232408,1,0,0:0:0:0:
402,192,232545,1,0,0:0:0:0:
36,192,232681,1,2,0:0:0:0:
182,192,232681,1,8,0:0:0:0:
329,192,232681,1,0,0:0:0:0:
402,192,232817,1,0,0:0:0:0:
36,192,232954,1,2,0:0:0:0:
182,192,232954,1,8,0:0:0:0:
475,192,232954,1,0,0:0:0:0:
475,192,233090,1,0,0:0:0:0:
36,192,233226,1,2,0:0:0:0:
182,192,233226,1,8,0:0:0:0:
475,192,233226,1,0,0:0:0:0:
36,192,233499,1,2,0:0:0:0:
182,192,233499,1,8,0:0:0:0:
475,192,233499,1,0,0:0:0:0:
402,192,233635,1,0,0:0:0:0:
36,192,233772,1,2,0:0:0:0:
182,192,233772,1,8,0:0:0:0:
329,192,233772,1,0,0:0:0:0:
402,192,233908,1,0,0:0:0:0:
36,192,234045,1,2,0:0:0:0:
182,192,234045,1,8,0:0:0:0:
475,192,234045,1,0,0:0:0:0:
475,192,234181,1,0,0:0:0:0:
36,192,234317,1,2,0:0:0:0:
182,192,234317,1,8,0:0:0:0:
475,192,234317,1,0,0:0:0:0:
36,192,234590,1,2,0:0:0:0:
182,192,234590,1,8,0:0:0:0:
475,192,234590,1,0,0:0:0:0:
402,192,234726,1,0,0:0:0:0:
36,192,234863,1,2,0:0:0:0:
182,192,234863,1,8,0:0:0:0:
329,192,234863,1,0,0:0:0:0:
402,192,234999,1,0,0:0:0:0:
36,192,235135,1,2,0:0:0:0:
182,192,235135,1,8,0:0:0:0:
475,192,235135,1,0,0:0:0:0:
475,192,235272,1,0,0:0:0:0:
36,192,235408,1,2,0:0:0:0:
182,192,235408,1,8,0:0:0:0:
475,192,235408,1,0,0:0:0:0:
36,192,235681,1,2,0:0:0:0:
182,192,235681,1,8,0:0:0:0:
475,192,235681,1,0,0:0:0:0:
402,192,235817,1,0,0:0:0:0:
36,192,235954,1,2,0:0:0:0:
182,192,235954,1,8,0:0:0:0:
329,192,235954,1,0,0:0:0:0:
402,192,236090,1,0,0:0:0:0:
36,192,236226,1,2,0:0:0:0:
182,192,236226,1,8,0:0:0:0:
475,192,236226,1,0,0:0:0:0:
475,192,236363,1,0,0:0:0:0:
36,192,236499,1,2,0:0:0:0:
182,192,236499,1,8,0:0:0:0:
475,192,236499,1,0,0:0:0:0:
36,192,236772,1,2,0:0:0:0:
182,192,236772,1,8,0:0:0:0:
475,192,236772,1,0,0:0:0:0:
402,192,236908,1,0,0:0:0:0:
36,192,237045,1,2,0:0:0:0:
182,192,237045,1,8,0:0:0:0:
329,192,237045,1,0,0:0:0:0:
402,192,237181,1,0,0:0:0:0:
36,192,237317,1,2,0:0:0:0:
182,192,237317,1,8,0:0:0:0:
475,192,237317,1,0,0:0:0:0:
475,192,237454,1,0,0:0:0:0:
36,192,237590,1,2,0:0:0:0:
182,192,237590,1,8,0:0:0:0:
475,192,237590,1,0,0:0:0:0:
36,192,237863,5,0,0:0:0:0:
402,192,237863,1,0,0:0:0:0:
475,192,237863,1,0,0:0:0:40:crx.wav
109,192,237863,1,2,0:0:0:0:
36,192,237999,1,0,0:0:0:0:
109,192,237999,1,2,0:0:0:0:
402,192,238067,1,2,0:0:0:0:
475,192,238067,1,0,0:0:0:0:
36,192,238135,1,0,0:0:0:0:
109,192,238135,1,2,0:0:0:0:
475,192,238272,1,0,0:0:0:0:
402,192,238272,1,2,0:0:0:0:
36,192,238340,1,0,0:0:0:0:
109,192,238340,1,2,0:0:0:0:
402,192,238408,1,2,0:0:0:0:
475,192,238408,1,0,0:0:0:0:
36,192,238545,1,0,0:0:0:0:
109,192,238545,1,2,0:0:0:0:
402,192,238613,1,2,0:0:0:0:
475,192,238613,1,0,0:0:0:0:
109,192,238681,1,2,0:0:0:0:
36,192,238681,1,0,0:0:0:0:
475,192,238817,1,0,0:0:0:0:
402,192,238817,1,2,0:0:0:0:
36,192,238885,1,0,0:0:0:0:
109,192,238885,1,2,0:0:0:0:
475,192,238954,1,0,0:0:0:0:
402,192,238954,1,2,0:0:0:0:
109,192,239090,1,2,0:0:0:0:
36,192,239090,1,0,0:0:0:0:
402,192,239158,1,2,0:0:0:0:
475,192,239158,1,0,0:0:0:0:
109,192,239226,1,2,0:0:0:0:
36,192,239226,1,0,0:0:0:0:
402,192,239363,1,2,0:0:0:0:
475,192,239363,1,0,0:0:0:0:
109,192,239431,1,2,0:0:0:0:
36,192,239431,1,0,0:0:0:0:
402,192,239499,1,2,0:0:0:0:
475,192,239499,1,0,0:0:0:0:
109,192,239635,1,2,0:0:0:0:
36,192,239635,1,0,0:0:0:0:
402,192,239704,1,2,0:0:0:0:
475,192,239704,1,0,0:0:0:0:
109,192,239772,1,2,0:0:0:0:
36,192,239772,1,0,0:0:0:0:
475,192,239908,1,0,0:0:0:0:
402,192,239908,1,2,0:0:0:0:
36,192,239976,1,0,0:0:0:0:
109,192,239976,1,2,0:0:0:0:
402,192,240045,1,2,0:0:0:0:
475,192,240045,1,0,0:0:0:0:
402,192,240249,1,2,0:0:0:0:
475,192,240249,1,0,0:0:0:0:
475,192,240454,1,0,0:0:0:0:
329,192,240454,1,2,0:0:0:0:
402,192,240454,1,0,0:0:0:0:
475,192,240658,1,0,0:0:0:0:
329,192,240658,1,0,0:0:0:0:
182,192,240658,1,2,0:0:0:0:
402,192,240658,1,0,0:0:0:0:
109,192,240863,1,2,0:0:0:0:
182,192,240863,1,0,0:0:0:0:
329,192,240863,1,0,0:0:0:0:
475,192,240863,1,0,0:0:0:0:
402,192,240863,1,0,0:0:0:0:
329,192,240999,1,2,0:0:0:0:
402,192,240999,1,0,0:0:0:0:
475,192,240999,1,0,0:0:0:0:
182,192,241067,1,2,0:0:0:0:
36,192,241067,1,0,0:0:0:0:
109,192,241067,1,0,0:0:0:0:
329,192,241135,1,2,0:0:0:0:
402,192,241135,1,0,0:0:0:0:
475,192,241135,1,0,0:0:0:0:
182,192,241226,1,2,0:0:0:0:
109,192,241226,1,0,0:0:0:0:
36,192,241226,1,0,0:0:0:0:
329,192,241317,1,2,0:0:0:0:
402,192,241317,1,0,0:0:0:0:
475,192,241317,1,0,0:0:0:0:
182,192,241408,1,2,0:0:0:0:
109,192,241408,1,0,0:0:0:0:
36,192,241408,1,0,0:0:0:0:
329,192,241499,1,2,0:0:0:0:
402,192,241499,1,0,0:0:0:0:
475,192,241499,1,0,0:0:0:0:
109,192,241590,1,0,0:0:0:0:
182,192,241590,1,2,0:0:0:0:
36,192,241590,1,0,0:0:0:0:
475,192,241681,128,0,242226:0:0:0:40:normal-hitnormal.wav
329,192,241681,128,0,242226:0:0:0:40:normal-hitnormal.wav
402,192,241681,128,0,242226:0:0:0:40:normal-hitnormal.wav
36,192,242226,128,0,244135:0:0:0:40:crx.wav
182,192,242226,128,2,243317:0:0:0:0:
109,192,242226,128,2,243863:0:0:0:0:
256,192,244135,5,2,0:0:0:0:
36,192,244408,1,2,0:0:0:0:
182,192,244408,1,0,0:0:0:40:normal-hitnormal.wav
329,192,244408,1,0,0:0:0:40:normal-hitnormal.wav
475,192,244408,1,2,0:0:0:0:
256,192,244408,1,0,0:0:0:40:crx.wav
109,192,244545,1,0,0:0:0:0:
256,192,244545,1,0,0:0:0:0:
402,192,244545,1,0,0:0:0:0:
36,192,244681,1,2,0:0:0:0:
182,192,244681,1,2,0:0:0:0:
329,192,244681,1,0,0:0:0:0:
475,192,244681,1,0,0:0:0:0:
109,192,244817,1,0,0:0:0:0:
256,192,244817,1,0,0:0:0:0:
402,192,244817,1,0,0:0:0:0:
182,192,244954,1,2,0:0:0:0:
329,192,244954,1,2,0:0:0:0:
475,192,244954,1,0,0:0:0:0:
36,192,244954,1,0,0:0:0:0:
36,192,245090,1,0,0:0:0:0:
109,192,245090,1,0,0:0:0:0:
256,192,245090,1,0,0:0:0:0:
402,192,245090,1,0,0:0:0:0:
36,192,245226,1,2,0:0:0:0:
182,192,245226,1,2,0:0:0:0:
329,192,245226,1,0,0:0:0:0:
475,192,245226,1,0,0:0:0:0:
402,192,245363,1,0,0:0:0:0:
256,192,245363,1,0,0:0:0:0:
109,192,245363,1,0,0:0:0:0:
475,192,245499,1,0,0:0:0:0:
109,192,245499,1,0,0:0:0:0:
329,192,245499,1,2,0:0:0:0:
182,192,245499,1,2,0:0:0:0:
402,192,245635,1,0,0:0:0:0:
36,192,245635,1,0,0:0:0:0:
256,192,245635,1,0,0:0:0:0:
329,192,245772,1,2,0:0:0:0:
109,192,245772,1,0,0:0:0:0:
182,192,245772,1,2,0:0:0:0:
475,192,245772,1,0,0:0:0:0:
256,192,245908,1,0,0:0:0:0:
402,192,245908,1,0,0:0:0:0:
36,192,245908,1,0,0:0:0:0:
109,192,245908,1,0,0:0:0:0:
182,192,246045,1,0,0:0:0:0:
475,192,246045,1,2,0:0:0:0:
329,192,246045,1,2,0:0:0:0:
256,192,246045,1,0,0:0:0:0:
109,192,246181,1,0,0:0:0:0:
402,192,246181,1,0,0:0:0:0:
36,192,246181,1,0,0:0:0:0:
36,192,246317,1,0,0:0:0:0:
256,192,246317,1,0,0:0:0:0:
182,192,246317,1,2,0:0:0:0:
329,192,246317,1,2,0:0:0:0:
329,192,246454,1,0,0:0:0:0:
109,192,246454,1,0,0:0:0:0:
475,192,246454,1,0,0:0:0:0:
182,192,246590,1,2,0:0:0:0:
256,192,246590,1,2,0:0:0:0:
402,192,246590,1,0,0:0:0:0:
36,192,246590,1,0,0:0:0:0:
329,192,246726,1,0,0:0:0:0:
109,192,246726,1,0,0:0:0:0:
475,192,246726,1,0,0:0:0:0:
36,192,246726,1,0,0:0:0:0:
182,192,246863,1,0,0:0:0:0:
256,192,246863,1,2,0:0:0:0:
402,192,246863,1,2,0:0:0:0:
36,192,246863,1,0,0:0:0:0:
329,192,246999,1,0,0:0:0:0:
109,192,246999,1,0,0:0:0:0:
182,192,246999,1,0,0:0:0:0:
402,192,247135,1,2,0:0:0:0:
36,192,247135,1,0,0:0:0:0:
256,192,247135,1,2,0:0:0:0:
475,192,247135,1,0,0:0:0:0:
475,192,247272,1,0,0:0:0:0:
182,192,247272,1,0,0:0:0:0:
329,192,247272,1,0,0:0:0:0:
109,192,247408,1,2,0:0:0:0:
256,192,247408,1,2,0:0:0:0:
36,192,247408,1,0,0:0:0:0:
402,192,247408,1,0,0:0:0:0:
36,192,247545,1,0,0:0:0:0:
329,192,247545,1,0,0:0:0:0:
182,192,247545,1,0,0:0:0:0:
475,192,247545,1,0,0:0:0:0:
402,192,247681,1,2,0:0:0:0:
256,192,247681,1,2,0:0:0:0:
329,192,247681,1,0,0:0:0:0:
109,192,247681,1,0,0:0:0:0:
475,192,247817,1,0,0:0:0:0:
182,192,247817,1,0,0:0:0:0:
36,192,247817,1,0,0:0:0:0:
109,192,247954,1,2,0:0:0:0:
329,192,247954,1,2,0:0:0:0:
402,192,247954,1,0,0:0:0:0:
182,192,247954,1,0,0:0:0:0:
36,192,248090,1,0,0:0:0:0:
256,192,248090,1,0,0:0:0:0:
475,192,248090,1,0,0:0:0:0:
402,192,248226,1,0,0:0:0:0:
182,192,248226,1,2,0:0:0:0:
36,192,248226,1,2,0:0:0:0:
109,192,248226,1,0,0:0:0:0:
475,192,248363,1,0,0:0:0:0:
109,192,248363,1,0,0:0:0:0:
256,192,248363,1,0,0:0:0:0:
182,192,248431,1,0,0:0:0:0:
329,192,248431,1,0,0:0:0:0:
256,192,248499,5,2,0:0:0:0:
402,192,248499,1,2,0:0:0:0:
36,192,248499,1,0,0:0:0:0:
475,192,248499,1,0,0:0:0:0:
182,192,248635,1,0,0:0:0:0:
329,192,248635,1,0,0:0:0:0:
109,192,248635,1,0,0:0:0:0:
402,192,248704,1,2,0:0:0:0:
475,192,248704,1,2,0:0:0:0:
36,192,248772,1,2,0:0:0:0:
329,192,248772,1,0,0:0:0:0:
182,192,248772,1,2,0:0:0:0:
256,192,248772,1,0,0:0:0:0:
402,192,248908,1,0,0:0:0:0:
256,192,248908,1,0,0:0:0:0:
109,192,248908,1,0,0:0:0:0:
475,192,249045,1,2,0:0:0:0:
329,192,249045,1,2,0:0:0:0:
182,192,249045,1,0,0:0:0:0:
36,192,249045,1,0,0:0:0:0:
402,192,249181,1,0,0:0:0:0:
256,192,249181,1,0,0:0:0:0:
109,192,249181,1,0,0:0:0:0:
329,192,249317,1,2,0:0:0:0:
182,192,249317,1,2,0:0:0:0:
36,192,249317,1,0,0:0:0:0:
475,192,249317,1,0,0:0:0:0:
475,192,249454,1,0,0:0:0:0:
402,192,249454,1,0,0:0:0:0:
256,192,249454,1,0,0:0:0:0:
36,192,249454,1,0,0:0:0:0:
475,192,249590,1,2,0:0:0:0:
329,192,249590,1,2,0:0:0:0:
182,192,249590,1,0,0:0:0:0:
109,192,249590,1,0,0:0:0:0:
402,192,249726,1,0,0:0:0:0:
256,192,249726,1,0,0:0:0:0:
36,192,249726,1,0,0:0:0:0:
36,192,249863,1,2,0:0:0:0:
402,192,249863,1,0,0:0:0:0:
182,192,249863,1,2,0:0:0:0:
329,192,249863,1,0,0:0:0:0:
109,192,249999,1,0,0:0:0:0:
475,192,249999,1,0,0:0:0:0:
256,192,249999,1,0,0:0:0:0:
182,192,250135,1,2,0:0:0:0:
402,192,250135,1,0,0:0:0:0:
329,192,250135,1,2,0:0:0:0:
36,192,250135,1,0,0:0:0:0:
256,192,250272,1,0,0:0:0:0:
109,192,250272,1,0,0:0:0:0:
475,192,250272,1,0,0:0:0:0:
402,192,250272,1,0,0:0:0:0:
329,192,250408,1,0,0:0:0:0:
36,192,250408,1,2,0:0:0:0:
182,192,250408,1,2,0:0:0:0:
475,192,250408,1,0,0:0:0:0:
402,192,250545,1,0,0:0:0:0:
109,192,250545,1,0,0:0:0:0:
256,192,250545,1,0,0:0:0:0:
475,192,250681,1,2,0:0:0:0:
36,192,250681,1,0,0:0:0:0:
329,192,250681,1,2,0:0:0:0:
182,192,250681,1,0,0:0:0:0:
256,192,250817,1,0,0:0:0:0:
402,192,250817,1,0,0:0:0:0:
109,192,250817,1,0,0:0:0:0:
329,192,250954,1,2,0:0:0:0:
475,192,250954,1,2,0:0:0:0:
182,192,250954,1,0,0:0:0:0:
36,192,250954,1,0,0:0:0:0:
109,192,251090,1,0,0:0:0:0:
402,192,251090,1,0,0:0:0:0:
36,192,251090,1,0,0:0:0:0:
475,192,251090,1,0,0:0:0:0:
329,192,251226,1,0,0:0:0:0:
256,192,251226,1,2,0:0:0:0:
182,192,251226,1,2,0:0:0:0:
36,192,251226,1,0,0:0:0:0:
109,192,251363,1,0,0:0:0:0:
402,192,251363,1,0,0:0:0:0:
329,192,251363,1,0,0:0:0:0:
182,192,251499,1,2,0:0:0:0:
475,192,251499,1,0,0:0:0:0:
256,192,251499,1,2,0:0:0:0:
36,192,251499,1,0,0:0:0:0:
36,192,251635,1,0,0:0:0:0:
329,192,251635,1,0,0:0:0:0:
109,192,251635,1,0,0:0:0:0:
402,192,251772,1,2,0:0:0:0:
256,192,251772,1,2,0:0:0:0:
475,192,251772,1,0,0:0:0:0:
109,192,251772,1,0,0:0:0:0:
475,192,251908,1,0,0:0:0:0:
182,192,251908,1,0,0:0:0:0:
329,192,251908,1,0,0:0:0:0:
36,192,251908,1,0,0:0:0:0:
109,192,252045,1,2,0:0:0:0:
256,192,252045,1,2,0:0:0:0:
182,192,252045,1,0,0:0:0:0:
402,192,252045,1,0,0:0:0:0:
475,192,252181,1,0,0:0:0:0:
329,192,252181,1,0,0:0:0:0:
36,192,252181,1,0,0:0:0:0:
256,192,252249,1,2,0:0:0:0:
182,192,252249,1,2,0:0:0:0:
36,192,252317,1,0,0:0:0:0:
109,192,252317,1,2,0:0:0:0:
402,192,252317,1,0,0:0:0:0:
475,192,252317,1,2,0:0:0:0:
329,192,252317,1,0,0:0:0:0:
256,192,252454,1,0,0:0:0:0:
182,192,252454,1,0,0:0:0:0:
329,192,252454,1,0,0:0:0:0:
36,192,252522,1,2,0:0:0:0:
475,192,252522,1,2,0:0:0:0:
329,192,252590,1,0,0:0:0:0:
256,192,252590,1,0,0:0:0:0:
109,192,252590,1,0,0:0:0:0:
182,192,252590,1,0,0:0:0:0:
402,192,252590,1,0,0:0:0:0:
475,192,252726,1,0,0:0:0:0:
36,192,252726,1,2,0:0:0:0:
109,192,252726,1,2,0:0:0:0:
402,192,252726,1,0,0:0:0:0:
329,192,252863,5,2,0:0:0:0:
182,192,252863,1,0,0:0:0:0:
36,192,252863,1,0,0:0:0:0:
475,192,252863,1,2,0:0:0:0:
256,192,252863,1,0,0:0:0:0:
475,192,252999,1,0,0:0:0:0:
36,192,252999,1,0,0:0:0:0:
256,192,252999,1,2,0:0:0:0:
109,192,252999,1,2,0:0:0:0:
402,192,252999,1,0,0:0:0:0:
475,192,253135,1,0,0:0:0:0:
36,192,253135,1,2,0:0:0:0:
182,192,253135,1,2,0:0:0:0:
329,192,253135,1,0,0:0:0:0:
402,192,253272,1,0,0:0:0:0:
256,192,253272,1,0,0:0:0:0:
109,192,253272,1,0,0:0:0:0:
329,192,253408,1,0,0:0:0:0:
475,192,253408,1,0,0:0:0:0:
36,192,253408,1,2,0:0:0:0:
182,192,253408,1,2,0:0:0:0:
475,192,253545,1,0,0:0:0:0:
256,192,253545,1,0,0:0:0:0:
109,192,253545,1,0,0:0:0:0:
402,192,253681,1,0,0:0:0:0:
329,192,253681,1,2,0:0:0:0:
182,192,253681,1,2,0:0:0:0:
36,192,253681,1,0,0:0:0:0:
256,192,253817,1,0,0:0:0:0:
475,192,253817,1,0,0:0:0:0:
36,192,253817,1,0,0:0:0:0:
109,192,253817,1,0,0:0:0:0:
329,192,253954,1,0,0:0:0:0:
182,192,253954,1,2,0:0:0:0:
36,192,253954,1,2,0:0:0:0:
402,192,253954,1,0,0:0:0:0:
475,192,254090,1,0,0:0:0:0:
256,192,254090,1,0,0:0:0:0:
402,192,254090,1,0,0:0:0:0:
329,192,254226,1,2,0:0:0:0:
182,192,254226,1,0,0:0:0:0:
475,192,254226,1,2,0:0:0:0:
109,192,254226,1,0,0:0:0:0:
256,192,254363,1,0,0:0:0:0:
36,192,254363,1,0,0:0:0:0:
402,192,254363,1,0,0:0:0:0:
182,192,254499,1,2,0:0:0:0:
109,192,254499,1,0,0:0:0:0:
329,192,254499,1,2,0:0:0:0:
475,192,254499,1,0,0:0:0:0:
36,192,254635,1,0,0:0:0:0:
109,192,254635,1,0,0:0:0:0:
256,192,254635,1,0,0:0:0:0:
402,192,254635,1,0,0:0:0:0:
329,192,254772,1,2,0:0:0:0:
475,192,254772,1,2,0:0:0:0:
182,192,254772,1,0,0:0:0:0:
36,192,254772,1,0,0:0:0:0:
256,192,254908,1,0,0:0:0:0:
402,192,254908,1,0,0:0:0:0:
109,192,254908,1,0,0:0:0:0:
182,192,255045,1,2,0:0:0:0:
329,192,255045,1,0,0:0:0:0:
36,192,255045,1,2,0:0:0:0:
475,192,255045,1,0,0:0:0:0:
475,192,255181,1,0,0:0:0:0:
109,192,255181,1,0,0:0:0:0:
256,192,255181,1,0,0:0:0:0:
402,192,255317,1,0,0:0:0:0:
36,192,255317,1,2,0:0:0:0:
182,192,255317,1,2,0:0:0:0:
329,192,255317,1,0,0:0:0:0:
475,192,255454,1,0,0:0:0:0:
36,192,255454,1,0,0:0:0:0:
329,192,255454,1,0,0:0:0:0:
109,192,255454,1,0,0:0:0:0:
402,192,255590,1,2,0:0:0:0:
256,192,255590,1,2,0:0:0:0:
182,192,255590,1,0,0:0:0:0:
36,192,255590,1,0,0:0:0:0:
182,192,255726,1,0,0:0:0:0:
109,192,255726,1,0,0:0:0:0:
329,192,255726,1,0,0:0:0:0:
475,192,255726,1,0,0:0:0:0:
256,192,255863,1,2,0:0:0:0:
109,192,255863,1,2,0:0:0:0:
36,192,255863,1,0,0:0:0:0:
402,192,255863,1,0,0:0:0:0:
329,192,255999,1,0,0:0:0:0:
182,192,255999,1,0,0:0:0:0:
475,192,255999,1,0,0:0:0:0:
36,192,256135,1,0,0:0:0:0:
256,192,256135,1,2,0:0:0:0:
109,192,256135,1,2,0:0:0:0:
402,192,256135,1,0,0:0:0:0:
182,192,256272,1,0,0:0:0:0:
475,192,256272,1,0,0:0:0:0:
36,192,256272,1,0,0:0:0:0:
329,192,256272,1,0,0:0:0:0:
109,192,256408,1,0,0:0:0:0:
329,192,256408,1,2,0:0:0:0:
402,192,256408,1,2,0:0:0:0:
256,192,256408,1,0,0:0:0:0:
36,192,256545,1,0,0:0:0:0:
475,192,256545,1,0,0:0:0:0:
256,192,256545,1,0,0:0:0:0:
182,192,256613,1,0,0:0:0:0:
329,192,256613,1,0,0:0:0:0:
256,192,256681,1,2,0:0:0:0:
402,192,256681,1,0,0:0:0:0:
109,192,256681,1,2,0:0:0:0:
475,192,256681,1,0,0:0:0:0:
36,192,256817,1,0,0:0:0:0:
329,192,256817,1,0,0:0:0:0:
182,192,256817,1,0,0:0:0:0:
329,192,256954,1,2,0:0:0:0:
109,192,256954,1,0,0:0:0:0:
475,192,256954,1,0,0:0:0:0:
256,192,256954,1,2,0:0:0:0:
36,192,257090,1,0,0:0:0:0:
182,192,257090,1,0,0:0:0:0:
402,192,257090,1,0,0:0:0:0:
329,192,257226,5,2,0:0:0:0:
109,192,257226,1,2,0:0:0:0:
475,192,257226,1,0,0:0:0:0:
256,192,257226,1,0,0:0:0:0:
109,192,257363,1,0,0:0:0:0:
475,192,257363,1,2,0:0:0:0:
329,192,257363,1,2,0:0:0:0:
109,192,257499,1,2,0:0:0:0:
329,192,257499,1,0,0:0:0:0:
36,192,257499,1,2,0:0:0:0:
475,192,257499,1,0,0:0:0:0:
182,192,257635,1,0,0:0:0:0:
256,192,257635,1,0,0:0:0:0:
402,192,257635,1,0,0:0:0:0:
109,192,257772,1,0,0:0:0:0:
36,192,257772,1,0,0:0:0:0:
475,192,257772,1,2,0:0:0:0:
329,192,257772,1,2,0:0:0:0:
36,192,257908,1,0,0:0:0:0:
256,192,257908,1,0,0:0:0:0:
402,192,257908,1,0,0:0:0:0:
109,192,258045,1,0,0:0:0:0:
182,192,258045,1,2,0:0:0:0:
329,192,258045,1,2,0:0:0:0:
475,192,258045,1,0,0:0:0:0:
256,192,258181,1,0,0:0:0:0:
36,192,258181,1,0,0:0:0:0:
475,192,258181,1,0,0:0:0:0:
402,192,258181,1,0,0:0:0:0:
182,192,258317,1,0,0:0:0:0:
329,192,258317,1,2,0:0:0:0:
475,192,258317,1,2,0:0:0:0:
109,192,258317,1,0,0:0:0:0:
36,192,258454,1,0,0:0:0:0:
256,192,258454,1,0,0:0:0:0:
109,192,258454,1,0,0:0:0:0:
182,192,258590,1,2,0:0:0:0:
329,192,258590,1,0,0:0:0:0:
36,192,258590,1,2,0:0:0:0:
402,192,258590,1,0,0:0:0:0:
256,192,258726,1,0,0:0:0:0:
475,192,258726,1,0,0:0:0:0:
109,192,258726,1,0,0:0:0:0:
329,192,258863,1,2,0:0:0:0:
402,192,258863,1,0,0:0:0:0:
182,192,258863,1,2,0:0:0:0:
36,192,258863,1,0,0:0:0:0:
475,192,258999,1,0,0:0:0:0:
402,192,258999,1,0,0:0:0:0:
256,192,258999,1,0,0:0:0:0:
109,192,258999,1,0,0:0:0:0:
182,192,259135,1,2,0:0:0:0:
36,192,259135,1,2,0:0:0:0:
329,192,259135,1,0,0:0:0:0:
475,192,259135,1,0,0:0:0:0:
256,192,259272,1,0,0:0:0:0:
109,192,259272,1,0,0:0:0:0:
402,192,259272,1,0,0:0:0:0:
329,192,259408,1,2,0:0:0:0:
182,192,259408,1,0,0:0:0:0:
475,192,259408,1,2,0:0:0:0:
256,192,259408,1,0,0:0:0:0:
36,192,259545,1,0,0:0:0:0:
402,192,259545,1,0,0:0:0:0:
109,192,259545,1,0,0:0:0:0:
182,192,259681,1,2,0:0:0:0:
109,192,259681,1,0,0:0:0:0:
475,192,259681,1,0,0:0:0:0:
329,192,259681,1,2,0:0:0:0:
36,192,259817,1,0,0:0:0:0:
402,192,259817,1,0,0:0:0:0:
182,192,259817,1,0,0:0:0:0:
256,192,259817,1,0,0:0:0:0:
109,192,259954,1,2,0:0:0:0:
256,192,259954,1,2,0:0:0:0:
329,192,259954,1,0,0:0:0:0:
475,192,259954,1,0,0:0:0:0:
329,192,260090,1,0,0:0:0:0:
402,192,260090,1,0,0:0:0:0:
182,192,260090,1,0,0:0:0:0:
256,192,260226,1,2,0:0:0:0:
36,192,260226,1,0,0:0:0:0:
402,192,260226,1,2,0:0:0:0:
475,192,260226,1,0,0:0:0:0:
182,192,260363,1,0,0:0:0:0:
329,192,260363,1,0,0:0:0:0:
109,192,260363,1,0,0:0:0:0:
475,192,260499,1,0,0:0:0:0:
256,192,260499,1,2,0:0:0:0:
402,192,260499,1,2,0:0:0:0:
36,192,260499,1,0,0:0:0:0:
329,192,260635,1,0,0:0:0:0:
36,192,260635,1,0,0:0:0:0:
475,192,260635,1,0,0:0:0:0:
182,192,260635,1,0,0:0:0:0:
182,192,260772,1,0,0:0:0:0:
256,192,260772,1,2,0:0:0:0:
109,192,260772,1,2,0:0:0:0:
402,192,260772,1,0,0:0:0:0:
36,192,260908,1,0,0:0:0:0:
329,192,260908,1,0,0:0:0:0:
475,192,260908,1,0,0:0:0:0:
182,192,260976,1,2,0:0:0:0:
256,192,260976,1,2,0:0:0:0:
109,192,261045,1,0,0:0:0:0:
36,192,261045,1,0,0:0:0:0:
329,192,261045,1,2,0:0:0:0:
402,192,261045,1,2,0:0:0:0:
475,192,261045,1,0,0:0:0:0:
256,192,261181,1,0,0:0:0:0:
109,192,261181,1,0,0:0:0:0:
475,192,261181,1,0,0:0:0:0:
402,192,261249,1,2,0:0:0:0:
182,192,261249,1,2,0:0:0:0:
329,192,261249,1,0,0:0:0:0:
475,192,261317,1,0,0:0:0:0:
36,192,261317,1,0,0:0:0:0:
109,192,261317,1,0,0:0:0:0:
256,192,261317,1,0,0:0:0:0:
475,192,261454,1,0,0:0:0:0:
329,192,261454,1,2,0:0:0:0:
182,192,261454,1,2,0:0:0:0:
36,192,261454,1,0,0:0:0:0:
256,192,261522,1,0,0:0:0:0:
329,192,261590,1,2,0:0:0:0:
109,192,261590,1,0,0:0:0:0:
402,192,261590,1,0,0:0:0:0:
182,192,261590,1,2,0:0:0:0:
256,192,261658,1,0,0:0:0:0:
329,192,261726,1,2,0:0:0:0:
182,192,261726,1,2,0:0:0:0:
109,192,261726,128,0,261863:0:0:0:0:
402,192,261795,1,0,0:0:0:0:
36,192,261863,1,0,0:0:0:0:
182,192,261863,1,2,0:0:0:40:normal-hitnormal.wav
329,192,261863,1,2,0:0:0:40:normal-hitnormal.wav
475,192,261863,1,0,0:0:0:0:
256,192,261863,1,0,0:0:0:40:crx.wav
109,192,261931,1,0,0:0:0:0:
256,192,261999,1,0,0:0:0:0:
329,192,261999,1,0,0:0:0:0:
402,192,261999,1,0,0:0:0:0:
109,192,262067,1,0,0:0:0:0:
402,192,262135,1,0,0:0:0:0:
36,192,262135,1,2,0:0:0:0:
182,192,262135,1,2,0:0:0:0:
475,192,262135,1,0,0:0:0:0:
329,192,262204,1,0,0:0:0:0:
109,192,262272,1,0,0:0:0:0:
256,192,262272,1,0,0:0:0:0:
475,192,262272,1,0,0:0:0:0:
329,192,262340,1,0,0:0:0:0:
36,192,262408,1,2,0:0:0:0:
182,192,262408,1,2,0:0:0:0:
402,192,262408,1,0,0:0:0:0:
256,192,262476,1,0,0:0:0:0:
36,192,262545,1,0,0:0:0:0:
109,192,262545,1,0,0:0:0:0:
475,192,262545,1,0,0:0:0:0:
329,192,262545,1,0,0:0:0:0:
182,192,262613,1,0,0:0:0:0:
36,192,262681,1,0,0:0:0:0:
329,192,262681,1,2,0:0:0:0:
256,192,262681,1,2,0:0:0:0:
109,192,262749,1,0,0:0:0:0:
402,192,262817,1,0,0:0:0:0:
256,192,262817,1,0,0:0:0:0:
475,192,262817,1,0,0:0:0:0:
182,192,262885,1,0,0:0:0:0:
475,192,262954,1,2,0:0:0:0:
109,192,262954,1,0,0:0:0:0:
329,192,262954,1,2,0:0:0:0:
36,192,262954,1,0,0:0:0:0:
182,192,263022,1,0,0:0:0:0:
402,192,263090,1,0,0:0:0:0:
36,192,263090,1,0,0:0:0:0:
256,192,263090,1,0,0:0:0:0:
329,192,263158,1,0,0:0:0:0:
402,192,263226,1,0,0:0:0:0:
109,192,263226,1,2,0:0:0:0:
182,192,263226,1,2,0:0:0:0:
475,192,263295,1,0,0:0:0:0:
256,192,263363,1,0,0:0:0:0:
36,192,263363,1,0,0:0:0:0:
109,192,263363,1,0,0:0:0:0:
329,192,263363,1,0,0:0:0:0:
182,192,263431,1,0,0:0:0:0:
36,192,263499,1,0,0:0:0:0:
475,192,263499,1,2,0:0:0:0:
402,192,263499,1,2,0:0:0:0:
256,192,263567,1,0,0:0:0:0:
329,192,263635,1,0,0:0:0:0:
109,192,263635,1,0,0:0:0:0:
182,192,263635,1,0,0:0:0:0:
402,192,263704,1,0,0:0:0:0:
36,192,263772,1,2,0:0:0:0:
256,192,263772,1,0,0:0:0:0:
182,192,263772,1,2,0:0:0:0:
475,192,263772,1,0,0:0:0:0:
329,192,263840,1,0,0:0:0:0:
256,192,263908,1,0,0:0:0:0:
109,192,263908,1,0,0:0:0:0:
475,192,263908,1,0,0:0:0:0:
329,192,263976,1,0,0:0:0:0:
36,192,264045,1,2,0:0:0:0:
402,192,264045,1,0,0:0:0:0:
109,192,264045,1,2,0:0:0:0:
182,192,264113,1,0,0:0:0:0:
329,192,264181,1,0,0:0:0:0:
475,192,264181,1,0,0:0:0:0:
36,192,264181,1,0,0:0:0:0:
256,192,264181,1,0,0:0:0:0:
109,192,264249,1,0,0:0:0:0:
475,192,264317,1,0,0:0:0:0:
182,192,264317,1,2,0:0:0:0:
256,192,264317,1,2,0:0:0:0:
402,192,264385,1,0,0:0:0:0:
329,192,264454,1,0,0:0:0:0:
109,192,264454,1,0,0:0:0:0:
36,192,264454,1,0,0:0:0:0:
256,192,264522,1,0,0:0:0:0:
402,192,264590,1,2,0:0:0:0:
36,192,264590,1,0,0:0:0:0:
475,192,264590,1,2,0:0:0:0:
182,192,264590,1,0,0:0:0:0:
109,192,264658,1,0,0:0:0:0:
329,192,264726,1,0,0:0:0:0:
475,192,264726,1,0,0:0:0:0:
182,192,264726,1,0,0:0:0:0:
256,192,264795,1,0,0:0:0:0:
109,192,264863,1,2,0:0:0:0:
36,192,264863,1,2,0:0:0:0:
402,192,264863,1,0,0:0:0:0:
256,192,264931,1,0,0:0:0:0:
36,192,264999,1,0,0:0:0:0:
329,192,264999,1,0,0:0:0:0:
182,192,264999,1,0,0:0:0:0:
475,192,264999,1,0,0:0:0:0:
109,192,265067,1,0,0:0:0:0:
402,192,265135,1,2,0:0:0:0:
256,192,265135,1,0,0:0:0:0:
329,192,265135,1,2,0:0:0:0:
182,192,265204,1,0,0:0:0:0:
475,192,265272,1,0,0:0:0:0:
109,192,265272,1,0,0:0:0:0:
402,192,265272,1,0,0:0:0:0:
36,192,265340,1,0,0:0:0:0:
329,192,265408,1,2,0:0:0:0:
109,192,265408,1,0,0:0:0:0:
256,192,265408,1,0,0:0:0:0:
475,192,265408,1,2,0:0:0:0:
182,192,265476,1,0,0:0:0:0:
36,192,265545,1,0,0:0:0:0:
475,192,265545,1,0,0:0:0:0:
256,192,265545,1,0,0:0:0:0:
402,192,265613,1,0,0:0:0:0:
329,192,265681,1,0,0:0:0:0:
182,192,265681,1,2,0:0:0:0:
36,192,265681,1,0,0:0:0:0:
109,192,265681,1,2,0:0:0:0:
256,192,265749,1,0,0:0:0:0:
475,192,265817,1,0,0:0:0:0:
402,192,265817,1,0,0:0:0:0:
329,192,265817,1,0,0:0:0:0:
182,192,265885,1,0,0:0:0:0:
256,192,265885,1,0,0:0:0:0:
109,192,265954,5,0,0:0:0:0:
36,192,265954,1,0,0:0:0:0:
402,192,265954,1,2,0:0:0:0:
475,192,265954,1,2,0:0:0:0:
182,192,266022,1,0,0:0:0:0:
329,192,266090,1,0,0:0:0:0:
256,192,266090,1,2,0:0:0:0:
36,192,266090,1,2,0:0:0:0:
402,192,266158,1,0,0:0:0:0:
475,192,266158,1,0,0:0:0:0:
182,192,266226,1,2,0:0:0:0:
109,192,266226,1,0,0:0:0:0:
329,192,266226,1,2,0:0:0:0:
475,192,266295,1,0,0:0:0:0:
402,192,266363,1,0,0:0:0:0:
256,192,266363,1,0,0:0:0:0:
36,192,266363,1,0,0:0:0:0:
182,192,266431,1,0,0:0:0:0:
109,192,266499,1,0,0:0:0:0:
475,192,266499,1,2,0:0:0:0:
329,192,266499,1,2,0:0:0:0:
36,192,266499,1,0,0:0:0:0:
402,192,266567,1,0,0:0:0:0:
182,192,266635,1,0,0:0:0:0:
256,192,266635,1,0,0:0:0:0:
109,192,266635,1,0,0:0:0:0:
329,192,266704,1,0,0:0:0:0:
402,192,266772,1,0,0:0:0:0:
182,192,266772,1,2,0:0:0:0:
36,192,266772,1,2,0:0:0:0:
256,192,266840,1,0,0:0:0:0:
109,192,266908,1,0,0:0:0:0:
475,192,266908,1,0,0:0:0:0:
402,192,266908,1,0,0:0:0:0:
36,192,266908,1,0,0:0:0:0:
182,192,266976,1,0,0:0:0:0:
475,192,267045,1,0,0:0:0:0:
402,192,267045,1,2,0:0:0:0:
329,192,267045,1,2,0:0:0:0:
182,192,267113,1,0,0:0:0:0:
109,192,267181,1,0,0:0:0:0:
256,192,267181,1,0,0:0:0:0:
36,192,267181,1,0,0:0:0:0:
329,192,267249,1,0,0:0:0:0:
475,192,267317,1,2,0:0:0:0:
182,192,267317,1,0,0:0:0:0:
36,192,267317,1,0,0:0:0:0:
402,192,267317,1,2,0:0:0:0:
256,192,267385,1,0,0:0:0:0:
109,192,267454,1,0,0:0:0:0:
475,192,267454,1,0,0:0:0:0:
329,192,267454,1,0,0:0:0:0:
182,192,267522,1,0,0:0:0:0:
36,192,267590,1,0,0:0:0:0:
402,192,267590,1,2,0:0:0:0:
329,192,267590,1,2,0:0:0:0:
182,192,267658,1,0,0:0:0:0:
36,192,267726,1,0,0:0:0:0:
256,192,267726,1,0,0:0:0:0:
109,192,267726,1,0,0:0:0:0:
475,192,267726,1,0,0:0:0:0:
402,192,267795,1,0,0:0:0:0:
329,192,267863,1,0,0:0:0:0:
109,192,267863,1,2,0:0:0:0:
182,192,267863,1,2,0:0:0:0:
256,192,267931,1,0,0:0:0:0:
36,192,267999,1,0,0:0:0:0:
182,192,267999,1,0,0:0:0:0:
475,192,267999,1,0,0:0:0:0:
109,192,268067,1,0,0:0:0:0:
475,192,268135,1,0,0:0:0:0:
256,192,268135,1,0,0:0:0:0:
402,192,268135,1,2,0:0:0:0:
36,192,268135,1,2,0:0:0:0:
329,192,268204,1,0,0:0:0:0:
109,192,268272,1,0,0:0:0:0:
402,192,268272,1,0,0:0:0:0:
256,192,268272,1,0,0:0:0:0:
182,192,268340,1,0,0:0:0:0:
329,192,268408,1,2,0:0:0:0:
475,192,268408,1,2,0:0:0:0:
36,192,268408,1,0,0:0:0:0:
256,192,268476,1,0,0:0:0:0:
182,192,268545,1,0,0:0:0:0:
36,192,268545,1,0,0:0:0:0:
475,192,268545,1,0,0:0:0:0:
109,192,268545,1,0,0:0:0:0:
402,192,268613,1,0,0:0:0:0:
36,192,268681,1,0,0:0:0:0:
329,192,268681,1,2,0:0:0:0:
256,192,268681,1,2,0:0:0:0:
109,192,268749,1,0,0:0:0:0:
475,192,268817,1,0,0:0:0:0:
182,192,268817,1,0,0:0:0:0:
402,192,268817,1,0,0:0:0:0:
329,192,268885,1,0,0:0:0:0:
109,192,268954,1,2,0:0:0:0:
475,192,268954,1,0,0:0:0:0:
256,192,268954,1,2,0:0:0:0:
36,192,268954,1,0,0:0:0:0:
182,192,269022,1,0,0:0:0:0:
402,192,269090,1,0,0:0:0:0:
36,192,269090,1,0,0:0:0:0:
329,192,269090,1,0,0:0:0:0:
182,192,269158,1,0,0:0:0:0:
402,192,269226,1,2,0:0:0:0:
256,192,269226,1,2,0:0:0:0:
475,192,269226,1,0,0:0:0:0:
109,192,269295,1,0,0:0:0:0:
475,192,269363,1,0,0:0:0:0:
182,192,269363,1,0,0:0:0:0:
329,192,269363,1,0,0:0:0:0:
36,192,269363,1,0,0:0:0:0:
402,192,269431,1,0,0:0:0:0:
329,192,269499,1,2,0:0:0:0:
256,192,269499,1,2,0:0:0:0:
182,192,269499,1,0,0:0:0:0:
402,192,269567,1,0,0:0:0:0:
475,192,269635,1,0,0:0:0:0:
109,192,269635,1,0,0:0:0:0:
36,192,269635,1,0,0:0:0:0:
256,192,269704,1,2,0:0:0:0:
182,192,269704,1,2,0:0:0:0:
329,192,269704,1,0,0:0:0:0:
36,192,269772,1,0,0:0:0:0:
109,192,269772,1,0,0:0:0:0:
475,192,269772,1,2,0:0:0:0:
402,192,269772,1,2,0:0:0:0:
329,192,269840,1,0,0:0:0:0:
109,192,269908,1,0,0:0:0:0:
36,192,269908,1,0,0:0:0:0:
475,192,269908,1,0,0:0:0:0:
329,192,269976,1,2,0:0:0:0:
182,192,269976,1,2,0:0:0:0:
256,192,269976,1,0,0:0:0:0:
109,192,270045,1,0,0:0:0:0:
402,192,270045,1,0,0:0:0:0:
475,192,270045,1,0,0:0:0:0:
36,192,270045,1,0,0:0:0:0:
182,192,270113,1,0,0:0:0:0:
329,192,270181,1,2,0:0:0:0:
402,192,270181,1,2,0:0:0:0:
36,192,270181,1,0,0:0:0:0:
475,192,270181,1,0,0:0:0:0:
182,192,270249,1,0,0:0:0:0:
402,192,270317,1,2,0:0:0:0:
109,192,270317,1,0,0:0:0:0:
36,192,270317,1,0,0:0:0:0:
475,192,270317,1,2,0:0:0:0:
329,192,270385,1,0,0:0:0:0:
182,192,270454,1,2,0:0:0:0:
256,192,270454,1,2,0:0:0:0:
475,192,270454,1,0,0:0:0:0:
36,192,270454,1,0,0:0:0:0:
329,192,270522,1,0,0:0:0:0:
475,192,270590,1,0,0:0:0:0:
36,192,270590,1,2,0:0:0:0:
109,192,270590,1,2,0:0:0:0:
402,192,270590,1,0,0:0:0:0:
256,192,270658,1,0,0:0:0:0:
475,192,270726,1,0,0:0:0:0:
329,192,270726,1,0,0:0:0:0:
182,192,270726,1,0,0:0:0:0:
36,192,270795,1,0,0:0:0:0:
329,192,270863,1,0,0:0:0:0:
402,192,270863,1,0,0:0:0:0:
109,192,270863,1,2,0:0:0:0:
182,192,270863,1,2,0:0:0:0:
256,192,270931,1,0,0:0:0:0:
475,192,270999,1,0,0:0:0:0:
402,192,270999,1,0,0:0:0:0:
36,192,270999,1,0,0:0:0:0:
182,192,271067,1,0,0:0:0:0:
109,192,271135,1,0,0:0:0:0:
475,192,271135,1,2,0:0:0:0:
329,192,271135,1,2,0:0:0:0:
182,192,271204,1,0,0:0:0:0:
256,192,271272,1,0,0:0:0:0:
329,192,271272,1,0,0:0:0:0:
36,192,271272,1,0,0:0:0:0:
109,192,271272,1,0,0:0:0:0:
402,192,271340,1,0,0:0:0:0:
256,192,271408,1,0,0:0:0:0:
182,192,271408,1,2,0:0:0:0:
475,192,271408,1,2,0:0:0:0:
36,192,271476,1,0,0:0:0:0:
182,192,271545,1,0,0:0:0:0:
329,192,271545,1,0,0:0:0:0:
402,192,271545,1,0,0:0:0:0:
256,192,271613,1,0,0:0:0:0:
36,192,271681,1,0,0:0:0:0:
329,192,271681,1,2,0:0:0:0:
475,192,271681,1,0,0:0:0:0:
109,192,271681,1,2,0:0:0:0:
182,192,271749,1,0,0:0:0:0:
402,192,271817,1,0,0:0:0:0:
256,192,271817,1,0,0:0:0:0:
36,192,271817,1,0,0:0:0:0:
475,192,271885,1,0,0:0:0:0:
109,192,271954,1,2,0:0:0:0:
402,192,271954,1,2,0:0:0:0:
329,192,271954,1,0,0:0:0:0:
182,192,272022,1,0,0:0:0:0:
475,192,272090,1,0,0:0:0:0:
256,192,272090,1,0,0:0:0:0:
36,192,272090,1,0,0:0:0:0:
109,192,272090,1,0,0:0:0:0:
329,192,272158,1,0,0:0:0:0:
36,192,272226,1,2,0:0:0:0:
475,192,272226,1,0,0:0:0:0:
182,192,272226,1,2,0:0:0:0:
329,192,272295,1,0,0:0:0:0:
256,192,272363,1,0,0:0:0:0:
402,192,272363,1,0,0:0:0:0:
109,192,272363,1,0,0:0:0:0:
475,192,272431,1,0,0:0:0:0:
182,192,272499,1,2,0:0:0:0:
329,192,272499,1,2,0:0:0:0:
36,192,272499,1,0,0:0:0:0:
256,192,272499,1,0,0:0:0:0:
402,192,272567,1,0,0:0:0:0:
475,192,272635,1,0,0:0:0:0:
109,192,272635,1,0,0:0:0:0:
182,192,272635,1,0,0:0:0:0:
329,192,272704,1,0,0:0:0:0:
402,192,272772,1,0,0:0:0:0:
36,192,272772,1,2,0:0:0:0:
256,192,272772,1,2,0:0:0:0:
475,192,272840,1,0,0:0:0:0:
402,192,272908,1,0,0:0:0:0:
182,192,272908,1,0,0:0:0:0:
329,192,272908,1,0,0:0:0:0:
36,192,272908,1,0,0:0:0:0:
109,192,272976,1,0,0:0:0:0:
475,192,273045,1,0,0:0:0:0:
256,192,273045,1,2,0:0:0:0:
329,192,273045,1,2,0:0:0:0:
109,192,273113,1,0,0:0:0:0:
36,192,273181,1,0,0:0:0:0:
182,192,273181,1,0,0:0:0:0:
256,192,273181,1,0,0:0:0:0:
402,192,273249,1,0,0:0:0:0:
109,192,273317,1,2,0:0:0:0:
329,192,273317,1,0,0:0:0:0:
475,192,273317,1,0,0:0:0:0:
36,192,273317,1,2,0:0:0:0:
256,192,273385,1,0,0:0:0:0:
109,192,273454,1,0,0:0:0:0:
182,192,273454,1,0,0:0:0:0:
475,192,273454,1,0,0:0:0:0:
402,192,273522,1,0,0:0:0:0:
329,192,273590,1,2,0:0:0:0:
256,192,273590,1,2,0:0:0:0:
36,192,273590,1,0,0:0:0:0:
182,192,273658,1,0,0:0:0:0:
109,192,273726,1,0,0:0:0:0:
475,192,273726,1,0,0:0:0:0:
36,192,273726,1,0,0:0:0:0:
329,192,273726,1,0,0:0:0:0:
182,192,273795,1,0,0:0:0:0:
109,192,273863,1,0,0:0:0:0:
256,192,273863,1,2,0:0:0:0:
402,192,273863,1,2,0:0:0:0:
329,192,273931,1,0,0:0:0:0:
36,192,273999,1,0,0:0:0:0:
475,192,273999,1,0,0:0:0:0:
256,192,273999,1,0,0:0:0:0:
182,192,274067,1,0,0:0:0:0:
402,192,274067,1,0,0:0:0:0:
329,192,274135,1,2,0:0:0:0:
475,192,274135,1,2,0:0:0:0:
109,192,274135,1,0,0:0:0:0:
182,192,274204,1,0,0:0:0:0:
109,192,274272,1,0,0:0:0:0:
256,192,274272,1,0,0:0:0:0:
402,192,274272,1,0,0:0:0:0:
329,192,274340,1,0,0:0:0:0:
402,192,274408,1,0,0:0:0:0:
36,192,274408,1,2,0:0:0:0:
475,192,274408,1,0,0:0:0:0:
182,192,274408,1,2,0:0:0:0:
109,192,274476,1,0,0:0:0:0:
329,192,274545,1,0,0:0:0:0:
402,192,274545,1,0,0:0:0:0:
475,192,274545,1,0,0:0:0:0:
182,192,274613,1,0,0:0:0:0:
256,192,274681,5,2,0:0:0:0:
109,192,274681,1,0,0:0:0:0:
402,192,274681,1,2,0:0:0:0:
475,192,274681,1,0,0:0:0:0:
36,192,274681,1,0,0:0:0:0:
329,192,274749,1,0,0:0:0:0:
402,192,274817,1,0,0:0:0:0:
36,192,274817,1,0,0:0:0:0:
182,192,274817,1,0,0:0:0:0:
475,192,274817,1,0,0:0:0:0:
109,192,274885,1,0,0:0:0:0:
475,192,274954,1,2,0:0:0:0:
256,192,274954,1,2,0:0:0:0:
36,192,274954,1,0,0:0:0:0:
402,192,274954,1,0,0:0:0:0:
182,192,275022,1,0,0:0:0:0:
329,192,275090,1,0,0:0:0:0:
109,192,275090,1,0,0:0:0:0:
256,192,275090,1,0,0:0:0:0:
402,192,275158,1,0,0:0:0:0:
109,192,275226,1,0,0:0:0:0:
36,192,275226,1,0,0:0:0:0:
475,192,275226,1,2,0:0:0:0:
329,192,275226,1,2,0:0:0:0:
182,192,275295,1,0,0:0:0:0:
36,192,275363,1,0,0:0:0:0:
256,192,275363,1,0,0:0:0:0:
402,192,275363,1,0,0:0:0:0:
329,192,275431,1,0,0:0:0:0:
475,192,275499,1,0,0:0:0:0:
109,192,275499,1,2,0:0:0:0:
182,192,275499,1,2,0:0:0:0:
329,192,275567,1,0,0:0:0:0:
256,192,275635,1,0,0:0:0:0:
36,192,275635,1,0,0:0:0:0:
475,192,275635,1,0,0:0:0:0:
402,192,275635,1,0,0:0:0:0:
182,192,275704,1,0,0:0:0:0:
109,192,275772,1,0,0:0:0:0:
329,192,275772,1,2,0:0:0:0:
402,192,275772,1,2,0:0:0:0:
256,192,275840,1,0,0:0:0:0:
475,192,275908,1,0,0:0:0:0:
182,192,275908,1,0,0:0:0:0:
36,192,275908,1,0,0:0:0:0:
256,192,275976,1,0,0:0:0:0:
475,192,276045,1,0,0:0:0:0:
182,192,276045,1,2,0:0:0:0:
329,192,276045,1,2,0:0:0:0:
109,192,276045,1,0,0:0:0:0:
402,192,276113,1,0,0:0:0:0:
329,192,276181,1,0,0:0:0:0:
256,192,276181,1,0,0:0:0:0:
36,192,276181,1,0,0:0:0:0:
182,192,276249,1,0,0:0:0:0:
109,192,276317,1,2,0:0:0:0:
329,192,276317,1,2,0:0:0:0:
402,192,276317,1,0,0:0:0:0:
182,192,276385,1,0,0:0:0:0:
36,192,276454,1,0,0:0:0:0:
475,192,276454,1,0,0:0:0:0:
256,192,276454,1,0,0:0:0:0:
109,192,276454,1,0,0:0:0:0:
329,192,276522,1,0,0:0:0:0:
402,192,276590,1,0,0:0:0:0:
182,192,276590,1,2,0:0:0:0:
36,192,276590,1,2,0:0:0:0:
256,192,276658,1,0,0:0:0:0:
329,192,276726,1,0,0:0:0:0:
109,192,276726,1,0,0:0:0:0:
402,192,276726,1,0,0:0:0:0:
182,192,276795,1,0,0:0:0:0:
36,192,276863,1,0,0:0:0:0:
329,192,276863,1,2,0:0:0:0:
475,192,276863,1,0,0:0:0:0:
256,192,276863,1,2,0:0:0:0:
182,192,276931,1,0,0:0:0:0:
329,192,276999,1,0,0:0:0:0:
109,192,276999,1,0,0:0:0:0:
402,192,276999,1,0,0:0:0:0:
256,192,277067,1,0,0:0:0:0:
182,192,277135,1,2,0:0:0:0:
475,192,277135,1,0,0:0:0:0:
36,192,277135,1,2,0:0:0:0:
402,192,277135,1,0,0:0:0:0:
329,192,277204,1,0,0:0:0:0:
109,192,277272,1,0,0:0:0:0:
36,192,277272,1,0,0:0:0:0:
475,192,277272,1,0,0:0:0:0:
256,192,277272,1,0,0:0:0:0:
182,192,277340,1,0,0:0:0:0:
402,192,277408,1,2,0:0:0:0:
109,192,277408,1,0,0:0:0:0:
256,192,277408,1,2,0:0:0:0:
329,192,277476,1,0,0:0:0:0:
36,192,277545,1,0,0:0:0:0:
475,192,277545,1,0,0:0:0:0:
182,192,277545,1,0,0:0:0:0:
329,192,277613,1,0,0:0:0:0:
256,192,277681,1,2,0:0:0:0:
36,192,277681,1,0,0:0:0:0:
109,192,277681,1,2,0:0:0:0:
475,192,277681,1,0,0:0:0:0:
402,192,277749,1,0,0:0:0:0:
109,192,277817,1,0,0:0:0:0:
329,192,277817,1,0,0:0:0:0:
36,192,277817,1,0,0:0:0:0:
182,192,277885,1,2,0:0:0:0:
256,192,277885,1,2,0:0:0:0:
329,192,277954,1,2,0:0:0:0:
475,192,277954,1,0,0:0:0:0:
402,192,277954,1,2,0:0:0:0:
182,192,278022,1,0,0:0:0:0:
329,192,278090,1,0,0:0:0:0:
475,192,278090,1,0,0:0:0:0:
256,192,278090,128,0,278226:0:0:0:0:
182,192,278158,1,0,0:0:0:0:
109,192,278226,1,0,0:0:0:0:
402,192,278226,1,0,0:0:0:0:
36,192,278226,1,0,0:0:0:0:
475,192,278226,1,0,0:0:0:0:
329,192,278295,1,0,0:0:0:0:
256,192,278363,1,0,0:0:0:0:
475,192,278363,1,0,0:0:0:0:
402,192,278431,1,0,0:0:0:0:
182,192,278431,1,0,0:0:0:0:
109,192,278499,1,8,0:0:0:0:
36,192,278499,1,0,0:0:0:0:
329,192,278499,1,0,0:0:0:0:
402,192,278567,1,0,0:0:0:0:
475,192,278635,1,0,0:0:0:0:
182,192,278635,1,0,0:0:0:0:
256,192,278704,1,0,0:0:0:0:
402,192,278772,1,0,0:0:0:0:
329,192,278772,1,0,0:0:0:0:
36,192,278772,1,0,0:0:0:0:
256,192,278840,1,0,0:0:0:0:
475,192,278908,1,0,0:0:0:0:
182,192,278908,1,0,0:0:0:0:
109,192,278976,1,0,0:0:0:0:
329,192,278976,1,0,0:0:0:0:
475,192,279045,1,0,0:0:0:0:
36,192,279045,1,0,0:0:0:0:
256,192,279045,1,8,0:0:0:0:
402,192,279113,1,0,0:0:0:0:
182,192,279113,1,0,0:0:0:0:
109,192,279181,1,0,0:0:0:0:
256,192,279181,1,0,0:0:0:0:
182,192,279249,1,0,0:0:0:0:
329,192,279249,1,0,0:0:0:0:
475,192,279317,1,0,0:0:0:0:
256,192,279317,1,0,0:0:0:40:crx.wav
109,192,279317,1,2,0:0:0:40:normal-hitnormal.wav
36,192,279317,1,0,0:0:0:0:
402,192,279317,1,2,0:0:0:40:normal-hitnormal.wav
256,192,279454,1,0,0:0:0:0:
182,192,279454,1,0,0:0:0:0:
329,192,279454,1,0,0:0:0:0:
109,192,279590,1,0,0:0:0:0:
182,192,279590,1,2,0:0:0:0:
36,192,279590,1,0,0:0:0:0:
475,192,279590,1,8,0:0:0:0:
329,192,279590,1,2,0:0:0:0:
36,192,279726,1,0,0:0:0:0:
256,192,279726,1,0,0:0:0:0:
402,192,279726,1,0,0:0:0:0:
109,192,279863,1,0,0:0:0:0:
182,192,279863,1,2,0:0:0:0:
329,192,279863,1,2,0:0:0:0:
109,192,279999,1,0,0:0:0:0:
256,192,279999,1,0,0:0:0:0:
36,192,279999,1,8,0:0:0:0:
475,192,279999,1,0,0:0:0:0:
402,192,279999,1,0,0:0:0:0:
182,192,280135,1,0,0:0:0:0:
329,192,280135,1,2,0:0:0:0:
475,192,280135,1,2,0:0:0:0:
256,192,280204,1,0,0:0:0:0:
402,192,280204,1,0,0:0:0:0:
36,192,280272,1,0,0:0:0:0:
329,192,280272,1,0,0:0:0:0:
182,192,280272,1,0,0:0:0:0:
109,192,280340,1,0,0:0:0:0:
256,192,280340,1,0,0:0:0:0:
475,192,280408,1,0,0:0:0:0:
182,192,280408,1,2,0:0:0:0:
329,192,280408,1,8,0:0:0:0:
36,192,280408,1,2,0:0:0:0:
402,192,280408,1,0,0:0:0:0:
256,192,280545,1,0,0:0:0:0:
475,192,280545,1,0,0:0:0:0:
109,192,280545,1,0,0:0:0:0:
329,192,280613,1,0,0:0:0:0:
402,192,280613,1,0,0:0:0:0:
36,192,280681,1,0,0:0:0:0:
256,192,280681,1,2,0:0:0:0:
475,192,280681,1,0,0:0:0:0:
182,192,280681,1,2,0:0:0:0:
109,192,280749,1,0,0:0:0:0:
329,192,280749,1,0,0:0:0:0:
182,192,280817,1,0,0:0:0:0:
475,192,280817,1,0,0:0:0:0:
256,192,280817,1,8,0:0:0:0:
36,192,280817,1,0,0:0:0:0:
402,192,280817,1,0,0:0:0:0:
182,192,280954,1,2,0:0:0:0:
36,192,280954,1,2,0:0:0:0:
402,192,280954,1,0,0:0:0:0:
329,192,281022,1,0,0:0:0:0:
475,192,281022,1,0,0:0:0:0:
256,192,281090,1,0,0:0:0:0:
109,192,281090,1,0,0:0:0:0:
402,192,281090,1,0,0:0:0:0:
182,192,281158,1,0,0:0:0:0:
329,192,281158,1,0,0:0:0:0:
36,192,281226,1,0,0:0:0:0:
402,192,281226,1,0,0:0:0:0:
256,192,281226,1,2,0:0:0:0:
475,192,281226,1,2,0:0:0:0:
109,192,281226,1,8,0:0:0:0:
329,192,281363,1,0,0:0:0:0:
475,192,281363,1,0,0:0:0:0:
182,192,281363,1,0,0:0:0:0:
256,192,281431,1,0,0:0:0:0:
402,192,281431,1,0,0:0:0:0:
109,192,281499,1,2,0:0:0:0:
329,192,281499,1,0,0:0:0:0:
36,192,281499,1,2,0:0:0:0:
256,192,281635,1,8,0:0:0:0:
36,192,281635,1,0,0:0:0:0:
475,192,281635,1,0,0:0:0:0:
182,192,281635,1,0,0:0:0:0:
402,192,281635,1,0,0:0:0:0:
182,192,281772,1,2,0:0:0:0:
109,192,281772,1,0,0:0:0:0:
329,192,281772,1,2,0:0:0:0:
256,192,281840,1,0,0:0:0:0:
475,192,281840,1,0,0:0:0:0:
109,192,281908,1,0,0:0:0:0:
36,192,281908,1,0,0:0:0:0:
402,192,281908,1,0,0:0:0:0:
182,192,281976,1,0,0:0:0:0:
329,192,281976,1,0,0:0:0:0:
256,192,282045,1,0,0:0:0:0:
36,192,282045,1,0,0:0:0:0:
109,192,282045,1,8,0:0:0:0:
475,192,282045,1,2,0:0:0:0:
402,192,282045,1,2,0:0:0:0:
475,192,282181,1,0,0:0:0:0:
256,192,282181,1,0,0:0:0:0:
36,192,282181,1,0,0:0:0:0:
109,192,282317,1,0,0:0:0:0:
182,192,282317,1,2,0:0:0:0:
329,192,282317,1,2,0:0:0:0:
256,192,282385,1,0,0:0:0:0:
402,192,282385,1,0,0:0:0:0:
182,192,282454,1,0,0:0:0:0:
109,192,282454,1,0,0:0:0:0:
329,192,282454,1,8,0:0:0:0:
36,192,282454,1,0,0:0:0:0:
475,192,282454,1,0,0:0:0:0:
402,192,282590,1,0,0:0:0:0:
182,192,282590,1,2,0:0:0:0:
36,192,282590,1,2,0:0:0:0:
256,192,282726,1,0,0:0:0:0:
402,192,282726,1,0,0:0:0:0:
109,192,282726,1,0,0:0:0:0:
182,192,282795,1,0,0:0:0:0:
329,192,282795,1,0,0:0:0:0:
36,192,282863,1,0,0:0:0:0:
475,192,282863,1,2,0:0:0:0:
109,192,282863,1,8,0:0:0:0:
402,192,282863,1,2,0:0:0:0:
256,192,282863,1,0,0:0:0:0:
329,192,282999,1,0,0:0:0:0:
36,192,282999,1,0,0:0:0:0:
182,192,282999,1,0,0:0:0:0:
109,192,283067,1,8,0:0:0:0:
256,192,283067,1,0,0:0:0:0:
475,192,283135,1,0,0:0:0:0:
182,192,283135,1,2,0:0:0:0:
402,192,283135,1,0,0:0:0:0:
329,192,283135,1,2,0:0:0:0:
256,192,283272,1,0,0:0:0:0:
402,192,283272,1,0,0:0:0:0:
109,192,283272,1,0,0:0:0:0:
182,192,283340,1,8,0:0:0:0:
329,192,283340,1,0,0:0:0:0:
256,192,283408,5,2,0:0:0:0:
402,192,283408,1,0,0:0:0:0:
36,192,283408,1,0,0:0:0:0:
475,192,283408,1,0,0:0:0:0:
109,192,283408,1,2,0:0:0:0:
182,192,283545,1,0,0:0:0:0:
475,192,283545,1,0,0:0:0:0:
329,192,283545,1,0,0:0:0:0:
256,192,283613,1,0,0:0:0:0:
402,192,283613,1,8,0:0:0:0:
329,192,283681,1,2,0:0:0:0:
475,192,283681,1,0,0:0:0:0:
109,192,283681,1,0,0:0:0:0:
182,192,283681,1,0,0:0:0:0:
36,192,283681,1,2,0:0:0:0:
109,192,283817,1,0,0:0:0:0:
256,192,283817,1,0,0:0:0:0:
402,192,283817,1,0,0:0:0:0:
402,192,283954,1,0,0:0:0:0:
36,192,283954,1,8,0:0:0:0:
182,192,283954,1,2,0:0:0:0:
329,192,283954,1,2,0:0:0:0:
475,192,283954,1,0,0:0:0:0:
109,192,284090,1,0,0:0:0:0:
256,192,284090,1,0,0:0:0:0:
475,192,284090,1,0,0:0:0:0:
182,192,284226,1,0,0:0:0:0:
329,192,284226,1,2,0:0:0:0:
402,192,284226,1,2,0:0:0:0:
402,192,284363,1,0,0:0:0:0:
36,192,284363,1,0,0:0:0:0:
109,192,284363,1,0,0:0:0:0:
256,192,284363,1,8,0:0:0:0:
475,192,284363,1,0,0:0:0:0:
36,192,284499,1,2,0:0:0:0:
182,192,284499,1,2,0:0:0:0:
329,192,284499,1,0,0:0:0:0:
109,192,284567,1,0,0:0:0:0:
256,192,284567,1,0,0:0:0:0:
475,192,284635,1,0,0:0:0:0:
182,192,284635,1,0,0:0:0:0:
329,192,284635,1,0,0:0:0:0:
256,192,284704,1,0,0:0:0:0:
402,192,284704,1,0,0:0:0:0:
36,192,284772,1,0,0:0:0:0:
475,192,284772,1,2,0:0:0:0:
109,192,284772,1,8,0:0:0:0:
329,192,284772,1,2,0:0:0:0:
182,192,284772,1,0,0:0:0:0:
402,192,284908,1,0,0:0:0:0:
36,192,284908,1,0,0:0:0:0:
256,192,284908,1,0,0:0:0:0:
475,192,285045,1,0,0:0:0:0:
329,192,285045,1,2,0:0:0:0:
109,192,285045,1,0,0:0:0:0:
182,192,285045,1,2,0:0:0:0:
256,192,285113,1,0,0:0:0:0:
402,192,285113,1,0,0:0:0:0:
329,192,285181,1,0,0:0:0:0:
182,192,285181,1,8,0:0:0:0:
475,192,285181,1,0,0:0:0:0:
36,192,285181,1,0,0:0:0:0:
109,192,285181,1,0,0:0:0:0:
36,192,285317,1,0,0:0:0:0:
402,192,285317,1,2,0:0:0:0:
256,192,285317,1,2,0:0:0:0:
109,192,285454,1,0,0:0:0:0:
329,192,285454,1,0,0:0:0:0:
182,192,285454,1,0,0:0:0:0:
402,192,285590,1,8,0:0:0:0:
475,192,285590,1,0,0:0:0:0:
256,192,285590,1,0,0:0:0:0:
36,192,285590,1,2,0:0:0:0:
109,192,285590,1,2,0:0:0:0:
329,192,285726,1,0,0:0:0:0:
182,192,285726,1,0,0:0:0:0:
475,192,285726,1,0,0:0:0:0:
109,192,285863,1,2,0:0:0:0:
36,192,285863,1,0,0:0:0:0:
402,192,285863,1,2,0:0:0:0:
329,192,285931,1,0,0:0:0:0:
182,192,285931,1,0,0:0:0:0:
109,192,285999,1,8,0:0:0:0:
475,192,285999,1,0,0:0:0:0:
36,192,285999,1,0,0:0:0:0:
256,192,285999,1,0,0:0:0:0:
402,192,285999,1,0,0:0:0:0:
182,192,286135,1,0,0:0:0:0:
256,192,286135,1,2,0:0:0:0:
329,192,286135,1,2,0:0:0:0:
109,192,286204,1,0,0:0:0:0:
475,192,286204,1,0,0:0:0:0:
402,192,286272,1,0,0:0:0:0:
36,192,286272,1,0,0:0:0:0:
182,192,286272,1,0,0:0:0:0:
256,192,286340,1,0,0:0:0:0:
329,192,286340,1,0,0:0:0:0:
36,192,286408,1,2,0:0:0:0:
109,192,286408,1,0,0:0:0:0:
475,192,286408,1,0,0:0:0:0:
402,192,286408,1,8,0:0:0:0:
182,192,286408,1,2,0:0:0:0:
475,192,286545,1,0,0:0:0:0:
256,192,286545,1,0,0:0:0:0:
329,192,286545,1,0,0:0:0:0:
402,192,286613,1,0,0:0:0:0:
182,192,286613,1,0,0:0:0:0:
109,192,286681,1,2,0:0:0:0:
36,192,286681,1,0,0:0:0:0:
329,192,286681,1,2,0:0:0:0:
402,192,286749,1,0,0:0:0:0:
182,192,286749,1,0,0:0:0:0:
109,192,286817,1,0,0:0:0:0:
36,192,286817,1,0,0:0:0:0:
329,192,286817,1,0,0:0:0:0:
256,192,286817,1,8,0:0:0:0:
475,192,286817,1,0,0:0:0:0:
402,192,286954,1,2,0:0:0:0:
182,192,286954,1,0,0:0:0:0:
329,192,286954,1,2,0:0:0:0:
256,192,287090,1,0,0:0:0:0:
475,192,287090,1,0,0:0:0:0:
36,192,287090,1,0,0:0:0:0:
182,192,287158,1,0,0:0:0:0:
329,192,287158,1,8,0:0:0:0:
36,192,287226,1,0,0:0:0:0:
475,192,287226,1,0,0:0:0:0:
256,192,287226,1,2,0:0:0:0:
109,192,287226,1,2,0:0:0:0:
402,192,287226,1,0,0:0:0:0:
402,192,287363,1,0,0:0:0:0:
182,192,287363,1,0,0:0:0:0:
36,192,287363,1,0,0:0:0:0:
475,192,287363,1,0,0:0:0:0:
109,192,287431,1,0,0:0:0:0:
329,192,287431,1,8,0:0:0:0:
402,192,287499,1,0,0:0:0:0:
182,192,287499,1,2,0:0:0:0:
36,192,287499,1,2,0:0:0:0:
256,192,287499,1,0,0:0:0:0:
475,192,287635,1,0,0:0:0:0:
109,192,287635,1,0,0:0:0:0:
256,192,287635,1,0,0:0:0:0:
182,192,287704,1,8,0:0:0:0:
329,192,287704,1,0,0:0:0:0:
256,192,287772,5,2,0:0:0:0:
109,192,287772,1,0,0:0:0:0:
402,192,287772,1,2,0:0:0:0:
36,192,287772,1,0,0:0:0:0:
475,192,287772,1,0,0:0:0:0:
182,192,287840,1,0,0:0:0:0:
329,192,287840,1,0,0:0:0:0:
36,192,287908,1,0,0:0:0:0:
475,192,287908,1,0,0:0:0:0:
402,192,287976,1,0,0:0:0:0:
109,192,287976,1,0,0:0:0:0:
182,192,288045,1,2,0:0:0:0:
36,192,288045,1,0,0:0:0:0:
256,192,288045,1,2,0:0:0:0:
329,192,288045,1,0,0:0:0:0:
329,192,288181,1,0,0:0:0:0:
475,192,288181,1,0,0:0:0:0:
182,192,288181,1,0,0:0:0:0:
109,192,288249,1,0,0:0:0:0:
402,192,288249,1,0,0:0:0:0:
329,192,288317,1,2,0:0:0:0:
182,192,288317,1,0,0:0:0:0:
36,192,288317,1,0,0:0:0:0:
475,192,288317,1,2,0:0:0:0:
256,192,288317,1,0,0:0:0:0:
256,192,288454,1,0,0:0:0:0:
475,192,288454,1,0,0:0:0:0:
109,192,288454,1,0,0:0:0:0:
329,192,288522,1,0,0:0:0:0:
36,192,288522,1,0,0:0:0:0:
109,192,288590,1,2,0:0:0:0:
256,192,288590,1,2,0:0:0:0:
402,192,288590,1,0,0:0:0:0:
182,192,288658,1,0,0:0:0:0:
475,192,288658,1,0,0:0:0:0:
109,192,288726,1,0,0:0:0:0:
256,192,288726,1,8,0:0:0:0:
329,192,288726,1,0,0:0:0:0:
36,192,288726,1,0,0:0:0:0:
402,192,288726,1,0,0:0:0:0:
329,192,288863,1,2,0:0:0:0:
182,192,288863,1,2,0:0:0:0:
36,192,288863,1,0,0:0:0:0:
256,192,288931,1,0,0:0:0:0:
402,192,288931,1,0,0:0:0:0:
475,192,288999,1,0,0:0:0:0:
329,192,288999,1,0,0:0:0:0:
109,192,288999,1,0,0:0:0:0:
36,192,289067,1,0,0:0:0:0:
256,192,289067,1,0,0:0:0:0:
109,192,289135,1,0,0:0:0:0:
329,192,289135,1,2,0:0:0:0:
475,192,289135,1,2,0:0:0:0:
402,192,289135,1,0,0:0:0:0:
182,192,289135,1,8,0:0:0:0:
256,192,289272,1,0,0:0:0:0:
182,192,289272,1,0,0:0:0:0:
36,192,289272,1,0,0:0:0:0:
402,192,289340,1,0,0:0:0:0:
329,192,289340,1,0,0:0:0:0:
475,192,289408,1,0,0:0:0:0:
36,192,289408,1,0,0:0:0:0:
256,192,289408,1,2,0:0:0:0:
109,192,289408,1,2,0:0:0:0:
182,192,289545,1,0,0:0:0:0:
109,192,289545,1,0,0:0:0:0:
329,192,289545,1,0,0:0:0:0:
36,192,289545,1,0,0:0:0:0:
402,192,289545,1,8,0:0:0:0:
256,192,289681,1,0,0:0:0:0:
475,192,289681,1,2,0:0:0:0:
402,192,289681,1,2,0:0:0:0:
182,192,289817,1,0,0:0:0:0:
256,192,289817,1,0,0:0:0:0:
329,192,289817,1,0,0:0:0:0:
109,192,289885,1,0,0:0:0:0:
402,192,289885,1,0,0:0:0:0:
182,192,289954,1,2,0:0:0:0:
475,192,289954,1,0,0:0:0:0:
256,192,289954,1,0,0:0:0:0:
36,192,289954,1,2,0:0:0:0:
329,192,289954,1,8,0:0:0:0:
475,192,290090,1,0,0:0:0:0:
402,192,290090,1,0,0:0:0:0:
182,192,290090,1,0,0:0:0:0:
109,192,290226,1,2,0:0:0:0:
329,192,290226,1,2,0:0:0:0:
36,192,290226,1,0,0:0:0:0:
182,192,290295,1,0,0:0:0:0:
256,192,290295,1,0,0:0:0:0:
329,192,290363,1,8,0:0:0:0:
36,192,290363,1,0,0:0:0:0:
402,192,290363,1,0,0:0:0:0:
109,192,290363,1,0,0:0:0:0:
475,192,290363,1,0,0:0:0:0:
182,192,290499,1,2,0:0:0:0:
329,192,290499,1,2,0:0:0:0:
256,192,290499,1,0,0:0:0:0:
36,192,290567,1,0,0:0:0:0:
109,192,290567,1,0,0:0:0:0:
475,192,290635,1,0,0:0:0:0:
256,192,290635,1,0,0:0:0:0:
402,192,290635,1,0,0:0:0:0:
182,192,290704,1,0,0:0:0:0:
329,192,290704,1,0,0:0:0:0:
475,192,290772,1,2,0:0:0:0:
109,192,290772,1,8,0:0:0:0:
36,192,290772,1,0,0:0:0:0:
402,192,290772,1,2,0:0:0:0:
256,192,290772,1,0,0:0:0:0:
182,192,290908,1,0,0:0:0:0:
475,192,290908,1,0,0:0:0:0:
329,192,290908,1,0,0:0:0:0:
36,192,291045,1,2,0:0:0:0:
402,192,291045,1,0,0:0:0:0:
256,192,291045,1,2,0:0:0:0:
182,192,291113,1,0,0:0:0:0:
329,192,291113,1,0,0:0:0:0:
109,192,291181,1,0,0:0:0:0:
256,192,291181,1,8,0:0:0:0:
402,192,291181,1,0,0:0:0:0:
36,192,291181,1,0,0:0:0:0:
475,192,291181,1,0,0:0:0:0:
329,192,291317,1,2,0:0:0:0:
182,192,291317,1,2,0:0:0:0:
109,192,291317,1,0,0:0:0:0:
402,192,291385,1,0,0:0:0:0:
36,192,291385,1,0,0:0:0:0:
256,192,291454,1,0,0:0:0:0:
475,192,291454,1,0,0:0:0:0:
109,192,291454,1,0,0:0:0:0:
182,192,291522,1,8,0:0:0:0:
329,192,291522,1,0,0:0:0:0:
475,192,291590,1,2,0:0:0:0:
36,192,291590,1,0,0:0:0:0:
402,192,291590,1,2,0:0:0:0:
109,192,291590,1,8,0:0:0:0:
256,192,291590,1,0,0:0:0:0:
329,192,291726,1,0,0:0:0:0:
182,192,291726,1,0,0:0:0:0:
475,192,291726,1,0,0:0:0:0:
36,192,291726,1,0,0:0:0:0:
402,192,291795,1,0,0:0:0:0:
256,192,291795,1,8,0:0:0:0:
36,192,291863,1,2,0:0:0:0:
109,192,291863,1,0,0:0:0:0:
329,192,291863,1,8,0:0:0:0:
182,192,291863,1,2,0:0:0:0:
475,192,291999,1,0,0:0:0:0:
402,192,291999,1,0,0:0:0:0:
256,192,291999,1,0,0:0:0:0:
182,192,292067,1,8,0:0:0:0:
329,192,292067,1,0,0:0:0:0:
256,192,292135,5,2,0:0:0:0:
402,192,292135,1,8,0:0:0:0:
109,192,292135,1,2,0:0:0:0:
475,192,292135,1,0,0:0:0:0:
36,192,292135,1,0,0:0:0:0:
36,192,292272,1,0,0:0:0:0:
475,192,292272,1,0,0:0:0:0:
182,192,292340,1,0,0:0:0:0:
329,192,292340,1,8,0:0:0:0:
36,192,292408,1,0,0:0:0:0:
256,192,292408,1,0,0:0:0:0:
475,192,292408,1,2,0:0:0:0:
109,192,292408,1,0,0:0:0:0:
402,192,292408,1,2,0:0:0:0:
402,192,292545,1,0,0:0:0:0:
182,192,292545,1,0,0:0:0:0:
256,192,292545,1,0,0:0:0:0:
109,192,292613,1,0,0:0:0:0:
329,192,292613,1,0,0:0:0:0:
256,192,292681,1,0,0:0:0:0:
36,192,292681,1,0,0:0:0:0:
475,192,292681,1,8,0:0:0:0:
402,192,292681,1,2,0:0:0:0:
182,192,292681,1,2,0:0:0:0:
329,192,292817,1,0,0:0:0:0:
109,192,292817,1,0,0:0:0:0:
475,192,292817,1,0,0:0:0:0:
36,192,292885,1,0,0:0:0:0:
256,192,292885,1,0,0:0:0:0:
182,192,292954,1,2,0:0:0:0:
402,192,292954,1,0,0:0:0:0:
109,192,292954,1,2,0:0:0:0:
329,192,293022,1,0,0:0:0:0:
475,192,293022,1,0,0:0:0:0:
109,192,293090,1,0,0:0:0:0:
36,192,293090,1,0,0:0:0:0:
256,192,293090,1,0,0:0:0:0:
182,192,293090,1,8,0:0:0:0:
402,192,293090,1,0,0:0:0:0:
36,192,293226,1,0,0:0:0:0:
475,192,293226,1,2,0:0:0:0:
329,192,293226,1,2,0:0:0:0:
109,192,293295,1,0,0:0:0:0:
256,192,293295,1,0,0:0:0:0:
329,192,293363,1,0,0:0:0:0:
182,192,293363,1,0,0:0:0:0:
475,192,293363,1,0,0:0:0:0:
402,192,293431,1,0,0:0:0:0:
256,192,293431,1,0,0:0:0:0:
182,192,293499,1,0,0:0:0:0:
36,192,293499,1,2,0:0:0:0:
329,192,293499,1,0,0:0:0:0:
475,192,293499,1,2,0:0:0:0:
109,192,293499,1,8,0:0:0:0:
402,192,293635,1,0,0:0:0:0:
182,192,293635,1,0,0:0:0:0:
256,192,293635,1,0,0:0:0:0:
109,192,293704,1,0,0:0:0:0:
36,192,293704,1,0,0:0:0:0:
256,192,293772,1,0,0:0:0:0:
402,192,293772,1,2,0:0:0:0:
475,192,293772,1,2,0:0:0:0:
329,192,293772,1,0,0:0:0:0:
182,192,293772,1,0,0:0:0:0:
36,192,293908,1,8,0:0:0:0:
402,192,293908,1,0,0:0:0:0:
475,192,293908,1,0,0:0:0:0:
329,192,293908,1,0,0:0:0:0:
256,192,293908,1,0,0:0:0:0:
36,192,294045,1,2,0:0:0:0:
475,192,294045,1,2,0:0:0:0:
109,192,294045,1,0,0:0:0:0:
402,192,294045,1,0,0:0:0:0:
329,192,294045,1,0,0:0:0:0:
475,192,294181,1,0,0:0:0:0:
109,192,294181,1,0,0:0:0:0:
36,192,294181,1,0,0:0:0:0:
182,192,294181,1,0,0:0:0:0:
402,192,294181,1,0,0:0:0:0:
182,192,294317,1,8,0:0:0:0:
256,192,294317,1,0,0:0:0:0:
36,192,294317,1,2,0:0:0:0:
109,192,294317,1,2,0:0:0:0:
475,192,294317,1,0,0:0:0:0:
36,192,294454,1,0,0:0:0:0:
256,192,294454,1,0,0:0:0:0:
109,192,294454,1,0,0:0:0:0:
182,192,294454,1,0,0:0:0:0:
329,192,294454,1,0,0:0:0:0:
36,192,294590,1,2,0:0:0:0:
329,192,294590,1,0,0:0:0:0:
109,192,294590,1,2,0:0:0:0:
475,192,294590,1,0,0:0:0:0:
402,192,294590,1,0,0:0:0:0:
182,192,294658,1,0,0:0:0:0:
256,192,294658,1,0,0:0:0:0:
109,192,294726,1,0,0:0:0:0:
329,192,294726,1,8,0:0:0:0:
475,192,294726,1,0,0:0:0:0:
36,192,294726,1,0,0:0:0:0:
402,192,294726,1,0,0:0:0:0:
182,192,294795,1,0,0:0:0:0:
256,192,294795,1,0,0:0:0:0:
475,192,294863,1,0,0:0:0:0:
329,192,294863,1,0,0:0:0:0:
109,192,294863,1,2,0:0:0:0:
36,192,294863,1,2,0:0:0:0:
402,192,294931,1,0,0:0:0:0:
182,192,294931,1,0,0:0:0:0:
256,192,294999,1,0,0:0:0:0:
475,192,294999,1,0,0:0:0:0:
36,192,294999,1,0,0:0:0:0:
109,192,294999,1,0,0:0:0:0:
329,192,295067,1,0,0:0:0:0:
182,192,295067,1,0,0:0:0:0:
402,192,295135,1,8,0:0:0:0:
256,192,295135,1,0,0:0:0:0:
36,192,295135,1,2,0:0:0:0:
475,192,295135,1,0,0:0:0:0:
109,192,295135,1,2,0:0:0:0:
182,192,295204,1,0,0:0:0:0:
329,192,295204,1,0,0:0:0:0:
109,192,295272,1,0,0:0:0:0:
36,192,295272,1,0,0:0:0:0:
402,192,295272,1,0,0:0:0:0:
256,192,295272,1,0,0:0:0:0:
475,192,295340,1,0,0:0:0:0:
329,192,295340,1,0,0:0:0:0:
109,192,295408,1,2,0:0:0:0:
182,192,295408,1,0,0:0:0:0:
36,192,295408,1,2,0:0:0:0:
256,192,295408,1,0,0:0:0:0:
329,192,295476,1,0,0:0:0:0:
402,192,295476,1,0,0:0:0:0:
182,192,295545,1,0,0:0:0:0:
109,192,295545,1,0,0:0:0:0:
475,192,295545,1,8,0:0:0:0:
256,192,295545,1,0,0:0:0:0:
36,192,295545,1,0,0:0:0:0:
402,192,295613,1,0,0:0:0:0:
329,192,295613,1,0,0:0:0:0:
475,192,295681,1,0,0:0:0:0:
36,192,295681,1,2,0:0:0:0:
182,192,295681,1,0,0:0:0:0:
109,192,295681,1,2,0:0:0:0:
256,192,295681,1,0,0:0:0:0:
402,192,295749,1,0,0:0:0:0:
329,192,295817,1,0,0:0:0:0:
256,192,295885,1,0,0:0:0:0:
182,192,295954,1,0,0:0:0:0:
329,192,295954,1,0,0:0:0:0:
475,192,295954,1,8,0:0:0:0:
109,192,296022,1,0,0:0:0:0:
36,192,296090,1,0,0:0:0:0:
256,192,296090,1,8,0:0:0:0:
329,192,296158,1,0,0:0:0:0:
182,192,296158,1,8,0:0:0:0:
402,192,296226,1,0,0:0:0:0:
475,192,296226,1,0,0:0:0:0:
109,192,296226,1,8,0:0:0:0:
256,192,296295,1,0,0:0:0:0:
182,192,296363,1,0,0:0:0:0:
402,192,296363,1,8,0:0:0:0:
109,192,296431,1,0,0:0:0:0:
329,192,296431,1,8,0:0:0:0:
256,192,296499,1,8,0:0:0:0:
36,192,296499,1,0,0:0:0:0:
475,192,296499,1,0,0:0:0:0:
182,192,296567,1,0,0:0:0:0:
402,192,296567,1,0,0:0:0:0:
329,192,296635,1,8,0:0:0:0:
256,192,296704,1,0,0:0:0:0:
182,192,296772,1,0,1:0:0:40:crx.wav
475,192,296772,1,2,1:0:0:0:
36,192,296772,1,2,0:0:0:0:
109,192,296772,1,0,0:0:0:0:
329,192,296772,1,0,0:0:0:0:
402,192,296772,1,0,0:0:0:0:
256,192,297045,1,0,0:0:0:0:
329,192,297317,1,0,0:0:0:0:
475,192,297317,1,8,1:0:0:0:
109,192,297590,1,0,0:0:0:0:
402,192,297726,1,0,0:0:0:0:
256,192,301135,1,0,0:0:0:0:
256,192,301408,1,0,0:0:0:0:
329,192,301681,1,0,2:0:0:0:
475,192,301681,1,8,1:0:0:0:
109,192,301954,1,0,0:0:0:0:
402,192,302090,1,0,0:0:0:0:
256,192,305499,1,0,0:0:0:0:
256,192,305772,1,0,0:0:0:0:
329,192,306045,1,0,0:0:0:0:
475,192,306045,1,8,1:0:0:0:
109,192,306317,1,0,0:0:0:0:
402,192,306454,1,0,0:0:0:0:
256,192,309863,5,0,0:0:0:0:
256,192,310135,1,0,0:0:0:0:
329,192,310408,1,0,0:0:0:0:
475,192,310408,1,8,1:0:0:0:
109,192,310681,1,0,0:0:0:0:
402,192,310817,1,0,0:0:0:0:
109,192,314226,128,0,317499:0:0:0:8:crx.wav
475,192,314226,128,0,320192:0:0:0:8:crx.wav
402,192,314226,128,0,319579:0:0:0:8:crx.wav
182,192,314226,128,0,318351:0:0:0:8:crx.wav
36,192,314226,128,0,316920:0:0:0:8:crx.wav
329,192,314226,128,0,318795:0:0:0:8:crx.wav
