osu file format v14

[General]
AudioFilename: Between August and December [e OST] - Blow With The Fires.mp3
AudioLeadIn: 2000
PreviewTime: 38403
Countdown: 0
SampleSet: Soft
StackLeniency: 0.6
Mode: 3
LetterboxInBreaks: 0
SpecialStyle: 0
WidescreenStoryboard: 1

[Editor]
DistanceSpacing: 1
BeatDivisor: 4
GridSize: 8
TimelineZoom: 1.6

[Metadata]
Title:Blow with the Fires
TitleUnicode:Blow with the Fires
Artist:Between August and December
ArtistUnicode:Between August and December
Creator:AnatOWJIya
Version:7K Slavya NM
Source:Everlasting Summer
Tags:Бесконечное Лето Dark Side iichan game soundtrack ost Russian bwtf instrumental metal [Shana Lesus] Kivicat Seikatu AJIekceu YellowManul Shadren Bakari OzzyOzrock
BeatmapID:748748
BeatmapSetID:275841

[Difficulty]
HPDrainRate:7
CircleSize:7
OverallDifficulty:7
ApproachRate:5
SliderMultiplier:1.4
SliderTickRate:1

[Events]
//Background and Video events
0,0,"SlavyaBG.jpg",0,0
//Break Periods
//Storyboard Layer 0 (Background)
//Storyboard Layer 1 (Fail)
//Storyboard Layer 2 (Pass)
//Storyboard Layer 3 (Foreground)
//Storyboard Sound Samples
Sample,38203,0,"soft-hitclap.wav",20
Sample,38403,0,"Crash_Short2.wav",30
Sample,40803,0,"LR_CymbalCCR.wav",10
Sample,41403,0,"LR_Drum Hit P.wav",25
Sample,42403,0,"LR_Drum Hit P.wav",25
Sample,43003,0,"soft-hitclap.wav",30
Sample,43203,0,"Clap_long(3)2.wav",20
Sample,44003,0,"LR_Drum Hit P.wav",25
Sample,44203,0,"LR_Drum Hit P.wav",20
Sample,44203,0,"LR_Drum Click.wav",20
Sample,44603,0,"LR_Drum Hit P.wav",20
Sample,44803,0,"Crash_Short2.wav",50
Sample,45403,0,"soft-hitclap.wav",30
Sample,45603,0,"Crash_Short2.wav",30
Sample,46203,0,"soft-hitclap.wav",30
Sample,46403,0,"Clap_long(3)2.wav",20
Sample,50403,0,"LR_Drum Hit P.wav",25
Sample,50803,0,"LR_Drum Click.wav",20
Sample,51203,0,"Crash_Short2.wav",70
Sample,52003,0,"Crash_Short2.wav",30
Sample,52603,0,"soft-hitclap.wav",30
Sample,52803,0,"soft-hitclap.wav",30
Sample,54203,0,"soft-hitclap.wav",30
Sample,55803,0,"LR_Tom Normal.wav",25
Sample,56003,0,"LR_CymbalCCR.wav",10
Sample,58203,0,"soft-hitclap.wav",30
Sample,59003,0,"soft-hitclap.wav",30
Sample,60603,0,"LR_Drum Hit P.wav",25
Sample,60803,0,"soft-hitclap.wav",30
Sample,62203,0,"soft-hitclap.wav",30
Sample,62403,0,"soft-hitclap.wav",30
Sample,62403,0,"Clap_long(3)2.wav",20
Sample,63403,0,"soft-hitclap.wav",30
Sample,64603,0,"soft-hitclap.wav",30
Sample,64803,0,"Clap_long(3)2.wav",20
Sample,65603,0,"Crash_Short2.wav",30
Sample,65603,0,"soft-hitclap.wav",30
Sample,67003,0,"LR_Tom Hit.wav",30
Sample,67603,0,"LR_Drum Click.wav",20
Sample,68203,0,"LR_Drum Click.wav",20
Sample,69603,0,"LR_CymbalCCR.wav",10
Sample,70403,0,"Crash_Short2.wav",50
Sample,70603,0,"C6 - - C.wav",40
Sample,71003,0,"C6 - - F.wav",40
Sample,71203,0,"LR_Drum Hit P.wav",25
Sample,71203,0,"C6 - - C.wav",40
Sample,71403,0,"C5 - - F.wav",35
Sample,71803,0,"C6 - - C.wav",40
Sample,71803,0,"soft-hitclap.wav",30
Sample,72003,0,"C5 - - F.wav",35
Sample,72003,0,"LR_CymbalCCR.wav",10
Sample,72203,0,"C6 - - F.wav",40
Sample,72403,0,"C6 - - C.wav",40
Sample,72603,0,"C5 - - F.wav",35
Sample,72803,0,"Crash_Short2.wav",30
Sample,73003,0,"C6 - - C.wav",40
Sample,73203,0,"C5 - - F.wav",30
Sample,73403,0,"C6 - - F.wav",40
Sample,73803,0,"C5 - - F.wav",35
Sample,74403,0,"C5 - - F.wav",35
Sample,74603,0,"C6 - - F.wav",40
Sample,74803,0,"C6 - - C.wav",40
Sample,75003,0,"C5 - - F.wav",35
Sample,75203,0,"Crash_Short2.wav",45
Sample,75403,0,"C6 - - D.wav",40
Sample,75803,0,"C6 - - G.wav",40
Sample,76003,0,"LR_Drum Hit P.wav",25
Sample,76003,0,"Clap_long(3)2.wav",20
Sample,76203,0,"C6 - - D.wav",40
Sample,76603,0,"C6 - - D.wav",40
Sample,77003,0,"C6 - - E.wav",40
Sample,77203,0,"C5 - - A.wav",40
Sample,77403,0,"soft-hitclap.wav",30
Sample,77603,0,"C6 - - E.wav",40
Sample,77803,0,"C5 - - A.wav",40
Sample,78203,0,"C6 - - E.wav",40
Sample,78603,0,"C6 - - A.wav",40
Sample,79003,0,"C5 - - A.wav",40
Sample,79203,0,"LR_Drum Hit P.wav",25
Sample,79403,0,"C6 - - E.wav",40
Sample,79603,0,"C5 - - A.wav",40
Sample,79803,0,"C6 - - A.wav",40
Sample,80003,0,"C6 - - E.wav",40
Sample,80003,0,"LR_CymbalCCR.wav",10
Sample,80003,0,"soft-hitclap.wav",30
Sample,80603,0,"C6 - - B.wav",35
Sample,80803,0,"LR_Drum Hit P.wav",25
Sample,81403,0,"C5 - - B.wav",40
Sample,81603,0,"Crash_Short2.wav",30
Sample,82003,0,"C5 - - B.wav",40
Sample,82203,0,"C6 - - B.wav",40
Sample,82403,0,"Crash_Short2.wav",30
Sample,82403,0,"C6 - - E.wav",40
Sample,82603,0,"C5 - - B.wav",40
Sample,82803,0,"C6 - - B.wav",40
Sample,82803,0,"soft-hitclap.wav",15
Sample,83003,0,"soft-hitclap.wav",15
Sample,83003,0,"C6 - - E.wav",40
Sample,83203,0,"C6 - - F.wav",40
Sample,83203,0,"soft-hitclap.wav",30
Sample,83403,0,"C6 - - C.wav",40
Sample,83803,0,"C6 - - F.wav",40
Sample,84003,0,"LR_CymbalCCR.wav",10
Sample,84003,0,"C6 - - C.wav",40
Sample,84203,0,"C5 - - F.wav",35
Sample,84403,0,"C6 - - F.wav",40
Sample,84603,0,"C6 - - C.wav",40
Sample,84803,0,"Crash_Short2.wav",30
Sample,84803,0,"C5 - - F.wav",35
Sample,85003,0,"C6 - - F.wav",40
Sample,85203,0,"soft-hitclap.wav",30
Sample,85203,0,"C6 - - C.wav",40
Sample,85403,0,"C5 - - F.wav",35
Sample,85603,0,"C6 - - F.wav",40
Sample,85603,0,"LR_Drum Hit P.wav",25
Sample,85803,0,"C6 - - C.wav",40
Sample,86003,0,"C5 - - F.wav",35
Sample,86203,0,"C6 - - F.wav",40
Sample,86403,0,"C6 - - C.wav",40
Sample,87803,0,"soft-hitclap.wav",30
Sample,88803,0,"soft-hitclap.wav",30
Sample,90403,0,"LR_Drum Hit P.wav",25
Sample,90803,0,"LR_Drum Click.wav",15
Sample,91003,0,"soft-hitclap.wav",30
Sample,91203,0,"Clap_long(3)2.wav",20
Sample,92603,0,"LR_Drum Hit P.wav",20
Sample,93603,0,"Clap_long(3)2.wav",20
Sample,94203,0,"soft-hitclap.wav",30
Sample,95203,0,"Crash_Short2.wav",30
Sample,95403,0,"LR_Drum Click.wav",15
Sample,96603,0,"soft-hitclap.wav",30
Sample,97403,0,"soft-hitclap.wav",30
Sample,97603,0,"Clap_long(3)2.wav",20
Sample,100203,0,"soft-hitclap.wav",20
Sample,100803,0,"LR_Tom Hit.wav",40
Sample,101003,0,"soft-hitfinish.wav",30
Sample,103203,0,"Crash_Short2.wav",30
Sample,103803,0,"soft-hitclap.wav",30
Sample,104003,0,"Crash_Short2.wav",30
Sample,105403,0,"LR_Drum Hit P.wav",20
Sample,105603,0,"Crash_Short2.wav",30
Sample,107003,0,"soft-hitclap.wav",30
Sample,108203,0,"soft-hitclap.wav",30
Sample,109403,0,"soft-hitclap.wav",30
Sample,110203,0,"soft-hitclap.wav",30
Sample,110403,0,"soft-hitclap.wav",30
Sample,110403,0,"Clap_long(3)2.wav",20
Sample,111803,0,"LR_Drum Hit P.wav",20
Sample,112003,0,"LR_CymbalCCR.wav",10
Sample,113403,0,"soft-hitclap.wav",30
Sample,113603,0,"LR_CymbalCCR.wav",10
Sample,114603,0,"soft-hitclap.wav",30

[TimingPoints]
3,800,4,2,1,40,1,0
6403,-100,4,2,1,20,0,0
37403,-100,4,2,1,40,0,0
70403,-100,4,2,1,40,0,1
115203,-100,4,2,1,40,0,0

[HitObjects]
36,192,6403,5,0,0:0:0:26:
182,192,6803,1,0,0:0:0:13:
475,192,7203,1,0,0:0:0:13:
329,192,7603,1,0,0:0:0:13:
256,192,8403,1,0,0:0:0:13:
36,192,9603,1,0,0:0:0:13:
329,192,10003,1,0,0:0:0:13:
182,192,10403,1,0,0:0:0:13:
475,192,10803,1,0,0:0:0:13:
36,192,11603,1,0,0:0:0:13:
329,192,12803,1,0,0:0:0:13:
475,192,13203,1,0,0:0:0:13:
36,192,13603,1,0,0:0:0:13:
182,192,14003,1,0,0:0:0:13:
109,192,15603,1,0,0:0:0:13:
402,192,16003,1,0,0:0:0:13:
36,192,16403,1,0,0:0:0:13:
475,192,16803,1,0,0:0:0:13:
256,192,17203,1,0,0:0:0:13:
36,192,18003,1,0,0:0:0:13:
182,192,19203,1,0,0:0:0:13:
329,192,19603,1,0,0:0:0:13:
475,192,20003,1,0,0:0:0:13:
36,192,20403,1,0,0:0:0:13:
402,192,21203,1,0,0:0:0:13:
109,192,22403,1,0,0:0:0:13:
475,192,22803,1,0,0:0:0:13:
182,192,23203,1,0,0:0:0:13:
256,192,23603,128,0,24403:0:0:0:13:
329,192,24403,128,0,25603:0:0:0:13:
475,192,25603,128,0,26003:0:0:0:13:
329,192,26003,128,0,26403:0:0:0:13:
182,192,26403,128,0,26803:0:0:0:13:
36,192,26803,128,0,27603:0:0:0:13:
256,192,27603,128,0,28403:0:0:0:13:
475,192,28403,128,0,29203:0:0:0:13:
182,192,29203,128,0,30003:0:0:0:13:
36,192,30003,128,0,32003:0:0:0:8:
329,192,32003,1,0,0:0:0:26:
109,192,32403,1,0,0:0:0:13:
256,192,32803,1,0,0:0:0:13:
402,192,33203,128,0,34003:0:0:0:13:
256,192,34003,128,0,34803:0:0:0:13:
329,192,34803,128,0,35603:0:0:0:13:
182,192,35603,128,0,36403:0:0:0:13:
36,192,36403,128,0,37603:0:0:0:8:
475,192,37403,1,0,0:0:0:40:soft-hitclap.wav
329,192,37603,1,4,0:0:0:40:LR_Tom Hit.wav
182,192,37603,1,0,0:0:0:0:
256,192,37803,1,2,0:0:0:20:soft-hitclap.wav
109,192,38003,1,0,0:0:0:20:LR_Drum Hit P.wav
402,192,38003,1,0,0:0:0:20:LR_Tom Normal.wav
475,192,38203,1,0,0:0:0:30:soft-hitclap.wav
182,192,38403,1,8,0:0:0:30:soft-hitclap.wav
329,192,38803,1,0,0:0:0:0:
36,192,39203,1,4,0:0:0:25:LR_Drum Hit P.wav
256,192,39203,1,0,0:0:0:30:Crash_Short2.wav
109,192,39603,1,0,0:0:0:0:
402,192,40003,1,8,0:0:0:25:soft-hitclap.wav
182,192,40003,1,0,0:0:0:30:Crash_Short2.wav
475,192,40403,1,8,0:0:0:30:soft-hitclap.wav
36,192,40403,1,0,0:0:0:26:
182,192,40803,1,0,0:0:0:30:Clap_long(3)2.wav
329,192,40803,1,4,0:0:0:25:LR_Drum Hit P.wav
402,192,41603,1,0,0:0:0:30:Crash_Short2.wav
109,192,41603,1,8,0:0:0:30:soft-hitclap.wav
256,192,42003,1,8,0:0:0:30:soft-hitclap.wav
475,192,42403,1,0,0:0:0:30:Crash_Short2.wav
36,192,42803,1,0,0:0:0:26:
329,192,43203,1,0,0:0:0:10:LR_CymbalCCR.wav
182,192,43203,1,0,0:0:0:30:soft-hitclap.wav
256,192,43603,1,0,0:0:0:30:soft-hitclap.wav
329,192,44003,1,0,0:0:0:30:Crash_Short2.wav
402,192,44403,1,4,0:0:0:30:soft-hitclap.wav
182,192,44403,1,0,0:0:0:0:
36,192,44803,1,0,0:0:0:20:LR_Drum Click.wav
256,192,44803,1,2,0:0:0:30:soft-hitclap.wav
329,192,45203,1,0,0:0:0:20:LR_Drum Click.wav
475,192,45603,1,4,0:0:0:25:LR_Drum Hit P.wav
109,192,45603,1,0,0:0:0:17:
182,192,46003,1,8,0:0:0:20:LR_Drum Click.wav
36,192,46403,1,8,0:0:0:30:soft-hitclap.wav
475,192,46403,1,0,0:0:0:10:LR_CymbalCCR.wav
109,192,46803,1,8,0:0:0:30:soft-hitclap.wav
402,192,46803,1,0,0:0:0:0:
329,192,47203,1,0,0:0:0:30:Crash_Short2.wav
182,192,47203,1,2,0:0:0:25:LR_Drum Hit P.wav
109,192,47603,128,8,48003:0:0:0:30:soft-hitclap.wav
36,192,47603,1,0,0:0:0:26:
402,192,48003,128,0,48403:0:0:0:30:Crash_Short2.wav
475,192,48003,1,2,0:0:0:30:soft-hitclap.wav
36,192,48403,128,4,48803:0:0:0:30:LR_Tom Normal.wav
329,192,48403,1,0,0:0:0:26:
182,192,48403,1,0,0:0:0:0:
256,192,48803,1,0,0:0:0:25:LR_Drum Hit P.wav
475,192,49003,1,4,0:0:0:30:soft-hitclap.wav
109,192,49203,1,0,0:0:0:0:
402,192,49403,1,8,0:0:0:45:soft-hitclap.wav
36,192,49603,1,2,0:0:0:30:LR_Tom Normal.wav
329,192,49803,1,8,0:0:0:30:LR_Tom Drop.wav
109,192,50003,1,2,0:0:0:30:soft-hitclap.wav
402,192,50203,1,2,0:0:0:30:LR_Tom Drop.wav
182,192,50403,1,0,0:0:0:25:LR_Drum Hit P.wav
475,192,50603,1,8,0:0:0:30:soft-hitclap.wav
256,192,50803,1,8,0:0:0:30:soft-hitclap.wav
329,192,51203,128,0,51603:0:0:0:13:
402,192,51203,1,4,0:0:0:30:soft-hitclap.wav
109,192,51603,128,0,52003:0:0:0:0:
182,192,51603,1,0,0:0:0:0:
475,192,52003,128,0,52403:0:0:0:17:
402,192,52003,1,0,0:0:0:25:LR_Drum Hit P.wav
36,192,52403,1,2,0:0:0:20:LR_Drum Click.wav
256,192,52403,128,0,53203:0:0:0:26:
109,192,52803,1,0,0:0:0:30:Crash_Short2.wav
402,192,53203,128,8,54403:0:0:0:30:soft-hitclap.wav
182,192,53203,1,0,0:0:0:26:
475,192,53603,1,4,0:0:0:25:LR_Drum Hit P.wav
109,192,53603,1,0,0:0:0:30:Crash_Short2.wav
256,192,54203,1,0,0:0:0:30:soft-hitclap.wav
182,192,54403,1,4,0:0:0:30:soft-hitclap.wav
36,192,54403,128,0,54803:0:0:0:30:Crash_Short2.wav
329,192,54803,128,8,55203:0:0:0:30:soft-hitclap.wav
475,192,54803,1,0,0:0:0:26:
36,192,55203,1,4,0:0:0:25:LR_Drum Hit P.wav
182,192,55203,128,0,55603:0:0:0:30:Crash_Short2.wav
475,192,55603,128,2,56403:0:0:0:20:LR_Drum Click.wav
109,192,55603,1,0,0:0:0:26:
182,192,56003,1,0,0:0:0:20:Clap_long(3)2.wav
329,192,56003,1,8,0:0:0:25:LR_Tom Drop.wav
36,192,56403,128,8,57603:0:0:0:30:LR_Tom Hit 2.wav
109,192,56403,1,0,0:0:0:26:
182,192,56803,1,2,0:0:0:25:LR_Drum Hit P.wav
475,192,56803,1,0,0:0:0:26:
329,192,57003,1,8,0:0:0:50:LR_Tom Hit 2.wav
256,192,57203,1,8,0:0:0:50:LR_Tom Hit 3.wav
402,192,57203,1,0,0:0:0:0:
182,192,57603,128,0,58003:0:0:0:50:Crash_Short2.wav
109,192,57603,1,2,0:0:0:30:soft-hitclap.wav
475,192,58003,128,0,58403:0:0:0:53:
402,192,58003,1,0,0:0:0:0:
256,192,58403,128,4,58803:0:0:0:25:LR_Drum Hit P.wav
329,192,58403,1,0,0:0:0:30:Crash_Short2.wav
109,192,58803,128,0,59603:0:0:0:0:
402,192,58803,1,0,0:0:0:0:
329,192,59203,1,4,0:0:0:30:soft-hitclap.wav
182,192,59203,1,0,0:0:0:30:Crash_Short2.wav
402,192,59603,128,8,60403:0:0:0:30:soft-hitclap.wav
256,192,60003,1,4,0:0:0:25:LR_Drum Hit P.wav
475,192,60003,1,0,0:0:0:12:LR_CymbalCCR.wav
36,192,60403,128,8,61203:0:0:0:30:soft-hitclap.wav
109,192,60403,1,0,0:0:0:26:
329,192,60803,1,0,0:0:0:30:Crash_Short2.wav
402,192,61203,128,8,62003:0:0:0:30:soft-hitclap.wav
182,192,61603,1,4,0:0:0:25:LR_Drum Hit P.wav
475,192,61603,1,0,0:0:0:30:Crash_Short2.wav
256,192,62003,128,0,63603:0:0:0:0:
36,192,62003,1,0,0:0:0:0:
475,192,62403,1,0,0:0:0:10:LR_CymbalCCR.wav
402,192,62803,1,8,0:0:0:30:soft-hitclap.wav
36,192,63203,1,0,0:0:0:30:Crash_Short2.wav
475,192,63203,1,4,0:0:0:25:LR_Drum Hit P.wav
182,192,63603,1,2,0:0:0:30:soft-hitclap.wav
329,192,63603,1,0,0:0:0:0:
475,192,64003,128,0,64403:0:0:0:60:Crash_Short2.wav
109,192,64003,1,4,0:0:0:30:soft-hitclap.wav
402,192,64003,1,0,0:0:0:13:
36,192,64403,128,0,64803:0:0:0:0:
256,192,64403,1,0,0:0:0:0:
182,192,64803,128,0,65203:0:0:0:10:LR_CymbalCCR.wav
329,192,64803,1,4,0:0:0:25:LR_Drum Hit P.wav
475,192,65203,128,0,66003:0:0:0:0:
402,192,65203,1,0,0:0:0:0:
36,192,65403,1,0,0:0:0:30:soft-hitclap.wav
329,192,65603,1,0,0:0:0:30:Crash_Short2.wav
36,192,66003,128,8,66803:0:0:0:30:soft-hitclap.wav
256,192,66003,1,0,0:0:0:26:
182,192,66403,1,4,0:0:0:25:LR_Drum Hit P.wav
402,192,66403,1,0,0:0:0:30:Crash_Short2.wav
475,192,66803,128,2,67603:0:0:0:30:soft-hitclap.wav
329,192,66803,1,0,0:0:0:26:
256,192,67203,1,0,0:0:0:30:Crash_Short2.wav
109,192,67203,1,4,0:0:0:30:LR_Tom Hit.wav
36,192,67603,128,2,68403:0:0:0:30:soft-hitclap.wav
329,192,67603,1,0,0:0:0:26:
475,192,68003,1,4,0:0:0:50:LR_Tom Hit.wav
182,192,68003,1,0,0:0:0:20:LR_Drum Click.wav
329,192,68203,1,2,0:0:0:50:LR_Tom Hit.wav
256,192,68403,128,4,70403:0:0:0:50:LR_Tom Hit.wav
475,192,68403,1,0,0:0:0:20:LR_Drum Click.wav
182,192,68603,1,8,0:0:0:30:soft-hitclap.wav
329,192,68803,1,4,0:0:0:30:soft-hitclap.wav
36,192,68803,1,0,0:0:0:50:Crash_Short2.wav
109,192,69603,1,0,0:0:0:20:Clap_long(3)2.wav
402,192,70403,128,0,73603:0:0:0:40:C6 - - F.wav
36,192,70403,1,8,0:0:0:30:soft-hitclap.wav
109,192,70803,1,0,0:0:0:35:C5 - - F.wav
475,192,70803,1,8,0:0:0:30:soft-hitclap.wav
329,192,71203,1,0,0:0:0:30:Crash_Short2.wav
256,192,71603,1,8,0:0:0:30:soft-hitclap.wav
36,192,71603,1,0,0:0:0:40:C6 - - F.wav
109,192,72003,1,0,0:0:0:20:Clap_long(3)2.wav
475,192,72403,1,0,0:0:0:30:soft-hitclap.wav
329,192,72803,1,0,0:0:0:40:C6 - - F.wav
36,192,72803,1,4,0:0:0:25:LR_Drum Hit P.wav
182,192,73203,1,0,0:0:0:30:soft-hitclap.wav
475,192,73603,1,0,0:0:0:40:C6 - - C.wav
109,192,73603,1,4,0:0:0:30:soft-hitclap.wav
256,192,73603,128,0,75203:0:0:0:45:Crash_Short2.wav
475,192,74003,1,0,0:0:0:40:C6 - - F.wav
36,192,74003,1,8,0:0:0:30:soft-hitclap.wav
329,192,74203,1,0,0:0:0:40:C6 - - C.wav
182,192,74203,1,4,0:0:0:25:LR_Drum Hit P.wav
402,192,74403,1,0,0:0:0:30:Crash_Short2.wav
109,192,74803,1,0,0:0:0:25:LR_Drum Hit P.wav
329,192,75203,1,0,0:0:0:30:soft-hitclap.wav
182,192,75203,128,0,76003:0:0:0:40:C6 - - G.wav
109,192,75603,1,0,0:0:0:40:C6 - - D.wav
402,192,75603,1,8,0:0:0:30:soft-hitclap.wav
329,192,76003,128,0,76803:0:0:0:40:C6 - - D.wav
475,192,76003,1,0,0:0:0:10:LR_CymbalCCR.wav
256,192,76403,1,8,0:0:0:30:soft-hitclap.wav
36,192,76403,1,0,0:0:0:40:C6 - - G.wav
182,192,76803,1,4,0:0:0:30:soft-hitclap.wav
402,192,76803,1,0,0:0:0:40:C6 - - A.wav
109,192,76803,128,0,80003:0:0:0:45:Crash_Short2.wav
329,192,77403,1,0,0:0:0:40:C6 - - A.wav
256,192,77603,1,0,0:0:0:10:LR_CymbalCCR.wav
475,192,77603,1,4,0:0:0:25:LR_Drum Hit P.wav
182,192,78003,1,8,0:0:0:30:soft-hitclap.wav
402,192,78003,1,0,0:0:0:40:C6 - - A.wav
36,192,78403,1,0,0:0:0:30:Crash_Short2.wav
256,192,78403,1,0,0:0:0:40:C5 - - A.wav
329,192,78803,1,0,0:0:0:40:C6 - - E.wav
475,192,78803,1,8,0:0:0:30:soft-hitclap.wav
182,192,79203,1,0,0:0:0:30:Crash_Short2.wav
402,192,79203,1,0,0:0:0:40:C6 - - A.wav
475,192,80003,1,0,0:0:0:20:Clap_long(3)2.wav
402,192,80203,1,0,0:0:0:40:C5 - - B.wav
329,192,80403,1,0,0:0:0:40:C6 - - B.wav
256,192,80603,1,0,0:0:0:30:soft-hitclap.wav
182,192,80803,1,0,0:0:0:30:Crash_Short2.wav
475,192,80803,1,0,0:0:0:40:C5 - - B.wav
109,192,81003,1,0,0:0:0:40:C6 - - B.wav
402,192,81203,1,0,0:0:0:40:C6 - - E.wav
36,192,81403,1,0,0:0:0:25:LR_Drum Hit P.wav
182,192,81603,1,8,0:0:0:30:soft-hitclap.wav
329,192,81603,1,0,0:0:0:40:C6 - - B.wav
109,192,81803,1,0,0:0:0:40:C6 - - E.wav
402,192,82003,1,8,0:0:0:30:soft-hitclap.wav
36,192,82203,1,0,0:0:0:30:soft-hitclap.wav
475,192,82403,1,2,0:0:0:25:LR_Drum Hit P.wav
109,192,82603,1,0,0:0:0:30:soft-hitclap.wav
256,192,82803,128,0,83203:0:0:0:15:soft-hitclap.wav
475,192,83203,128,0,86403:0:0:0:45:Crash_Short2.wav
36,192,83603,1,8,0:0:0:30:soft-hitclap.wav
182,192,83603,1,0,0:0:0:35:C5 - - F.wav
256,192,84003,1,4,0:0:0:25:LR_Drum Hit P.wav
109,192,84403,1,4,0:0:0:30:soft-hitclap.wav
109,192,84603,1,8,0:0:0:30:soft-hitclap.wav
402,192,84803,1,0,0:0:0:30:Crash_Short2.wav
36,192,85203,1,0,0:0:0:30:soft-hitclap.wav
182,192,85603,1,0,0:0:0:30:Crash_Short2.wav
329,192,86003,1,2,0:0:0:30:soft-hitclap.wav
256,192,86403,128,0,88003:0:0:0:45:Crash_Short2.wav
182,192,86403,1,4,0:0:0:30:soft-hitclap.wav
36,192,86803,1,2,0:0:0:30:soft-hitclap.wav
182,192,87203,1,8,0:0:0:25:LR_Drum Hit P.wav
329,192,87603,1,4,0:0:0:25:LR_Drum Hit P.wav
475,192,88003,1,0,0:0:0:45:Crash_Short2.wav
182,192,88003,128,2,88803:0:0:0:30:soft-hitclap.wav
329,192,88403,1,8,0:0:0:30:soft-hitclap.wav
402,192,88803,128,0,89603:0:0:0:10:LR_CymbalCCR.wav
109,192,88803,1,0,0:0:0:20:Clap_long(3)2.wav
182,192,89203,1,2,0:0:0:30:soft-hitclap.wav
36,192,89603,128,0,90403:0:0:0:45:Crash_Short2.wav
256,192,89603,1,4,0:0:0:30:soft-hitclap.wav
475,192,89603,1,0,0:0:0:13:
109,192,90403,1,0,0:0:0:30:Crash_Short2.wav
475,192,91203,1,0,0:0:0:10:LR_CymbalCCR.wav
256,192,91203,1,8,0:0:0:45:soft-hitclap.wav
36,192,91603,1,0,0:0:0:30:soft-hitclap.wav
109,192,92003,1,4,0:0:0:25:LR_Drum Hit P.wav
402,192,92003,1,0,0:0:0:30:Crash_Short2.wav
182,192,92403,1,0,0:0:0:15:LR_Drum Click.wav
329,192,92803,1,0,0:0:0:30:Crash_Short2.wav
36,192,92803,1,8,0:0:0:30:soft-hitclap.wav
475,192,93203,1,8,0:0:0:30:soft-hitclap.wav
256,192,93203,1,0,0:0:0:26:
109,192,93603,1,0,0:0:0:10:LR_CymbalCCR.wav
402,192,93603,1,4,0:0:0:25:LR_Drum Hit P.wav
182,192,94003,128,2,94803:0:0:0:15:LR_Drum Click.wav
256,192,94003,1,0,0:0:0:26:
402,192,94403,1,0,0:0:0:30:Crash_Short2.wav
109,192,94403,1,2,0:0:0:30:soft-hitclap.wav
109,192,94803,1,8,0:0:0:30:soft-hitclap.wav
402,192,94803,128,0,96003:0:0:0:26:
256,192,95203,1,4,0:0:0:25:LR_Drum Hit P.wav
182,192,95403,1,2,0:0:0:30:soft-hitclap.wav
109,192,95603,1,8,0:0:0:30:soft-hitclap.wav
36,192,95803,1,2,0:0:0:20:LR_Drum Hit P.wav
109,192,96003,1,0,0:0:0:45:Crash_Short2.wav
475,192,96003,1,4,0:0:0:45:soft-hitclap.wav
329,192,96003,128,0,96403:0:0:0:17:
256,192,96403,1,0,0:0:0:0:
36,192,96803,128,4,97203:0:0:0:25:LR_Drum Hit P.wav
182,192,96803,1,0,0:0:0:30:Crash_Short2.wav
109,192,97203,128,0,98803:0:0:0:0:
329,192,97203,1,0,0:0:0:0:
475,192,97603,1,0,0:0:0:10:LR_CymbalCCR.wav
182,192,97603,1,4,0:0:0:30:soft-hitclap.wav
256,192,98003,1,8,0:0:0:30:soft-hitclap.wav
402,192,98003,1,0,0:0:0:0:
329,192,98403,1,0,0:0:0:30:Crash_Short2.wav
36,192,98403,1,4,0:0:0:25:LR_Drum Hit P.wav
256,192,98803,128,2,99203:0:0:0:30:soft-hitclap.wav
475,192,98803,1,0,0:0:0:26:
182,192,99203,128,8,99603:0:0:0:45:soft-hitclap.wav
402,192,99203,1,0,0:0:0:30:Crash_Short2.wav
109,192,99603,128,0,100003:0:0:0:17:
329,192,99603,1,8,0:0:0:30:LR_Tom Hit.wav
36,192,100003,128,0,100403:0:0:0:20:LR_Drum Hit P.wav
256,192,100003,1,4,0:0:0:30:LR_Tom Hit.wav
329,192,100203,1,8,0:0:0:30:LR_Tom Drop.wav
402,192,100403,128,0,101203:0:0:0:30:LR_Tom Hit 3.wav
109,192,100603,1,8,0:0:0:30:soft-hitclap.wav
182,192,100803,1,0,0:0:0:15:LR_Drum Click.wav
109,192,101003,1,8,0:0:0:20:soft-hitclap.wav
36,192,101203,128,2,102403:0:0:0:15:soft-hitclap.wav
256,192,101203,1,0,0:0:0:0:
182,192,101403,1,8,0:0:0:20:LR_Tom Normal.wav
329,192,101603,1,2,0:0:0:25:LR_Drum Hit P.wav
475,192,101603,1,0,0:0:0:26:
256,192,101803,1,8,0:0:0:30:soft-hitclap.wav
329,192,102003,1,2,0:0:0:30:soft-hitclap.wav
475,192,102003,1,0,0:0:0:26:
256,192,102403,128,0,102803:0:0:0:45:Crash_Short2.wav
402,192,102403,1,4,0:0:0:30:soft-hitclap.wav
329,192,102803,128,0,103203:0:0:0:0:
36,192,102803,1,0,0:0:0:0:
109,192,103203,128,0,103603:0:0:0:17:
402,192,103203,1,4,0:0:0:25:LR_Drum Hit P.wav
475,192,103603,128,0,104403:0:0:0:0:
36,192,103603,1,0,0:0:0:0:
182,192,104003,1,4,0:0:0:30:soft-hitclap.wav
256,192,104403,128,8,105603:0:0:0:30:soft-hitclap.wav
329,192,104403,1,0,0:0:0:26:
182,192,104803,1,0,0:0:0:10:LR_CymbalCCR.wav
402,192,104803,1,4,0:0:0:25:LR_Drum Hit P.wav
109,192,105203,1,0,0:0:0:0:
182,192,105603,1,4,0:0:0:30:soft-hitclap.wav
329,192,105603,128,0,106003:0:0:0:17:
475,192,106003,128,0,106403:0:0:0:26:
402,192,106003,1,8,0:0:0:30:soft-hitclap.wav
182,192,106403,128,0,106803:0:0:0:30:Crash_Short2.wav
256,192,106403,1,4,0:0:0:25:LR_Drum Hit P.wav
109,192,106803,1,0,0:0:0:26:
36,192,106803,128,0,107603:0:0:0:0:
475,192,107203,1,0,0:0:0:17:
329,192,107203,1,8,0:0:0:30:soft-hitclap.wav
402,192,107603,128,8,108803:0:0:0:30:soft-hitclap.wav
256,192,107603,1,0,0:0:0:26:
329,192,108003,1,0,0:0:0:26:
182,192,108003,1,4,0:0:0:25:LR_Drum Hit P.wav
109,192,108403,1,8,0:0:0:30:soft-hitclap.wav
256,192,108403,1,0,0:0:0:0:
329,192,108803,1,8,0:0:0:30:soft-hitclap.wav
36,192,108803,128,0,109203:0:0:0:45:Crash_Short2.wav
182,192,109203,128,0,109603:0:0:0:0:
475,192,109203,1,0,0:0:0:0:
329,192,109603,128,4,110003:0:0:0:25:LR_Drum Hit P.wav
36,192,109603,1,0,0:0:0:30:Crash_Short2.wav
256,192,110003,128,0,110803:0:0:0:26:
109,192,110003,1,0,0:0:0:0:
182,192,110403,1,0,0:0:0:10:LR_CymbalCCR.wav
475,192,110803,128,8,111603:0:0:0:30:soft-hitclap.wav
329,192,110803,1,0,0:0:0:26:
109,192,111203,1,0,0:0:0:30:Crash_Short2.wav
402,192,111203,1,4,0:0:0:25:LR_Drum Hit P.wav
36,192,111603,128,8,112403:0:0:0:30:soft-hitclap.wav
256,192,111603,1,0,0:0:0:26:
182,192,112003,1,4,0:0:0:30:soft-hitclap.wav
329,192,112003,1,0,0:0:0:20:Clap_long(3)2.wav
256,192,112403,128,2,113203:0:0:0:15:LR_Drum Hit P.wav
109,192,112403,1,0,0:0:0:26:
329,192,112803,1,0,0:0:0:30:Crash_Short2.wav
182,192,112803,1,4,0:0:0:25:LR_Drum Hit P.wav
402,192,113203,128,0,115203:0:0:0:0:
109,192,113203,1,0,0:0:0:0:
36,192,113603,1,8,0:0:0:45:soft-hitclap.wav
182,192,113603,1,0,0:0:0:20:Clap_long(3)2.wav
256,192,114003,1,8,0:0:0:30:soft-hitclap.wav
475,192,114003,1,0,0:0:0:0:
329,192,114403,1,0,0:0:0:30:Crash_Short2.wav
109,192,114403,1,4,0:0:0:25:LR_Drum Hit P.wav
256,192,114803,1,2,0:0:0:30:soft-hitclap.wav
36,192,115203,128,0,116803:0:0:0:50:Crash_Short2.wav
475,192,115203,128,8,116403:0:0:0:45:soft-hitclap.wav
182,192,115203,1,0,0:0:0:13:
256,192,115603,1,0,0:0:0:53:
329,192,116003,1,0,0:0:0:53:
402,192,116403,128,0,117203:0:0:0:53:
109,192,116803,128,0,118403:0:0:0:50:Crash_Short2.wav
256,192,116803,1,8,0:0:0:45:soft-hitclap.wav
475,192,117203,128,0,118003:0:0:0:53:
329,192,118003,128,0,118803:0:0:0:53:
36,192,118403,128,8,120003:0:0:0:45:soft-hitclap.wav
256,192,118403,1,0,0:0:0:50:Crash_Short2.wav
402,192,118803,128,0,119603:0:0:0:53:
475,192,119603,128,0,122403:0:0:0:53:
109,192,120003,128,0,126403:0:0:0:70:Crash_Short2.wav
256,192,120003,128,8,126403:0:0:0:45:soft-hitclap.wav
329,192,120003,1,0,0:0:0:0:
