osu file format v14

[General]
AudioFilename: BertycoX - The Signal.mp3
AudioLeadIn: 0
PreviewTime: 88844
Countdown: 1
SampleSet: Normal
StackLeniency: 0.7
Mode: 0
LetterboxInBreaks: 1
WidescreenStoryboard: 0

[Editor]
DistanceSpacing: 1.8
BeatDivisor: 8
GridSize: 16
TimelineZoom: 2.9

[Metadata]
Title:The Signal
TitleUnicode:The Signal
Artist:Bertycox
ArtistUnicode:Bertycox
Creator:TheLeviathan
Version:S.O.S
Source:
Tags:
BeatmapID:1162227
BeatmapSetID:548854

[Difficulty]
HPDrainRate:5.7
CircleSize:3.7
OverallDifficulty:8
ApproachRate:9.3
SliderMultiplier:2
SliderTickRate:1

[Events]
//Background and Video events
//Break Periods
//Storyboard Layer 0 (Background)
//Storyboard Layer 1 (Fail)
//Storyboard Layer 2 (Pass)
//Storyboard Layer 3 (Foreground)
//Storyboard Sound Samples

[TimingPoints]
229,461.538461538462,4,1,0,5,1,0
575,-100,4,1,0,10,0,0
690,-100,4,1,0,12,0,0
1036,-100,4,1,0,15,0,0
1152,-100,4,1,0,20,0,0
2075,-100,4,1,0,30,0,0
14998,-71.4285714285714,4,1,0,35,0,0
29767,-55.5555555555556,4,1,0,35,0,0
30113,-55.5555555555556,4,1,0,15,0,0
30229,-55.5555555555556,4,1,0,35,0,0
30344,-55.5555555555556,4,1,0,15,0,0
30459,-55.5555555555556,4,1,0,35,0,0
31036,-55.5555555555556,4,1,0,15,0,0
31152,-55.5555555555556,4,1,0,35,0,0
31498,-55.5555555555556,4,1,0,15,0,0
31613,-55.5555555555556,4,1,0,35,0,0
32421,-55.5555555555556,4,1,0,15,0,0
32536,-55.5555555555556,4,1,0,35,0,0
34729,-55.5555555555556,4,1,0,15,0,0
34844,-55.5555555555556,4,1,0,35,0,0
36113,-55.5555555555556,4,1,0,15,0,0
36229,-55.5555555555556,4,1,0,35,0,0
37267,-55.5555555555556,4,1,0,15,0,0
37382,-55.5555555555556,4,1,0,35,0,0
38882,-55.5555555555556,4,1,0,15,0,0
38998,-55.5555555555556,4,1,0,35,0,0
43036,-55.5555555555556,4,1,0,15,0,0
43152,-55.5555555555556,4,1,0,35,0,0
44882,-55.5555555555556,4,1,0,15,0,0
44998,-55.5555555555556,4,1,0,35,0,0
45113,-55.5555555555556,4,1,0,15,0,0
45229,-55.5555555555556,4,1,0,35,0,0
46267,-55.5555555555556,4,1,0,15,0,0
46382,-55.5555555555556,4,1,0,35,0,0
47190,-55.5555555555556,4,1,0,15,0,0
47305,-55.5555555555556,4,1,0,35,0,0
49498,-55.5555555555556,4,1,0,15,0,0
49613,-55.5555555555556,4,1,0,35,0,0
52036,-55.5555555555556,4,1,0,15,0,0
52152,-55.5555555555556,4,1,0,35,0,0
53652,-55.5555555555556,4,1,0,15,0,0
53767,-55.5555555555556,4,1,0,35,0,0
57805,-55.5555555555556,4,1,0,15,0,0
57921,-55.5555555555556,4,1,0,35,0,0
59305,-71.4285714285714,4,1,0,35,0,0
74075,-100,4,1,0,35,0,0

[Colours]
Combo1 : 250,223,133
Combo2 : 185,241,171
Combo3 : 128,128,192

[HitObjects]
100,60,229,6,0,P|157:116|191:131,1,100
261,98,575,1,0,0:0:0:0:
348,79,690,2,0,L|261:94,1,50
261,98,921,1,0,0:0:0:0:
174,124,1036,1,0,0:0:0:0:
135,205,1152,6,0,P|223:198|254:189,1,100
323,180,1498,1,0,0:0:0:0:
411,168,1613,2,0,P|392:231|377:241,2,50
412,324,2075,6,0,P|355:268|321:253,1,100
251,286,2421,1,0,0:0:0:0:
161,296,2536,2,0,L|248:281,1,50
251,286,2767,1,0,0:0:0:0:
337,259,2882,1,0,0:0:0:0:
382,180,2998,6,0,P|334:175|263:196,1,100
197,212,3344,1,0,0:0:0:0:
107,222,3459,2,0,P|126:159|143:141,2,50
266,52,3921,6,0,P|238:104|182:128,1,100
105,102,4267,1,0,0:0:0:0:
131,16,4382,2,0,L|203:29,1,50
266,52,4613,1,0,0:0:0:0:
353,76,4729,1,0,0:0:0:0:
442,86,4844,6,0,P|407:151|351:161,1,100
295,165,5190,1,0,0:0:0:0:
206,176,5305,2,0,L|148:186,2,50
442,86,5767,6,0,P|460:134|462:199,1,100
424,263,6113,2,0,L|452:313,2,50
379,184,6459,1,0,0:0:0:0:
335,104,6575,1,0,0:0:0:0:
293,24,6690,2,0,L|321:74,2,50
204,5,7036,1,0,0:0:0:0:
116,27,7152,2,0,L|39:54,2,50
14,180,7613,6,0,P|82:117|94:70,1,100
116,27,7959,1,0,0:0:0:0:
176,94,8075,1,0,0:0:0:0:
237,159,8190,1,0,0:0:0:0:
296,226,8305,1,0,0:0:0:0:
359,290,8421,1,0,0:0:0:0:
420,355,8536,6,0,P|486:334|504:290,1,100
474,223,8882,1,0,0:0:0:0:
411,159,8998,1,0,0:0:0:0:
352,92,9113,1,0,0:0:0:0:
290,25,9229,1,0,0:0:0:0:
334,165,9459,6,0,P|265:167|218:149,1,100
176,94,9805,1,0,0:0:0:0:
134,174,9921,5,0,0:0:0:0:
134,174,10036,1,0,0:0:0:0:
89,252,10152,1,0,0:0:0:0:
89,252,10267,1,0,0:0:0:0:
143,323,10382,6,0,P|200:361|250:362,1,100
297,303,10729,1,0,0:0:0:0:
374,258,10844,2,0,L|442:222,2,50
139,232,11305,6,0,P|208:230|255:248,1,100
297,303,11652,1,0,0:0:0:0:
339,223,11767,5,0,0:0:0:0:
339,223,11882,1,0,0:0:0:0:
384,145,11998,1,0,0:0:0:0:
384,145,12113,1,0,0:0:0:0:
330,74,12229,6,0,P|273:36|223:35,1,100
176,94,12575,1,0,0:0:0:0:
99,139,12690,2,0,L|35:182,2,50
103,319,13152,6,0,P|48:240|50:202,1,100
138,237,13498,1,0,0:0:0:0:
199,302,13613,2,0,P|216:270|222:248,1,50
189,171,13844,2,0,L|179:111,1,50
237,51,14075,6,0,L|274:148,1,100
309,227,14421,1,0,0:0:0:0:
346,308,14536,2,0,L|370:359,2,50
436,71,14998,6,0,B|396:110|396:110|329:108|291:141,1,139.999995727539
237,51,15344,1,0,0:0:0:0:
132,56,15459,2,0,L|214:53,1,69.9999978637696
139,138,15690,2,0,L|37:140,1,69.9999978637696
124,229,15921,6,0,P|204:203|238:146,1,139.999995727539
237,51,16267,1,0,0:0:0:0:
338,24,16382,2,0,L|249:46,2,69.9999978637696
124,229,16844,6,0,B|164:190|164:190|231:192|269:159,1,139.999995727539
323,249,17190,1,0,0:0:0:0:
428,244,17305,2,0,L|346:247,1,69.9999978637696
421,162,17536,2,0,L|523:160,1,69.9999978637696
436,71,17767,6,0,P|356:97|322:154,1,139.999995727539
323,249,18113,1,0,0:0:0:0:
222,276,18229,2,0,L|311:254,2,69.9999978637696
65,136,18690,6,0,B|136:133|136:133|193:83,1,139.999995727539
258,9,19036,1,0,0:0:0:0:
347,65,19152,1,0,0:0:0:0:
412,146,19267,1,0,0:0:0:0:
447,244,19382,1,0,0:0:0:0:
456,349,19498,1,0,0:0:0:0:
356,317,19613,6,0,B|290:290|290:290|250:198,1,139.999995727539
239,123,19959,1,0,0:0:0:0:
178,36,20075,2,0,L|95:12,2,69.9999978637696
447,244,20536,6,0,B|376:247|376:247|319:297,1,139.999995727539
254,371,20882,1,0,0:0:0:0:
165,315,20998,1,0,0:0:0:0:
100,234,21113,1,0,0:0:0:0:
65,136,21228,1,0,0:0:0:0:
56,31,21344,1,0,0:0:0:0:
156,63,21459,6,0,B|222:90|222:90|262:182,1,139.999995727539
273,257,21805,1,0,0:0:0:0:
334,344,21921,2,0,L|417:368,2,69.9999978637696
387,78,22382,6,0,B|302:60|302:60|330:116,1,139.999995727539
378,200,22729,1,0,0:0:0:0:
464,185,22844,2,0,P|455:240|446:254,2,69.9999978637696
412,102,23190,1,0,0:0:0:0:
333,41,23305,6,0,B|422:42|422:42|394:98,1,139.999995727539
334,170,23652,1,0,0:0:0:0:
280,260,23767,2,0,L|242:325,2,69.9999978637696
221,26,24229,6,0,P|156:65|140:124,1,139.999995727539
139,123,24575,1,0,0:0:0:0:
163,225,24690,5,0,0:0:0:0:
163,225,24805,1,0,0:0:0:0:
213,317,24921,1,0,0:0:0:0:
213,317,25036,1,0,0:0:0:0:
312,353,25152,6,0,P|398:346|443:305,1,139.999995727539
348,256,25498,1,0,0:0:0:0:
444,215,25613,2,0,L|509:187,2,69.9999978637696
386,16,26075,6,0,P|451:55|467:114,1,139.999995727539
467,114,26421,1,0,0:0:0:0:
444,215,26536,5,0,0:0:0:0:
444,215,26651,1,0,0:0:0:0:
394,307,26767,1,0,0:0:0:0:
394,307,26882,1,0,0:0:0:0:
295,343,26998,6,0,P|209:336|164:295,1,139.999995727539
259,246,27344,1,0,0:0:0:0:
163,205,27459,2,0,L|98:177,2,69.9999978637696
351,91,27921,6,0,B|275:123|275:123|229:172,1,139.999995727539
163,205,28267,1,0,0:0:0:0:
104,141,28382,2,0,B|180:109|180:109|219:67,1,139.999995727539
131,38,28729,1,0,0:0:0:0:
131,38,28844,1,0,0:0:0:0:
353,89,29075,5,0,0:0:0:0:
314,186,29190,1,0,0:0:0:0:
266,279,29305,1,0,0:0:0:0:
266,279,29536,1,0,0:0:0:0:
43,61,29767,6,0,B|108:141|108:141|72:178|43:221|98:300,1,269.999991760254
160,220,30229,2,0,P|203:166|207:113,1,89.9999972534181
143,60,30459,2,0,B|254:58|254:58|217:135|305:215|406:204|406:204|327:159,1,449.99998626709
332,162,31152,1,0,0:0:0:0:
413,295,31382,6,0,L|314:267,1,89.9999972534181
229,318,31613,2,0,P|160:245|317:259,1,359.999989013672
240,238,32305,6,0,L|339:266,1,89.9999972534181
424,215,32536,2,0,P|493:288|336:274,1,359.999989013672
70,95,33459,6,0,B|168:135|168:135|138:52|138:52|181:57|311:76,1,359.999989013672
174,288,34382,6,0,B|87:321|87:321|206:173,1,269.999991760254
282,115,34844,2,0,B|365:68|365:68|242:228|242:228|243:149,1,359.999989013672
390,323,35536,6,0,P|348:261|407:164,1,179.999994506836
390,323,35998,2,0,P|421:245|436:234,1,89.9999972534181
423,243,36229,1,0,0:0:0:0:
346,353,36459,2,0,P|280:359|186:297,2,179.999994506836
357,136,37152,6,0,L|265:182,1,89.9999972534181
210,91,37382,2,0,P|157:174|204:252,2,179.999994506836
194,323,38075,2,0,P|120:278|83:176,2,179.999994506836
420,236,38767,6,0,L|338:277,1,89.9999972534181
248,238,38998,2,0,P|242:323|331:374,2,179.999994506836
243,21,39690,5,0,0:0:0:0:
243,21,39921,2,0,B|141:65|141:65|184:89|203:148,2,179.999994506836
85,150,40613,2,0,P|126:225|287:91,1,359.999989013672
292,28,41190,1,0,0:0:0:0:
214,41,41305,2,0,P|165:50|125:71,2,89.9999972534181
214,41,41767,1,0,0:0:0:0:
409,133,41998,5,0,0:0:0:0:
201,192,42229,1,0,0:0:0:0:
408,250,42459,1,0,0:0:0:0:
197,299,42690,2,0,B|84:321|84:321|111:255|72:164|61:150,1,269.999991760254
48,64,43152,2,0,B|150:22|150:22|107:105|199:209|309:179,1,359.999989013672
429,28,43844,5,0,0:0:0:0:
410,133,43959,1,0,0:0:0:0:
389,239,44075,1,0,0:0:0:0:
389,239,44305,1,0,0:0:0:0:
115,324,44536,6,0,B|178:260|178:260|214:345|336:308,1,269.999991760254
268,221,44998,2,0,P|229:171|172:163,1,89.9999972534181
92,174,45229,2,0,B|96:68|207:55|207:55|271:88|321:113|465:13,1,449.99998626709
452,21,45921,1,0,0:0:0:0:
293,167,46152,6,0,L|381:189,1,89.9999972534181
484,217,46382,2,0,B|453:321|453:321|398:266|286:267|286:267|331:327,1,359.999989013672
293,167,47075,6,0,L|205:145,1,89.9999972534181
102,117,47305,2,0,B|133:13|133:13|188:68|300:67|300:67|255:7,1,359.999989013672
102,117,48229,6,0,P|55:211|203:158,1,359.999989013672
386,61,49152,6,0,P|490:80|398:145,1,269.999991760254
300,123,49613,2,0,P|188:168|333:219,1,359.999989013672
115,248,50305,6,0,P|110:149|157:70,1,179.999994506836
115,248,50767,2,0,P|201:241|294:297,1,179.999994506836
141,79,51229,2,0,P|46:116|-4:182,2,179.999994506836
201,323,51921,6,0,L|293:277,1,89.9999972534181
348,368,52151,2,0,P|401:285|354:207,2,179.999994506836
364,136,52844,2,0,P|438:181|475:283,2,179.999994506836
72,159,53536,6,0,L|154:118,1,89.9999972534181
244,157,53767,2,0,P|250:72|161:21,2,179.999994506836
249,374,54459,5,0,0:0:0:0:
249,374,54690,2,0,B|146:340|146:340|206:293,2,179.999994506836
460,327,55382,2,0,B|430:228|430:228|391:298|278:284|245:160,1,359.999989013672
220,54,55959,1,0,0:0:0:0:
324,28,56074,2,0,P|373:37|413:58,2,89.9999972534181
357,193,56536,1,0,0:0:0:0:
132,54,56767,5,0,0:0:0:0:
41,250,56998,1,0,0:0:0:0:
226,139,57229,1,0,0:0:0:0:
212,353,57459,2,0,B|288:382|288:382|289:331|324:293|436:267,1,269.999991760254
485,182,57921,2,0,B|342:185|242:273|242:273|171:257|132:250,1,359.999989013672
371,81,58613,5,0,0:0:0:0:
263,98,58729,1,0,0:0:0:0:
157,120,58844,1,0,0:0:0:0:
157,120,59075,1,0,0:0:0:0:
464,177,59305,6,0,P|364:179|303:154,1,139.999995727539
263,98,59652,1,0,0:0:0:0:
371,81,59767,2,0,L|458:60,2,69.9999978637696
263,98,60113,1,0,0:0:0:0:
157,120,60229,6,0,P|121:183|143:260,1,139.999995727539
211,305,60575,1,0,0:0:0:0:
303,335,60690,1,0,0:0:0:0:
400,343,60805,1,0,0:0:0:0:
496,323,60921,1,0,0:0:0:0:
118,209,61152,6,0,P|218:207|279:232,1,139.999995727539
319,288,61499,1,0,0:0:0:0:
211,305,61614,2,0,L|124:326,2,69.9999978637696
319,288,61960,1,0,0:0:0:0:
425,266,62076,6,0,P|461:203|439:126,1,139.999995727539
371,81,62422,1,0,0:0:0:0:
279,51,62537,1,0,0:0:0:0:
182,43,62652,1,0,0:0:0:0:
86,63,62768,1,0,0:0:0:0:
371,81,62998,6,0,P|417:123|446:212,1,139.999995727539
347,179,63344,1,0,0:0:0:0:
258,138,63459,2,0,P|212:124|172:124,1,69.9999978637696
92,130,63690,1,0,0:0:0:0:
92,130,63805,1,0,0:0:0:0:
168,178,63921,6,0,P|237:222|311:226,1,139.999995727539
258,138,64267,1,0,0:0:0:0:
169,97,64382,2,0,P|116:107|95:127,2,69.9999978637696
441,218,64844,6,0,P|374:269|306:279,1,139.999995727539
229,240,65190,1,0,0:0:0:0:
158,308,65305,2,0,P|131:265|137:225,1,69.9999978637696
134,148,65536,1,0,0:0:0:0:
185,64,65652,1,0,0:0:0:0:
274,24,65767,6,0,P|323:18|427:51,1,139.999995727539
460,125,66113,1,0,0:0:0:0:
371,168,66229,2,0,P|308:164|278:150,1,69.9999978637696
343,94,66459,1,0,0:0:0:0:
303,290,66690,6,0,L|376:158,1,139.999995727539
421,83,67036,1,0,0:0:0:0:
340,26,67152,1,0,0:0:0:0:
340,26,67267,1,0,0:0:0:0:
284,106,67382,1,0,0:0:0:0:
284,106,67498,1,0,0:0:0:0:
185,83,67613,6,0,L|258:215,1,139.999995727539
303,290,67959,1,0,0:0:0:0:
222,347,68075,1,0,0:0:0:0:
222,347,68190,1,0,0:0:0:0:
166,267,68305,1,0,0:0:0:0:
20,95,68536,6,0,P|40:179|99:225,1,139.999995727539
166,267,68882,1,0,0:0:0:0:
244,208,68998,2,0,L|303:170,2,69.9999978637696
166,267,69344,1,0,0:0:0:0:
74,301,69459,2,0,L|-2:317,2,69.9999978637696
166,267,69805,1,0,0:0:0:0:
246,323,69921,2,0,L|317:369,2,69.9999978637696
468,321,70382,6,0,P|448:237|389:191,1,139.999995727539
322,149,70728,1,0,0:0:0:0:
244,208,70844,2,0,L|185:246,2,69.9999978637696
322,149,71190,1,0,0:0:0:0:
414,115,71305,2,0,L|490:99,2,69.9999978637696
322,149,71651,1,0,0:0:0:0:
242,93,71767,2,0,L|171:47,2,69.9999978637696
194,284,72229,6,0,P|261:295|324:244,1,139.999995727539
322,149,72575,1,0,0:0:0:0:
414,115,72690,2,0,P|452:156|456:247,1,139.999995727539
386,303,73036,1,0,0:0:0:0:
290,327,73152,1,0,0:0:0:0:
130,213,73382,5,0,0:0:0:0:
170,123,73498,1,0,0:0:0:0:
251,69,73613,1,0,0:0:0:0:
348,55,73729,1,0,0:0:0:0:
441,81,73844,1,0,0:0:0:0:
287,201,74075,6,0,P|227:182|187:141,1,100
149,77,74421,2,0,L|177:141,1,50
207,204,74652,2,0,L|236:267,2,50
119,182,74998,6,0,P|64:231|53:274,1,100
89,341,75344,1,0,0:0:0:0:
174,316,75459,2,0,P|162:287|135:266,2,50
207,204,75921,6,0,P|267:185|307:144,1,100
345,80,76267,2,0,L|317:144,1,50
287,207,76498,2,0,L|258:270,2,50
375,185,76844,6,0,P|430:234|441:277,1,100
405,344,77190,1,0,0:0:0:0:
320,319,77305,2,0,P|332:290|359:269,2,50
406,103,77767,6,0,P|353:105|307:133,1,100
318,217,78113,1,0,0:0:0:0:
402,187,78229,2,0,P|442:182|464:169,1,50
493,99,78459,1,0,0:0:0:0:
438,26,78575,1,0,0:0:0:0:
349,41,78690,6,0,L|247:57,1,100
161,73,79036,1,0,0:0:0:0:
73,94,79152,2,0,L|18:104,2,50
402,187,79613,6,0,P|349:185|303:157,1,100
314,73,79959,1,0,0:0:0:0:
398,103,80075,2,0,P|438:108|460:121,1,50
489,191,80305,1,0,0:0:0:0:
434,264,80421,1,0,0:0:0:0:
345,249,80536,6,0,L|243:233,1,100
157,217,80882,1,0,0:0:0:0:
69,196,80998,2,0,L|14:186,2,50
314,73,81459,5,0,0:0:0:0:
157,217,81690,2,0,L|212:169,1,50
264,130,81921,1,0,0:0:0:0:
264,130,82036,1,0,0:0:0:0:
328,193,82152,2,0,L|280:149,1,50
226,97,82382,6,0,P|165:86|127:93,1,100
66,160,82729,1,0,0:0:0:0:
40,73,82844,2,0,P|62:37|84:21,2,50
156,258,83305,5,0,0:0:0:0:
352,331,83536,2,0,L|294:312,1,50
251,242,83767,1,0,0:0:0:0:
251,242,83882,1,0,0:0:0:0:
340,229,83998,1,0,0:0:0:0:
340,229,84113,1,0,0:0:0:0:
421,269,84229,6,0,P|463:248|490:197,1,100
402,175,84575,1,0,0:0:0:0:
470,116,84690,1,0,0:0:0:0:
470,116,84805,1,0,0:0:0:0:
470,116,84921,1,0,0:0:0:0:
340,229,85152,5,0,0:0:0:0:
144,156,85383,2,0,L|202:175,1,50
245,245,85614,1,0,0:0:0:0:
245,245,85729,1,0,0:0:0:0:
156,258,85845,1,0,0:0:0:0:
156,258,85960,1,0,0:0:0:0:
75,218,86076,6,0,P|33:239|6:290,1,100
94,312,86422,1,0,0:0:0:0:
26,371,86537,1,0,0:0:0:0:
26,371,86652,1,0,0:0:0:0:
26,371,86768,1,0,0:0:0:0:
244,339,86998,6,0,P|303:316|326:276,1,100
298,200,87344,1,0,0:0:0:0:
283,111,87459,2,0,P|351:128|379:161,1,100
396,234,87805,1,0,0:0:0:0:
323,288,87921,2,0,P|259:284|221:255,1,100
180,189,88267,1,0,0:0:0:0:
162,100,88382,1,0,0:0:0:0:
198,17,88498,1,0,0:0:0:0:
198,17,88613,1,0,0:0:0:0:
