osu file format v9

[General]
AudioFilename: InazumaEleven6thEnding.mp3
AudioLeadIn: 0
PreviewTime: 46508
Countdown: 0
SampleSet: Normal
StackLeniency: 0.5
Mode: 0
LetterboxInBreaks: 0
StoryFireInFront: 0

[Editor]
Bookmarks: 52628
DistanceSpacing: 1
BeatDivisor: 4
GridSize: 8

[Metadata]
Title:Shining Power (TV Size)
Artist:Berryz Koubou
Creator:Zekira
Version:Normal
Source:Inazuma Eleven
Tags:Krisom

[Difficulty]
HPDrainRate:3
CircleSize:3
OverallDifficulty:4
ApproachRate:5
SliderMultiplier:1.6
SliderTickRate:2

[Events]
//Background and Video events
0,0,"a.png"
Video,792,"6thED_xvid_001.avi"
//Break Periods
2,26002,28788
//Storyboard Layer 0 (Background)
//Storyboard Layer 1 (Fail)
//Storyboard Layer 2 (Pass)
//Storyboard Layer 3 (Foreground)
//Storyboard Sound Samples
//Background Colour Transformations
3,100,163,162,255

[TimingPoints]
221,465.116279069767,4,1,0,72,1,0
46734,-100,4,1,0,72,0,1
76500,-100,4,1,0,72,0,0
87663,-100,4,1,0,72,0,1
87779,-100,4,1,0,72,0,0

[Colours]
Combo1 : 255,0,0
Combo2 : 255,255,0

[HitObjects]
24,192,5802,1,0
136,72,6267,1,2
296,72,6732,1,2
376,80,6965,1,0
440,128,7197,1,2
192,328,7895,5,0
192,328,8127,1,0
192,168,8593,1,0
192,88,8825,1,0
120,128,9058,1,2
96,288,9523,6,2,B|96:48|256:-36|416:48|416:288,1,640,0|6
256,320,11848,5,0
152,200,12314,1,0
48,80,12779,1,2
48,240,13244,1,0
48,240,13476,1,0
48,240,13709,1,2
208,240,14174,1,0
256,64,15337,5,2
256,64,15569,1,0
360,184,16034,1,0
464,304,16500,1,2
464,144,16965,1,0
464,144,17197,1,0
464,144,17430,1,2
304,144,17895,1,0
72,288,19058,5,2
72,288,19290,1,2
112,136,19755,1,0
256,64,20221,1,0
432,328,21151,1,4
400,192,23011,6,2,B|256:67|112:192,1,320
112,192,24407,2,2,B|256:317|400:191,1,320
256,112,25802,1,4
48,192,29988,5,0
48,192,30221,1,0
48,192,30453,1,2
168,80,30918,1,0
168,80,31151,1,0
168,80,31383,1,2
280,192,31848,1,0
280,192,32314,1,0
256,80,33709,5,0
368,192,34174,1,0
256,304,34639,1,0
144,192,35104,1,2
256,80,35569,5,0
144,192,36034,1,0
256,304,36500,1,0
368,192,36965,1,2
512,248,37430,5,0
512,248,37662,1,0
512,248,37895,1,2
392,360,38360,1,0
392,360,38593,1,0
392,360,38825,1,2
280,248,39290,5,6
184,120,39755,1,6
88,248,40220,1,6
256,192,41151,12,4,44872
56,192,46732,5,4
168,80,47197,1,0
328,56,47662,1,2
480,88,48127,1,0
448,248,48593,2,2,B|312:288|208:264,2,240
360,112,50453,6,0,B|480:112,1,120,2|0
424,216,51151,1,0
424,216,51383,2,0,B|304:216,1,120,2|0
184,216,52081,1,0
184,216,52314,2,2,B|56:184|184:152|304:120|184:80,2,240
344,192,54174,5,0
256,328,54639,1,0
168,192,55104,1,0
168,112,55337,1,0
168,32,55569,1,2
256,160,56034,2,6,B|256:304,2,120
256,192,57895,12,4,60454
456,192,61616,5,0
344,304,62081,1,0
184,328,62546,1,2
32,296,63011,1,0
64,136,63476,2,2,B|200:96|304:120,2,240
152,272,65337,6,0,B|32:272,1,120,2|0
88,168,66034,1,0
88,168,66267,2,0,B|208:168,1,120,2|0
328,168,66965,1,0
328,168,67197,2,2,B|456:200|328:232|208:264|328:304,2,240
168,192,69058,5,0
256,56,69523,1,0
344,192,69988,1,0
344,272,70220,1,0
344,352,70453,1,2
256,224,70918,2,6,B|256:80,2,120
256,192,72779,12,4,74989
152,72,76500,5,0
80,216,76965,1,2
208,312,77430,1,0
288,312,77662,1,0
352,264,77895,1,2
464,152,78360,2,6,B|472:64|384:64,2,120
176,264,80220,5,0
176,104,80686,1,2
336,104,81151,1,0
336,264,81616,1,2
256,192,82081,12,0,85337
72,192,85802,5,0
112,120,86034,1,0
184,80,86267,1,0
256,48,86500,1,0
328,80,86732,1,0
400,120,86965,1,0
440,192,87197,2,0,B|440:256,4,40,0|0|0|0|4
