osu file format v9

[General]
AudioFilename: InazumaEleven6thEnding.mp3
AudioLeadIn: 0
PreviewTime: 46508
Countdown: 0
SampleSet: Normal
StackLeniency: 0.5
Mode: 0
LetterboxInBreaks: 0
StoryFireInFront: 0

[Editor]
Bookmarks: 52628
DistanceSpacing: 1
BeatDivisor: 4
GridSize: 4

[Metadata]
Title:Shining Power (TV Size)
Artist:Berryz Koubou
Creator:Zekira
Version:Kreasyom
Source:Inazuma Eleven
Tags:Krisom

[Difficulty]
HPDrainRate:3
CircleSize:3
OverallDifficulty:2
ApproachRate:3
SliderMultiplier:1.1
SliderTickRate:2

[Events]
//Background and Video events
0,0,"a.png"
Video,784,"6thED_xvid_001.avi"
//Break Periods
2,26466,28548
//Storyboard Layer 0 (Background)
//Storyboard Layer 1 (Fail)
//Storyboard Layer 2 (Pass)
//Storyboard Layer 3 (Foreground)
//Storyboard Sound Samples
//Background Colour Transformations
3,100,163,162,255

[TimingPoints]
221,465.116279069767,4,1,0,71,1,0
9523,-107.52688172043,4,1,0,71,0,0
11384,-100,4,1,0,71,0,0
14872,-100,4,2,0,100,0,0
18128,-100,4,1,0,71,0,0
46734,-100,4,1,0,71,0,1
76500,-100,4,1,0,71,0,0
87663,-100,4,1,0,71,0,1
87779,-100,4,1,0,71,0,0

[Colours]
Combo1 : 255,0,0
Combo2 : 255,255,0

[HitObjects]
424,192,2081,1,2
312,192,2546,1,2
200,192,3011,1,2
88,192,3476,1,2
256,192,3941,12,4,5802
256,112,6732,5,8
256,112,7197,1,2
160,168,7662,2,0,B|208:224|256:216|304:224|352:168,1,220,0|8
432,96,9058,1,8
432,208,9523,6,0,B|360:288|296:312|256:296|216:312|152:288|80:208,1,409.199981951238,4|2
88,96,11848,5,8
176,32,12314,1,0
200,136,12779,1,8
312,136,13244,1,0
336,32,13709,1,8
424,96,14174,1,0
368,312,15104,5,0
256,312,15569,1,2
144,312,16034,1,0
112,208,16500,1,2
200,136,16965,1,0
312,136,17430,1,2
400,208,17895,1,2
192,280,18825,6,0,B|192:204|256:184|320:204|320:280,2,220
256,368,21151,1,6
464,112,22546,6,0,B|256:-17|48:112,2,440,0|0|4
152,300,29988,5,4
256,336,30453,1,8
360,300,30918,1,0
256,260,31383,1,8
208,160,31848,2,0,B|256:112|304:160,2,110,0|8|0
400,56,33709,6,0,B|340:56|284:56,1,110,0|8
180,52,34639,1,0
70,52,35104,1,6
112,152,35569,6,0,B|172:152|228:152,1,110,0|8
332,152,36500,1,0
442,152,36965,1,6
408,252,37430,5,4
308,300,37895,1,8
204,300,38360,1,0
104,248,38825,1,8
201,196,39290,2,0,B|257:196|317:196,2,110,0|8|0
408,120,41151,6,0,B|256:4|104:120,1,330
256,192,43011,12,8,44872
128,52,46732,6,0,B|48:132,1,110,4|8
127,207,47662,2,0,B|204:130,1,110,0|8
282,206,48593,2,0,B|156:332,2,165,0|2|8
320,104,50453,6,0,B|320:28|256:8|192:28|192:104,2,220
348,208,52779,1,8
256,268,53244,1,0
164,208,53709,1,8
148,100,54174,5,4
364,100,55104,1,4
256,292,56034,6,0,B|256:384,2,82.5,0|2|0
256,128,57430,1,8
168,192,57895,6,0,B|200:248|256:272|312:248|344:192,1,220
256,192,59290,12,8,60686
384,52,61616,6,0,B|464:132,1,110,4|8
385,207,62546,2,0,B|308:130,1,110,0|8
230,206,63476,2,0,B|356:332,2,165,0|2|8
192,104,65337,6,0,B|192:40|256:28|256:28|320:36|320:104,2,220
152,204,67662,1,8
256,168,68127,1,0
360,204,68593,1,8
364,316,69058,5,4
148,316,69988,1,4
256,124,70918,6,0,B|256:32,2,82.5,0|2|0
256,288,72314,1,8
344,224,72779,6,0,B|312:168|256:144|200:168|168:224,2,220
148,88,76500,5,0
256,88,76965,1,8
364,88,77430,1,0
256,280,78360,6,0,B|256:364,2,82.5,0|2|0
256,116,79755,1,8
348,176,80220,6,0,B|284:196|256:233|256:233|228:196|164:176,2,220,0|0|4
452,212,82546,5,8
392,304,83011,1,0
292,352,83476,1,2
60,172,84407,5,8
120,80,84872,1,2
220,32,85337,1,2
256,192,85802,12,6,87662
