osu file format v9

[General]
AudioFilename: InazumaEleven6thEnding.mp3
AudioLeadIn: 0
PreviewTime: 46508
Countdown: 0
SampleSet: Normal
StackLeniency: 0.5
Mode: 0
LetterboxInBreaks: 0
StoryFireInFront: 0

[Editor]
DistanceSpacing: 1
BeatDivisor: 4
GridSize: 8

[Metadata]
Title:Shining Power (TV Size)
Artist:Berryz Koubou
Creator:Zekira
Version:Champion
Source:Inazuma Eleven
Tags:Krisom

[Difficulty]
HPDrainRate:5
CircleSize:5
OverallDifficulty:7
ApproachRate:8
SliderMultiplier:1.92
SliderTickRate:2

[Events]
//Background and Video events
0,0,"a.png"
Video,792,"6thED_xvid_001.avi"
//Break Periods
//Storyboard Layer 0 (Background)
//Storyboard Layer 1 (Fail)
//Storyboard Layer 2 (Pass)
//Storyboard Layer 3 (Foreground)
//Storyboard Sound Samples
//Background Colour Transformations
3,100,163,162,255

[TimingPoints]
221,465.116279069767,4,1,0,71,1,0
46734,-100,4,1,0,71,0,1
76500,-100,4,1,0,71,0,0
87663,-100,4,1,0,71,0,1
87779,-100,4,1,0,71,0,0

[Colours]
Combo1 : 255,0,0
Combo2 : 255,255,0

[HitObjects]
32,48,6034,5,8
32,96,6151,1,8
40,144,6267,1,0
64,184,6383,1,8
136,248,6616,1,0
184,264,6732,1,8
232,272,6848,1,8
280,264,6965,1,0
368,224,7197,1,2
456,320,7895,5,8
456,272,8011,1,0
456,224,8127,1,0
456,128,8360,2,0,B|456:72|400:40,1,96,0|8
328,96,8825,2,0,B|328:152|384:184,1,96,8|0
256,48,9523,5,2
256,144,9755,1,0
256,240,9988,1,2
256,336,10221,1,0
488,192,10453,5,0
472,240,10569,1,0
440,272,10686,1,0
392,288,10802,1,0
344,272,10918,1,0
312,240,11034,1,0
296,192,11151,1,0
392,192,11383,1,6
104,96,11616,5,8
184,40,11848,1,0
280,40,12081,2,8,B|384:40,1,96,8|0
376,136,12546,1,0
328,136,12662,1,0
280,136,12779,1,8
280,232,13011,1,0
328,232,13127,1,0
376,232,13244,6,0,B|432:232|464:168,3,96,8|0|8|0
464,88,14174,1,0
368,72,14407,1,2
320,56,14523,1,2
272,56,14639,1,0
224,72,14755,1,0
128,80,14988,1,2
408,288,15337,5,8
328,344,15569,1,0
232,344,15802,2,8,B|128:344,1,96,8|0
136,248,16267,1,0
184,248,16383,1,0
232,248,16500,1,8
232,152,16732,1,0
184,152,16848,1,0
136,152,16965,6,0,B|80:152|48:216,3,96,8|0|8|0
48,296,17895,1,0
144,328,18127,1,2
184,352,18244,1,0
232,360,18360,1,2
280,352,18476,1,2
312,320,18593,1,2
320,272,18709,1,2
320,224,18825,1,0
320,128,19058,5,2
312,80,19174,1,0
280,48,19290,1,2
184,48,19523,2,0,B|184:144,1,96
88,144,19988,2,0,B|88:48,1,96
472,192,20686,5,0
456,288,20918,1,0
424,328,21034,1,0
376,328,21151,1,8
184,320,21616,1,0
144,288,21732,1,0
128,248,21848,1,0
136,200,21965,1,2
208,136,22197,1,0
256,120,22314,1,2
304,120,22430,1,2
352,136,22546,6,0,B|448:304,3,192,8|0|0|0
256,328,24407,1,0
256,328,24639,1,2
120,192,25104,1,2
256,56,25569,1,2
392,192,26034,1,2
64,336,26267,5,8
64,240,26500,2,0,B|64:184,1,48,0|8
64,96,26848,1,0
64,48,26965,1,8
112,48,27081,1,0
160,48,27197,1,8
208,48,27314,1,8
256,48,27430,1,0
352,48,27662,1,6
448,336,28127,5,0
448,240,28360,1,8
448,192,28476,1,0
448,144,28593,1,0
448,96,28709,1,8
352,96,28941,1,0
304,96,29058,1,2
256,104,29174,1,0
216,128,29290,1,2
176,152,29407,1,0
144,184,29523,1,2
128,232,29639,1,2
136,280,29755,1,0
176,312,29872,1,2
224,312,29988,6,0,B|280:320|312:264,1,96
368,200,30453,2,2,B|464:112,1,96,2|0
384,56,30918,2,2,B|320:40|288:112,1,96
248,168,31383,2,0,B|176:240,1,96
112,168,31848,2,2,B|72:208,2,48
184,104,32314,1,0
376,104,32779,1,0
424,120,32895,1,0
456,160,33011,1,0
456,256,33244,1,2
408,272,33360,1,2
360,280,33476,1,2
312,272,33593,1,2
264,256,33709,5,2
0,32,34174,2,0,B|0:120,1,48,0|8
176,72,34523,2,0,B|176:16,1,48,8|0
88,176,34872,1,4
88,352,35104,1,2
248,128,35569,5,2
512,352,36034,2,0,B|512:264,1,48,0|8
336,312,36383,2,0,B|336:368,1,48,8|0
424,208,36732,1,4
424,32,36965,1,2
256,120,37430,6,0,B|256:224,1,96
160,216,37895,2,2,B|160:112,1,96
72,88,38360,2,0,B|16:112|24:200,1,96
72,242,38825,2,2,B|16:218|24:130,1,96
120,160,39290,1,4
288,64,39755,1,6
288,256,40220,1,6
448,152,40686,1,0
400,152,40802,1,0
352,152,40918,1,2
256,152,41151,5,0
256,152,42081,1,0
256,152,42314,1,0
64,192,42779,5,2
256,192,43244,1,0
352,192,43476,1,2
304,108,43709,1,0
256,24,43941,1,2
208,108,44174,1,0
160,192,44407,1,2
448,192,44872,5,0
352,192,45104,1,0
256,192,45337,1,0
160,192,45569,1,0
64,192,45802,5,0
112,192,45918,1,0
160,192,46034,1,0
208,192,46151,1,0
256,192,46267,1,0
304,192,46383,1,0
352,192,46500,1,0
400,192,46616,1,0
448,192,46732,5,2
448,96,46965,1,0
432,48,47081,1,0
384,40,47197,1,8
312,96,47430,1,0
216,96,47662,1,8
136,40,47895,1,0
88,48,48011,1,0
72,96,48127,1,8
88,144,48244,1,8
136,152,48360,1,0
136,256,48593,5,0
232,256,48825,2,0,B|288:256,1,48,2|0
376,256,49174,2,0,B|320:256,1,48,0|2
296,168,49523,1,8
296,72,49755,1,0
256,48,49872,1,8
208,40,49988,1,8
160,48,50104,1,8
120,72,50220,1,0
120,168,50453,5,8
96,264,50686,2,0,B|56:224,1,48,0|8
152,264,51034,2,0,B|192:224,1,48,8|0
120,168,51383,1,0
96,72,51616,2,0,B|56:112,1,48,0|8
152,72,51965,2,0,B|192:112,1,48,0|8
120,168,52314,5,8
184,240,52546,1,0
224,272,52662,1,0
272,280,52779,1,8
368,280,53011,1,0
416,200,53244,1,8
432,152,53360,1,8
440,104,53476,1,0
408,64,53593,1,0
360,48,53709,1,8
312,56,53825,1,8
264,72,53941,1,0
264,168,54174,5,2
264,264,54407,1,0
264,312,54523,1,2
184,264,54755,1,0
184,312,54872,1,2
104,264,55104,1,0
8,264,55337,1,0
8,264,55414,1,0
8,264,55492,1,0
8,264,55569,1,8
8,168,55802,1,0
40,72,56034,6,4,B|104:8|208:48,2,144,6|4|6
152,232,57197,1,2
200,232,57314,1,0
248,232,57430,1,2
296,232,57546,1,2
344,232,57662,1,0
256,56,57895,5,8
256,152,58127,1,0
256,152,58244,1,0
256,152,58360,1,8
344,192,58593,1,8
344,192,58709,1,8
344,192,58825,1,0
256,232,59058,1,0
256,232,59174,1,0
256,232,59290,1,8
168,192,59523,1,0
256,192,59755,12,4,60918
256,192,61151,5,0
208,192,61267,1,0
160,192,61383,1,0
112,192,61500,1,0
64,192,61616,5,2
64,288,61848,1,0
80,336,61965,1,0
128,344,62081,1,8
200,288,62314,1,0
296,288,62546,1,8
376,344,62779,1,0
424,336,62895,1,0
440,288,63011,1,8
424,240,63127,1,8
376,232,63244,1,0
376,128,63476,5,0
280,128,63709,2,0,B|224:128,1,48,2|0
136,128,64058,2,0,B|192:128,1,48,0|2
216,216,64407,1,8
216,312,64639,1,0
256,336,64755,1,8
304,344,64872,1,8
352,336,64988,1,8
392,312,65104,1,0
392,216,65337,5,8
416,120,65569,2,0,B|456:160,1,48,0|8
360,120,65918,2,0,B|320:160,1,48,8|0
392,216,66267,1,0
416,312,66500,2,0,B|456:272,1,48,0|8
360,312,66848,2,0,B|320:272,1,48,0|8
392,216,67197,5,8
328,144,67430,1,0
288,112,67546,1,0
240,104,67662,1,8
144,104,67895,1,0
96,184,68127,1,8
80,232,68244,1,8
72,280,68360,1,0
104,320,68476,1,0
152,336,68593,1,8
200,328,68709,1,8
248,312,68825,1,0
248,216,69058,5,2
248,120,69290,1,0
248,72,69407,1,2
328,120,69639,1,0
328,72,69755,1,2
408,120,69988,1,0
504,120,70220,1,0
504,120,70298,1,0
504,120,70376,1,0
504,120,70453,1,8
504,216,70686,1,0
472,312,70918,6,4,B|408:376|304:336,2,144,6|4|6
360,152,72081,1,8
312,152,72197,1,0
264,152,72314,1,8
216,152,72430,1,8
168,152,72546,1,0
256,328,72779,5,8
256,232,73011,1,0
256,232,73127,1,0
256,232,73244,1,8
168,192,73476,1,8
168,192,73593,1,8
168,192,73709,1,0
256,152,73941,1,0
256,152,74058,1,0
256,152,74174,1,8
344,192,74407,1,0
256,192,74639,8,4,76034
104,192,76267,5,2
184,144,76500,1,0
272,104,76732,1,0
272,152,76848,1,0
352,104,77081,1,2
352,152,77197,1,2
448,128,77430,1,0
448,224,77662,1,0
448,224,77740,1,0
448,224,77817,1,0
448,224,77895,1,8
352,224,78127,1,0
256,248,78360,5,6
120,192,78709,1,4
256,136,79058,1,6
440,192,79523,1,0
344,192,79755,1,8
296,192,79872,1,0
248,192,79988,1,0
248,288,80220,5,2
152,288,80453,1,0
104,296,80569,1,0
56,304,80686,1,8
16,216,80918,1,0
32,120,81151,1,0
72,104,81267,1,0
120,88,81383,1,0
168,80,81500,1,0
216,72,81616,1,0
264,72,81732,1,0
312,80,81848,1,0
256,192,82081,12,4,85337
112,192,85802,5,2
208,192,86034,1,0
304,192,86267,1,2
400,192,86500,1,0
400,344,86732,5,0
352,344,86848,1,0
304,344,86965,1,0
256,344,87081,1,0
208,344,87197,1,0
176,344,87275,1,0
144,344,87352,1,0
112,344,87430,1,0
256,120,87662,5,6
