osu file format v9

[General]
AudioFilename: Ryusei Boy.mp3
AudioLeadIn: 0
PreviewTime: 51123
Countdown: 0
SampleSet: Soft
StackLeniency: 0.7
Mode: 0
LetterboxInBreaks: 1

[Editor]
DistanceSpacing: 0.8
BeatDivisor: 6
GridSize: 8

[Metadata]
Title:Ryusei Boy (TV Size)
Artist:Berryz Koubou
Creator:LuPiiTa
Version:Easy
Source:Inazuma Eleven
Tags:winber1 soccer football

[Difficulty]
HPDrainRate:4
CircleSize:3
OverallDifficulty:3
ApproachRate:3
SliderMultiplier:1.1
SliderTickRate:1

[Events]
//Background and Video events
Video,0,"ED3.flv"
0,0,"275729 (1)_thumb.jpg"
//Break Periods
2,47944,49859
//Storyboard Layer 0 (Background)
//Storyboard Layer 1 (Fail)
//Storyboard Layer 2 (Pass)
//Storyboard Layer 3 (Foreground)
//Storyboard Sound Samples
//Background Colour Transformations
3,100,163,162,255

[TimingPoints]
1521.8692635281,444.444444444444,4,2,1,100,1,0
5077,-100,4,2,1,100,0,1
18632,-100,4,2,1,100,0,0
51293,-100,4,2,1,100,0,1
78798,-100,4,2,1,100,0,0

[Colours]
Combo1 : 0,0,160
Combo2 : 255,168,81
Combo3 : 0,128,128
Combo4 : 187,0,0
Combo5 : 117,186,255

[HitObjects]
424,120,5077,22,8,B|336:48|224:96|176:120,1,220
152,128,6410,1,8
153,196,6855,2,0,B|289:196,3,110,0|8|0|4
331,196,8632,37,0
331,195,9077,1,8
323,126,9521,2,0,B|211:126,1,110,0|8
146,127,10410,2,0,B|160:65|251:43,3,110,0|8|0|8
288,48,12188,37,0
424,48,13077,1,8
360,168,13966,2,0,B|360:283,3,110,0|8|0|4
288,280,15744,21,0
216,280,16188,1,8
144,280,16632,1,0
256,192,17521,12,4,19299
336,168,20188,21,0
301,110,20632,2,8,B|248:48|160:64|128:112|144:208,2,220
344,160,22855,5,0
416,48,23744,1,0
416,120,24188,2,8,B|448:176|416:248|352:264|304:232,2,220
352,96,26410,6,0,B|304:72|240:96,3,110,0|8|0|8
232,160,28188,1,0
280,208,28632,1,8
232,256,29077,1,0
304,128,29966,22,4,B|216:16|232:152|152:144|112:80,2,220,0|0|0
205,191,33521,53,4
273,191,33966,2,0,B|407:191,2,110,0|0|8
224,248,35299,1,0
224,248,35744,2,0,B|96:248,2,110,0|0|8
256,312,37077,5,0
256,176,37966,1,0
256,104,38410,1,8
184,104,38855,1,0
184,104,39299,2,0,B|56:104,2,110,0|0|8
64,184,41077,6,0,B|152:112|304:152,1,220,0|8
312,280,42855,2,0,B|240:184|312:72,1,220,0|8
256,192,44188,12,4,47744
232,88,51299,21,8
368,88,52188,1,8
304,208,53077,1,8
304,208,53521,2,4,B|304:336,1,110,0|8
440,303,54855,5,0
440,236,55299,1,8
440,168,55744,2,0,B|440:56,1,110,0|8
368,56,56632,1,0
192,56,57744,1,0
327,163,58410,6,12,B|135:290,1,220,8|8
85,323,59744,1,0
154,320,60188,1,8
292,319,61077,1,8
256,192,61966,12,4,64855
292,327,65521,37,0
341,280,65966,1,8
293,231,66410,1,0
227,214,66855,2,0,B|227:102,3,110,8|0|8|0
357,146,69077,54,0,B|357:258,1,110,0|8
416,220,69966,2,0,B|416:348,2,110,0|8|0
416,56,71966,1,0
237,167,72632,53,8
104,168,73521,1,8
176,283,74410,1,0
176,283,74855,1,0
256,112,75521,53,12
382,279,76188,53,0
384,280,76632,1,8
384,280,77077,2,0,B|528:280,1,110
472,160,78188,2,4,B|408:160,2,55
320,80,79744,5,4
320,216,80632,1,4
201,281,81521,2,0,B|107:306|42:268|42:268|20:176|75:86,1,330,2|0
132,102,83299,1,4
268,105,84188,1,4
256,192,85077,12,4,86855
