osu file format v9

[General]
AudioFilename: Berryz Koubou - Maji Bomber!! (TV Size).mp3
AudioLeadIn: 1000
PreviewTime: 1813
Countdown: 0
SampleSet: Normal
StackLeniency: 0.7
Mode: 0
LetterboxInBreaks: 1

[Editor]
DistanceSpacing: 1
BeatDivisor: 4
GridSize: 8

[Metadata]
Title:Maji Bomber!! (TV Size)
Artist:Berryz Koubou
Creator:AIR315
Version:Insane
Source:Inazuma Eleven
Tags:Endou soccer football Raimon lighting Japan ending KDS

[Difficulty]
HPDrainRate:6
CircleSize:4
OverallDifficulty:7
ApproachRate:8
SliderMultiplier:1.7
SliderTickRate:2

[Events]
//Background and Video events
0,0,"BG.jpg"
Video,0,"Berryz Koubou - Maji Bomber!! (TV Size).avi"
//Break Periods
//Storyboard Layer 0 (Background)
//Storyboard Layer 1 (Fail)
//Storyboard Layer 2 (Pass)
//Storyboard Layer 3 (Foreground)
//Storyboard Sound Samples
//Background Colour Transformations
3,100,0,0,0

[TimingPoints]
695,315.789473684211,4,1,1,90,1,0
7010,-100,4,1,1,80,0,0
12063,-100,4,1,1,90,0,0
17116,-100,4,1,1,80,0,0
24695,-100,4,2,0,70,0,0
27221,-100,4,2,0,90,0,0
44905,-100,4,1,1,90,0,0
49958,-100,4,1,1,80,0,0
55010,-100,4,1,1,90,0,0
60063,-100,4,1,1,80,0,0
65116,-100,4,1,1,100,0,1
70168,-100,4,1,1,90,0,1
75221,-100,4,1,1,100,0,1
80273,-100,4,1,1,90,0,1
84063,-100,4,1,1,90,0,0
87852,-100,4,1,1,80,0,0

[Colours]
Combo1 : 0,0,255
Combo2 : 255,0,0
Combo3 : 255,128,64
Combo4 : 255,255,0
Combo5 : 0,255,0

[HitObjects]
184,232,1958,5,4
256,128,2116,1,0
328,232,2273,1,8
480,160,2589,6,0,B|464:120|416:104,1,85
384,24,2905,2,0,B|344:40|328:88,1,85,8|0
352,168,3221,2,0,B|368:208|416:224,1,85
480,280,3537,1,8
480,280,3695,1,0
392,272,3852,1,0
392,272,4010,1,0
320,232,4168,1,8
320,232,4326,1,0
272,160,4484,5,0
272,160,4642,1,0
288,80,4800,2,0,B|216:32,1,85,8|0
200,112,5116,2,0,B|112:112,1,85
144,192,5431,2,0,B|80:248,1,85,8|0
152,296,5747,2,0,B|216:240,1,85
280,184,6063,2,0,B|216:239,1,85,8|0
256,312,6379,1,0
336,296,6537,1,0
400,248,6695,1,8
448,176,6852,1,0
456,88,7010,6,0,B|416:64|376:56|328:64|296:88,1,170,4|8
312,168,7484,1,0
248,224,7642,1,0
232,224,7721,1,0
216,224,7800,1,0
224,136,7958,2,0,B|280:72,1,85,8|0
200,48,8273,2,0,B|40:112,1,170,0|8
96,176,8747,1,0
72,256,8905,1,0
88,256,8984,1,0
104,256,9063,1,0
144,328,9221,2,0,B|224:360,1,85,8|0
304,344,9537,6,0,B|384:344|384:248|304:248,1,170,0|8
360,184,10010,2,0,B|360:96,1,85
288,56,10326,2,0,B|288:144,1,85,0|8
216,184,10642,2,0,B|152:176|152:176|144:136|144:136|80:128,1,170
48,208,11116,2,0,B|16:288,1,85,8|0
104,280,11431,1,0
112,288,11510,1,0
120,296,11589,1,0
200,272,11747,1,8
200,288,11826,1,0
200,304,11905,1,0
200,320,11984,1,0
200,336,12063,5,4
312,272,12221,1,0
200,208,12379,1,8
296,104,12695,6,0,B|344:104|360:152,1,85
360,232,13010,2,0,B|344:280|296:280,1,85,8|0
216,280,13326,2,0,B|168:280|152:232,1,85
152,152,13642,2,0,B|168:104|216:104,1,85,8|0
344,56,13958,2,0,B|392:56|408:104,1,85
408,280,14273,2,0,B|392:328|344:328,1,85,8|0
168,328,14589,6,0,B|120:328|104:280,1,85
104,104,14905,2,0,B|120:56|168:56,1,85,8|0
256,136,15221,1,0
320,192,15379,1,0
256,248,15537,1,8
192,192,15695,1,0
120,232,15852,2,0,B|120:144,1,85
216,56,16168,2,0,B|304:56,1,85,8|0
392,152,16484,2,0,B|392:240,1,85
296,328,16800,2,0,B|208:328,1,85,8|0
128,352,17116,6,0,B|80:320|128:288|128:288|80:248|128:216,1,170,4|8
192,160,17589,1,0
256,104,17747,2,0,B|256:56,2,42.5
256,216,18063,1,8
320,160,18221,1,0
384,216,18379,2,0,B|430:246|382:286|382:286|430:318|382:350,1,170,0|8
296,344,18852,1,0
232,288,19010,1,0
224,280,19089,1,0
216,272,19168,1,0
208,264,19247,1,0
200,256,19326,1,8
192,248,19405,1,0
184,240,19484,1,0
176,232,19563,1,0
168,224,19642,6,0,B|168:136,1,85,8|0
240,184,19958,2,0,B|240:96,1,85,8|0
312,144,20273,2,0,B|312:56,1,85,8|0
384,104,20589,2,0,B|384:16,2,85,8|0|4
256,304,21695,1,0
256,304,21773,1,0
256,304,21852,1,8
424,352,22168,6,0,B|503:351|503:255|425:256,1,170,0|8
344,232,22642,2,0,B|256:232,1,85
184,184,22958,2,0,B|136:184,2,42.5,0|0|8
256,144,23273,2,0,B|280:104|328:96|376:104|400:144,1,170
472,184,23747,2,0,B|416:248,1,85,8|0
376,328,24063,1,0
368,320,24142,1,0
360,312,24221,1,0
288,272,24379,1,8
280,280,24458,1,0
272,288,24537,1,0
264,296,24616,1,0
256,304,24695,6,0,B|168:304,1,85,4|0
120,232,25010,2,0,B|208:232,1,85,8|0
256,160,25326,2,0,B|168:160,1,85
120,88,25642,2,0,B|208:88,1,85,8|0
280,56,25958,2,0,B|344:112,1,85
392,216,26273,2,0,B|336:280,1,85,8|0
232,328,26589,2,0,B|168:272,1,85
120,168,26905,2,0,B|176:104,1,85,8|0
192,192,27221,6,0,B|136:256,1,85
320,192,27537,2,0,B|376:256,1,85,8|0
96,88,27852,2,0,B|40:152,1,85
416,88,28168,2,0,B|472:152,1,85,8|0
152,272,28484,2,0,B|208:272|224:216,1,85
176,88,28800,2,0,B|176:144|232:160,1,85,8|0
360,112,29116,2,0,B|304:112|288:168,1,85
336,296,29431,2,0,B|336:240|280:224,1,85,8|0
456,280,29747,5,4
456,280,29905,1,0
456,280,30063,1,2
456,280,30221,2,0,B|456:232|456:232|496:200|456:168|456:168|456:120,2,170,2|0|2
296,328,31168,2,0,B|248:328|248:328|216:368|184:328|184:328|136:328,2,170,0|2|0
376,240,31958,2,0,B|312:184,1,85,8|0
248,128,32273,6,0,B|184:72,1,85
112,120,32589,2,0,B|144:200,1,85,8|0
400,120,32905,2,0,B|368:200,1,85
256,232,33221,1,8
192,288,33379,2,0,B|168:328|144:344|104:336|80:328|48:360,2,170,0|2|0
320,288,34168,2,0,B|344:328|368:344|408:336|432:328|464:360,2,170,0|2|4
256,128,35116,5,8
256,128,35273,1,0
256,216,35431,2,0,B|104:296,1,170,0|8
64,216,35905,2,0,B|120:56,2,170,0|2|0
120,280,36695,2,0,B|208:280,1,85
168,200,37010,2,0,B|256:200,1,85,8|0
216,120,37326,6,0,B|384:120,1,170,0|8
416,40,37800,1,0
488,80,37958,1,0
488,160,38116,1,0
416,200,38273,1,8
384,280,38431,2,0,B|216:280,1,170
208,272,38826,1,0
200,264,38905,1,8
152,200,39063,1,0
188,74,39221,5,8
373,124,39379,1,0
323,309,39537,1,8
138,259,39695,1,0
256,272,39852,6,0,B|256:104,1,170,4|8
336,72,40326,2,0,B|336:168,1,85
336,240,40642,2,0,B|336:288,2,42.5,0|0|8
408,200,40958,2,0,B|486:199|486:295|407:296,1,170
352,360,41431,2,0,B|296:296,2,85,8|0|0
264,344,41905,1,0
248,344,41984,1,0
232,344,42063,1,8
168,280,42221,2,0,B|120:176,1,85,0|4
296,152,42695,5,8
456,104,43010,1,4
296,56,43326,1,8
256,192,43484,12,8,44589
328,192,44905,5,4
256,120,45063,1,0
184,192,45221,1,2
88,48,45537,6,0,B|56:128,1,85
56,208,45852,2,0,B|56:296,1,85,2|0
136,328,46168,1,0
216,304,46326,1,0
296,328,46484,2,0,B|384:328,1,85,2|0
432,264,46800,1,0
384,200,46958,1,0
432,136,47116,1,2
384,72,47273,1,0
312,136,47431,6,0,B|264:144|256:192,1,85
312,248,47747,2,0,B|304:200|256:192,1,85,2|0
200,248,48063,2,0,B|248:240|256:192,1,85
200,136,48379,2,0,B|208:184|256:192,1,85,2|0
416,72,48695,2,0,B|408:120|368:136,1,85
376,352,49010,2,0,B|328:344|312:304,1,85,2|0
96,312,49326,2,0,B|104:264|144:248,1,85
136,32,49642,2,0,B|184:40|200:80,1,85,2|0
192,192,49958,6,0,B|232:168|256:136|256:136|280:168|320:192,1,170,4|2
256,240,50431,1,0
256,328,50589,1,0
256,328,50668,1,0
256,328,50747,1,0
176,312,50905,2,0,B|136:288|128:240,1,85,2|0
192,192,51221,2,0,B|152:168|128:136|128:136|104:168|64:192,1,170,0|2
8,128,51695,2,0,B|8:40,1,85
88,16,52010,2,0,B|88:104,1,85,0|2
208,112,52484,6,0,B|224:104|240:96|256:96|272:104|288:112|288:112|304:120|320:128|336:128|352:120|368:112,1,170,0|2
432,168,52958,2,0,B|480:240,1,85
392,232,53273,2,0,B|384:320,1,85,0|2
320,264,53589,2,0,B|176:352,1,170
112,296,54063,1,2
88,216,54221,1,0
152,160,54379,1,0
168,160,54458,1,0
184,160,54537,1,0
320,160,54695,1,2
304,160,54773,1,0
288,160,54852,1,0
272,160,54931,1,0
256,160,55010,5,4
192,264,55168,1,0
320,264,55326,1,2
488,312,55642,6,0,B|488:224,1,85
424,72,55958,2,0,B|424:160,1,85,2|0
360,312,56273,2,0,B|360:224,1,85
296,72,56589,2,0,B|296:160,1,85,2|0
216,192,56905,1,0
216,192,57063,1,0
176,120,57221,1,2
176,120,57379,1,0
128,264,57537,5,0
128,264,57695,1,0
64,56,57852,1,2
64,56,58010,1,0
72,144,58168,2,0,B|96:184|144:192,1,85
224,216,58484,2,0,B|267:223|291:263,1,85,2|0
344,328,58800,2,0,B|432:328,1,85
392,248,59116,2,0,B|480:248,1,85,2|0
440,168,59431,1,0
400,96,59589,1,0
360,168,59747,1,2
320,96,59905,1,0
280,168,60063,6,0,B|112:168,1,170,4|2
72,248,60537,1,0
112,328,60695,1,0
112,328,60773,1,0
112,328,60852,2,0,B|128:344|152:336|176:344|192:328,1,85,0|2
232,248,61168,1,0
240,160,61326,2,0,B|384:64,1,170,0|2
448,120,61800,1,0
392,184,61958,1,0
384,192,62037,1,0
376,200,62116,1,0
368,208,62195,1,0
360,216,62273,1,2
352,224,62352,1,0
344,232,62431,1,0
336,240,62510,1,0
256,192,62589,12,2,63537
256,64,63852,5,0
384,168,64010,1,0
320,304,64168,1,2
192,304,64326,1,0
128,168,64484,1,0
256,224,64800,1,2
256,208,64879,1,0
256,192,64958,1,0
256,176,65037,1,0
256,160,65116,6,0,B|320:104,1,85,4|0
408,144,65431,2,0,B|368:224,1,85,8|0
400,296,65747,2,0,B|448:296,2,42.5
336,352,66063,2,0,B|288:352,2,42.5,8|0|0
312,272,66379,2,0,B|224:304,1,85
232,216,66695,2,0,B|152:192,1,85,8|0
80,136,67010,2,0,B|80:184,2,42.5
16,80,67326,2,0,B|16:32,2,42.5,8|0|0
104,56,67642,5,0
104,56,67800,1,0
184,80,67958,1,8
184,80,68116,1,0
240,144,68273,1,0
240,144,68352,1,0
240,144,68431,1,0
264,224,68589,1,8
264,224,68668,1,0
264,224,68747,1,0
272,312,68905,2,0,B|360:312,1,85
432,240,69221,2,0,B|344:240,1,85,8|0
384,160,69537,2,0,B|336:160,2,42.5
408,80,69852,2,0,B|456:80,2,42.5,8|0|0
328,104,70168,6,0,B|272:40,1,85,4|0
256,128,70484,2,0,B|216:112,2,42.5,8|0|0
320,192,70800,2,0,B|384:248,1,85
448,304,71116,2,0,B|390:368,1,85,8|0
312,336,71431,1,0
232,304,71589,1,0
176,240,71747,2,0,B|160:200,2,42.5,8|0|0
120,304,72063,1,0
120,304,72221,1,0
64,240,72379,1,8
64,240,72537,1,0
40,160,72695,6,0,B|40:112|88:96,1,85
208,48,73010,2,0,B|208:96|160:112,1,85,8|0
248,192,73326,2,0,B|248:144|296:128,1,85
416,80,73642,2,0,B|416:128|368:144,1,85,8|0
336,216,73958,2,0,B|416:240,1,85
352,288,74273,2,0,B|416:352,1,85,8|0
328,352,74589,2,0,B|240:352,1,85
264,272,74905,2,0,B|176:272,1,85,8|0
144,192,75221,5,4
256,80,75379,1,0
368,192,75537,1,8
288,344,75852,6,0,B|200:344,1,85
248,272,76168,2,0,B|336:272,1,85,8|0
296,200,76484,2,0,B|208:200,1,85
256,128,76800,2,0,B|344:128,1,85,8|0
296,56,77116,2,0,B|208:56,1,85
128,80,77431,1,8
72,144,77589,1,0
96,224,77747,6,0,B|96:312,1,85
168,264,78063,2,0,B|256:264,1,85,8|0
208,192,78379,2,0,B|208:104,1,85
280,152,78695,2,0,B|368:152,1,85,8|0
320,80,79010,1,0
408,88,79168,1,0
480,136,79326,1,8
504,216,79484,1,0
464,288,79642,2,0,B|432:208,1,85
368,264,79958,2,0,B|336:184,1,85,8|0
272,240,80273,6,0,B|232:240|224:272|200:320|176:272|168:240|128:240,1,170,4|8
64,184,80747,1,0
144,152,80905,2,0,B|176:112,2,42.5
128,240,81221,1,8
208,208,81379,1,0
240,128,81537,2,0,B|280:128|288:96|312:48|336:96|344:128|384:128,1,170,0|8
464,96,82010,1,0
448,176,82168,2,0,B|416:208,1,42.5
376,208,82326,2,0,B|344:240,1,42.5
304,240,82484,2,0,B|272:272,1,42.5,8|0
232,264,82642,2,0,B|200:296,1,42.5
160,288,82800,6,0,B|152:312|128:320|104:312|96:288,1,85,8|0
352,96,83116,2,0,B|360:72|384:64|408:72|416:96,1,85,8|0
160,96,83431,2,0,B|152:72|128:64|104:72|96:96,1,85,8|0
352,288,83747,2,0,B|360:312|384:320|408:312|416:288,1,85,8|0
256,192,84063,1,4
256,192,84852,1,0
256,192,84931,1,0
256,192,85010,1,8
168,152,85326,6,0,B|176:104|216:88,1,85
344,152,85642,2,0,B|336:104|296:88,1,85,8|0
168,232,85958,2,0,B|176:280|216:296,1,85
344,232,86273,2,0,B|336:280|296:296,1,85,8|0
416,128,86589,2,0,B|460:51,1,85
96,256,86905,2,0,B|51:332,1,85,8|0
256,136,87221,1,0
256,152,87300,1,0
256,168,87379,1,0
256,184,87458,1,0
256,200,87537,1,8
256,216,87616,1,0
256,232,87695,1,0
256,248,87773,1,0
256,264,87852,6,0,B|192:264|144:208|144:144,1,170,0|8
256,336,88326,2,0,B|320:336|368:280|368:216,1,170
328,88,88800,1,8
256,192,88958,1,0
256,192,89037,1,0
256,192,89116,1,4
