osu file format v9

[General]
AudioFilename: Berryz Koubou - Koi no Jubaku.mp3
AudioLeadIn: 0
PreviewTime: 78737
Countdown: 0
SampleSet: Soft
StackLeniency: 0.5
Mode: 0
LetterboxInBreaks: 0

[Editor]
DistanceSpacing: 1
BeatDivisor: 4
GridSize: 8

[Metadata]
Title:Koi no Jubaku
Artist:Berryz Koubou
Creator:Breeze
Version:saymun no Insane
Source:
Tags:loli gdeath saymun BexXz

[Difficulty]
HPDrainRate:7
CircleSize:4
OverallDifficulty:7
ApproachRate:8
SliderMultiplier:1.6
SliderTickRate:1

[Events]
//Background and Video events
Video,0,"Berryz koubou - Koi no Jubaku.avi"
0,0,"BG.jpg"
//Break Periods
2,29541,31429
2,74846,78301
2,100021,102637
2,145335,148791
2,170720,173149
2,232840,235246
//Storyboard Layer 0 (Background)
//Storyboard Layer 1 (Fail)
//Storyboard Layer 2 (Pass)
//Storyboard Layer 3 (Foreground)
//Storyboard Sound Samples
//Background Colour Transformations
3,100,255,255,0

[TimingPoints]
1010,419.58041958042,4,1,0,70,1,0
16010,-100,4,2,0,100,0,0
21045,-100,4,1,0,70,0,0
22304,-100,4,2,0,100,0,0
27758,-100,4,1,0,70,0,0
28807,-100,4,2,0,100,0,0
44751,-100,4,1,0,50,0,0
46272,-100,4,2,0,100,0,0
57968,-100,4,1,0,70,0,0
59646,-100,4,2,0,100,0,0
61115,-100,4,1,0,70,0,0
62164,-100,4,2,0,100,0,0
64472,-100,4,1,0,70,0,0
65521,-100,4,2,0,100,0,0
70346,-100,4,1,0,70,0,0
71185,-100,4,2,0,100,0,0
72024,-100,4,1,0,70,0,0
79891,-100,4,2,0,100,0,1
84821,-100,4,1,0,70,0,1
86604,-100,4,2,0,100,0,1
90695,-100,4,1,0,70,0,1
91954,-100,4,2,0,100,0,1
93213,-100,4,1,0,70,0,1
94786,-100,4,1,0,70,0,0
94891,-100,4,2,0,100,0,0
114716,-100,4,1,0,70,0,0
116709,-100,4,2,0,100,0,0
128563,-100,4,1,0,70,0,0
130136,-100,4,2,0,100,0,0
131814,-100,4,1,0,70,0,0
132653,-100,4,2,0,100,0,0
135171,-100,4,1,0,70,0,0
136010,-100,4,2,0,100,0,0
141465,-100,4,1,0,70,0,0
141884,-100,4,2,0,100,0,0
143143,-100,4,1,0,70,0,0
150380,-100,4,2,0,100,0,1
155311,-100,4,1,0,70,0,1
157094,-100,4,2,0,100,0,1
161185,-100,4,1,0,70,0,1
162024,-100,4,2,0,100,0,1
162863,-100,4,1,0,70,0,1
165275,-100,4,1,0,70,0,0
167478,-100,4,2,0,70,0,0
167898,-100,4,1,0,70,0,0
168317,-100,4,2,0,70,0,0
173899,419.58041958042,4,2,0,100,1,0
178847,-100,4,1,0,70,0,0
180001,-100,4,2,0,100,0,0
185560,-100,4,1,0,70,0,0
186609,-100,4,2,0,100,0,0
193113,-100,4,1,0,70,0,0
193323,-100,4,2,0,100,0,0
193532,-100,4,1,0,70,0,0
193742,-100,4,2,0,100,0,0
198148,-100,4,1,0,70,0,0
198987,-100,4,2,0,100,0,0
199826,-100,4,1,0,70,0,0
202449,-100,4,2,0,100,0,0
209267,-100,4,1,0,70,0,0
210822,-100,4,2,0,100,0,1
215770,-100,4,1,0,70,0,1
217514,-100,4,2,0,100,0,1
217553,-100,4,2,0,100,0,1
221644,-100,4,1,0,70,0,1
222903,-100,4,2,0,100,0,1
223323,-100,4,1,0,70,0,1
225717,-100,4,1,0,70,0,0
227833,-100,4,2,0,100,0,0
240840,-100,4,1,0,70,0,0
242099,-100,4,2,0,100,0,0
247553,-100,4,1,0,70,0,0
249423,-100,4,2,0,70,0,0
251101,-100,4,2,0,50,0,0
251521,-100,4,2,0,40,0,0
251940,-100,4,2,0,30,0,0
252360,-100,4,2,0,20,0,0
252780,-100,4,2,0,10,0,0
257728,-100,4,1,0,0,0,0

[Colours]
Combo1 : 128,128,255
Combo2 : 255,128,192
Combo3 : 255,255,0
Combo4 : 0,255,255
SliderBorder : 255,255,255

[HitObjects]
40,192,15275,1,0
184,192,15485,1,0
328,192,15695,1,0
472,192,15905,1,0
400,320,16114,5,0
320,344,16324,1,0
320,344,16394,1,0
320,344,16464,1,0
320,344,16534,1,2
240,320,16744,1,0
160,344,16954,2,0,B|72:312|64:216,1,160,0|2
112,64,17793,5,0
192,40,18003,1,0
192,40,18072,1,0
192,40,18142,1,0
192,40,18212,1,2
272,64,18422,1,0
352,40,18632,2,0,B|440:72|448:168,1,160,0|2
304,296,19471,6,0,B|208:296,2,80,0|0|2
272,224,20100,1,0
240,152,20310,2,0,B|336:152,2,80,0|0|2
168,112,20940,1,0
168,192,21149,5,0
344,192,21359,1,0
168,192,21569,1,0
344,192,21779,1,0
168,192,21989,5,0
344,192,22408,1,4
256,56,22828,5,0
184,88,23037,1,0
184,88,23107,1,0
184,88,23177,1,0
184,88,23247,1,2
104,64,23457,1,0
32,96,23667,2,0,B|48:192|144:240,1,160,0|2
256,328,24506,5,0
328,296,24716,1,0
328,296,24786,1,0
328,296,24856,1,0
328,296,24926,1,2
408,320,25135,1,0
480,288,25345,2,0,B|464:192|368:144,1,160,0|2
208,88,26184,6,0,B|304:88,2,80,0|0|2
160,152,26814,1,0
112,216,27023,2,0,B|16:216,2,80,0|0|2
72,288,27653,1,0
152,288,27863,5,0
360,288,28072,1,0
152,288,28282,1,0
360,288,28492,1,0
152,288,28702,1,0
80,176,32898,5,0
152,136,33107,1,0
224,176,33317,1,2
296,136,33527,2,0,B|344:136|400:160,1,80
432,208,33947,1,0
360,248,34156,1,2
288,208,34366,1,0
216,248,34576,6,0,B|168:280|112:264,1,80
240,320,34996,2,0,B|288:344|336:328,1,80,2|0
408,272,35415,2,0,B|368:256|296:264,1,80
408,184,35835,2,0,B|448:168|456:112,1,80,2|0
480,232,36254,1,0
312,64,36464,6,0,B|256:48|208:72,1,80,0|2
160,96,36884,2,0,B|104:80|56:104,1,80
56,168,37303,1,0
136,184,37513,1,2
376,192,37723,6,0,B|272:192,1,80,8|0
72,272,38142,6,0,B|120:288|168:272,1,80,0|2
232,296,38562,2,0,B|280:312|328:296,1,80,0|0
416,80,38982,6,0,B|360:64|320:88,2,80,8|6|0
400,160,39611,5,0
464,208,39821,1,0
400,256,40030,1,2
336,208,40240,2,0,B|256:184|160:208,1,160
120,256,40870,1,2
56,208,41079,1,0
120,160,41289,6,0,B|160:128|176:80,1,80
208,200,41709,2,0,B|240:232|304:240,1,80,2|0
184,304,42128,2,0,B|160:336|96:352,1,80
232,368,42548,2,0,B|272:344|336:344,1,80,2|0
256,192,42968,12,4,44436
296,192,44856,5,0
296,192,44961,1,0
296,192,45065,1,0
216,192,45275,1,0
216,192,45380,1,0
216,192,45485,1,0
256,264,45695,2,0,B|256:320,6,40,0|0|0|0|0|0|4
400,192,46744,5,2
472,152,46954,1,0
472,232,47163,1,0
400,272,47373,1,0
328,232,47583,1,2
328,152,47793,1,0
400,112,48003,5,0
92,172,48422,1,2
376,304,48842,1,0
224,30,49261,1,2
186,341,49681,1,0
112,312,49891,6,0,B|80:272|72:224,1,80,0|2
128,184,50310,2,0,B|112:136|120:88,1,80
192,128,50730,1,0
256,80,50940,1,2
408,272,51149,6,0,B|384:304|328:304,1,80,8|0
408,72,51569,6,0,B|408:128|376:168,1,80,0|2
328,208,51989,2,0,B|296:248|232:248,1,80,0|0
259,245,52408,1,8
259,245,52618,1,6
259,245,53037,5,0
192,288,53247,1,0
192,208,53457,1,2
120,248,53667,2,0,B|88:168|120:72,1,160
192,64,54296,1,2
272,88,54506,1,0
352,64,54716,6,0,B|400:96|456:80,1,80
336,152,55135,2,0,B|288:184|232:168,1,80,2|0
352,240,55555,2,0,B|400:272|456:256,1,80
336,320,55975,2,0,B|288:352|232:336,1,80,2|0
260,341,56394,1,0
184,320,56604,6,0,B|72:320,2,80,0|2|0
248,272,57233,1,0
224,200,57443,1,0
144,200,57653,1,2
64,200,57863,5,4
184,320,58177,1,0
184,320,58282,1,0
224,200,58492,1,0
320,288,58702,1,0
320,288,58807,1,0
360,168,59016,1,0
360,168,59121,1,0
448,80,59331,1,0
448,80,59541,1,0
256,128,59751,6,0,B|256:32,2,80,0|0|2
320,176,60380,1,0
296,248,60590,1,0
216,248,60800,1,0
192,176,61010,1,2
410,324,61429,5,4
102,324,61744,1,4
256,48,62058,1,4
336,88,62268,6,0,B|432:88,1,80
176,88,62688,2,0,B|80:88,1,80,2|0
256,128,63107,6,0,B|256:32,2,80,0|0|2
320,176,63737,1,0
296,248,63947,1,0
216,248,64156,1,0
192,176,64366,1,2
448,360,64786,5,4
64,360,65100,1,4
256,32,65415,1,4
360,88,65625,6,0,B|456:88,1,80
152,88,66044,2,0,B|56:88,1,80,2|0
256,136,66464,5,0
208,200,66674,1,0
136,168,66884,1,2
88,232,67093,2,0,B|104:304|160:312,1,80
200,336,67513,1,0
264,288,67723,1,2
336,328,67933,1,0
400,280,68142,6,0,B|448:248|496:264,2,80,0|0|2
376,208,68772,2,0,B|424:176|472:192,2,80
376,208,69401,1,2
88,72,69821,5,0
64,144,70030,1,0
64,184,70135,1,0
64,224,70240,1,2
144,200,70450,1,0
144,240,70555,1,0
144,280,70660,1,0
200,336,70870,1,0
200,336,71079,1,8
424,312,71499,5,0
448,240,71709,1,0
448,200,71814,1,0
448,160,71919,1,2
368,184,72128,1,0
368,144,72233,1,0
368,104,72338,1,0
312,48,72548,1,0
312,48,72758,1,8
312,48,72968,1,0
256,192,73177,12,4,74646
472,192,79051,5,0
328,192,79261,1,0
184,192,79471,1,0
40,192,79681,1,0
112,320,79891,6,0,B|160:296|208:304,1,80
272,320,80310,2,0,B|320:296|368:304,1,80,2|0
40,192,80730,5,0
472,192,81149,1,10
400,64,81569,6,0,B|352:88|304:80,1,80
240,64,81989,2,0,B|192:88|144:80,1,80,2|0
472,192,82408,5,0
40,192,82828,1,10
304,256,83247,6,0,B|400:256,2,80,0|0|2
256,192,83877,1,0
208,128,84086,2,0,B|112:128,2,80,0|0|2
256,192,84716,1,0
256,328,84926,5,0
126,234,85135,1,0
176,81,85345,1,0
335,81,85555,1,0
385,234,85765,1,0
385,234,86184,1,4
294,334,86604,6,0,B|246:246,1,80
256,264,87023,2,0,B|214:342,1,80,2|0
472,192,87443,5,0
40,192,87863,1,10
218,49,88282,6,0,B|256:120,1,80
255,120,88702,2,0,B|294:50,1,80,2|0
40,192,89121,5,0
472,192,89541,1,10
256,64,89961,6,0,B|192:72|176:120,1,80
256,144,90380,2,0,B|320:152|336:200,1,80,2|0
368,248,90800,1,0
256,296,91114,1,0
144,248,91429,1,0
256,40,92058,6,0,B|256:144,1,80
256,200,92478,2,0,B|256:304,1,80
256,320,92793,2,0,B|328:312|368:248,1,120
392,192,93317,5,0
120,192,93737,1,0
392,192,94366,5,0
120,192,94576,1,0
392,192,94786,1,0
256,40,95415,5,0
256,192,95835,1,0
256,344,96254,1,8
392,120,96674,6,0,B|424:208|384:304,1,160,0|4
120,120,97513,2,0,B|88:208|128:304,1,160,0|4
256,192,98352,12,0,99821
120,216,103387,5,0
184,264,103597,1,0
256,240,103807,1,2
320,288,104016,2,0,B|416:248|432:136,1,160
408,96,104646,1,2
336,120,104856,1,0
256,104,105065,6,0,B|168:72|88:120,1,160,0|2
256,280,105905,2,0,B|344:312|424:264,1,160,0|2
410,271,106744,5,0
256,88,106954,2,0,B|224:128|224:184,1,80,0|2
152,200,107373,2,0,B|136:144|88:128,1,80
48,192,107793,1,0
88,264,108003,1,2
320,320,108212,6,0,B|368:320|416:272,1,80,8|0
352,56,108632,6,0,B|304:104|304:160,1,80,0|2
288,200,109051,2,0,B|256:256|208:272,1,80
235,258,109471,1,8
235,258,109681,1,4
88,192,110100,5,0
136,256,110310,1,0
184,192,110520,2,0,B|216:144|264:120,1,80,2|0
320,120,110940,1,0
352,192,111149,2,0,B|384:248|440:256,1,80,0|2
384,320,111569,1,0
304,336,111779,6,0,B|264:312|208:328,1,80
128,240,112198,2,0,B|168:216|224:232,1,80,2|0
304,144,112618,2,0,B|264:120|208:136,1,80
128,48,113037,2,0,B|168:24|224:40,1,80,2|0
256,192,113457,12,0,114926
152,216,115345,5,0
152,216,115450,1,0
152,216,115555,1,0
256,288,115765,1,0
360,216,115975,1,0
360,216,116079,1,0
360,216,116184,1,0
320,96,116394,1,0
192,96,116604,1,0
320,96,116814,5,4
376,152,117023,1,0
320,208,117233,1,2
264,152,117443,2,0,B|168:152|136:264,1,160
184,312,118072,1,2
104,312,118282,1,0
184,312,118492,5,0
243,52,118912,1,2
347,297,119331,1,0
119,160,119751,1,2
384,137,120170,1,0
440,192,120380,6,0,B|400:224|336:216,1,80,0|2
288,208,120800,2,0,B|224:200|192:248,1,80
168,288,121219,1,0
96,256,121429,1,2
256,72,121639,6,0,B|328:56|360:88,1,80,8|0
400,304,122058,6,0,B|344:328|296:312,1,80,0|2
328,240,122478,2,0,B|360:216|368:168,1,80
367,172,122898,1,8
367,172,123107,1,4
367,172,123527,6,0,B|347:87|248:69,1,160,0|2
232,144,124156,2,0,B|192:232|80:216,1,160
72,144,124786,1,2
72,144,124891,1,0
72,144,124996,1,0
144,112,125205,6,0,B|168:72|224:64,1,80
297,60,125625,2,0,B|342:71|367:122,1,80,2|0
393,190,126044,2,0,B|397:237|357:276,1,80
299,322,126464,2,0,B|256:340|206:314,1,80,2|0
145,273,126884,2,0,B|114:238|124:182,1,80
200,216,127303,6,0,B|296:216,2,80,2|0|0
216,136,127933,1,0
296,136,128142,1,2
256,64,128352,1,4
64,320,128772,5,0
104,320,128877,1,0
144,320,128982,1,0
176,248,129191,1,0
216,248,129296,1,0
256,248,129401,1,0
288,320,129611,1,0
328,320,129716,1,0
368,320,129821,1,0
408,248,130030,1,0
448,176,130240,6,0,B|472:152|472:88,2,80,0|0|2
376,136,130870,1,0
312,176,131079,2,0,B|288:152|288:88,2,80,0|0|2
376,136,131709,1,0
456,208,131919,5,4
256,192,132233,1,4
56,176,132548,1,4
128,136,132758,6,0,B|200:64,1,80
128,248,133177,2,0,B|56:320,1,80,2|0
224,288,133597,6,0,B|288:304|328:272,1,80
336,216,134016,1,2
288,152,134226,2,0,B|224:136|184:168,1,80,0|0
168,224,134646,2,0,B|136:264|88:280,2,80,0|2|0
56,208,135275,5,4
256,192,135590,1,4
456,176,135905,1,4
384,136,136114,6,0,B|312:64,1,80
384,248,136534,2,0,B|456:320,1,80,2|0
368,344,136954,6,0,B|304:368|272:352,1,80
216,320,137373,1,2
144,288,137583,2,0,B|96:272|48:304,2,80
200,232,138212,1,2
200,232,138317,1,0
200,232,138422,1,0
264,184,138632,6,0,B|312:160|360:168,1,80
384,96,139051,1,2
320,48,139261,2,0,B|264:40|216:64,2,80
384,96,139891,1,2
384,96,139996,1,0
384,96,140100,1,0
160,328,140310,6,0,B|80:272|80:160,1,160,0|2
352,56,140940,2,0,B|432:112|432:224,1,160
256,192,141569,5,8
256,192,141674,1,0
256,192,141779,1,0
120,96,141989,6,0,B|176:16|288:16,1,160,0|2
392,288,142618,2,0,B|336:368|224:368,1,160
256,192,143247,5,8
256,192,143352,1,0
256,192,143457,1,0
256,192,143562,1,0
256,192,143667,1,0
256,192,143772,12,4,145135
40,192,149541,5,0
184,192,149751,1,0
328,192,149961,1,0
472,192,150170,1,0
400,72,150380,5,0
320,88,150590,1,0
240,72,150800,1,2
160,88,151009,1,0
40,192,151219,5,0
472,192,151639,1,10
112,312,152058,5,0
192,296,152268,1,0
272,312,152478,1,2
352,296,152688,1,0
472,192,152898,5,0
40,192,153317,1,10
256,112,153737,6,0,B|256:24,2,80,0|0|2
256,192,154366,1,0
256,272,154576,2,0,B|256:360,2,80,0|0|2
256,192,155205,1,0
352,192,155415,5,0
160,192,155625,1,0
352,192,155835,1,0
160,192,156044,1,0
352,192,156254,5,0
160,192,156674,1,0
80,320,157093,6,0,B|112:280|176:272,1,80
232,320,157513,2,0,B|264:280|328:272,1,80,2|0
472,192,157933,5,0
40,192,158352,1,10
432,64,158772,6,0,B|400:104|336:112,1,80
280,64,159191,2,0,B|248:104|184:112,1,80,2|0
40,192,159611,5,0
472,192,160030,1,10
256,304,160450,6,0,B|200:328|152:320,1,80
96,336,160870,1,2
120,264,161079,1,0
96,192,161289,5,0
256,80,161604,1,0
416,192,161919,1,0
376,264,162128,5,0
312,312,162338,1,0
272,240,162548,2,0,B|296:200|352:176,1,80,2|0
416,192,162968,5,0
256,80,163282,1,0
96,192,163597,1,0
136,264,163807,5,0
376,264,164226,1,0
136,264,164856,5,0
376,264,165065,1,0
136,264,165275,1,0
256,336,165905,5,0
256,192,166324,1,0
256,48,166744,1,8
392,272,167163,6,0,B|424:192|392:96,1,160,0|4
120,272,168003,2,0,B|88:192|120:96,1,160,0|4
256,192,168842,12,0,170520
72,192,173899,5,0
128,256,174108,1,0
128,256,174178,1,0
128,256,174248,1,0
128,256,174318,1,2
200,216,174528,1,0
256,280,174738,2,0,B|352:264|400:168,1,160,0|2
296,64,175577,5,0
232,112,175787,1,0
232,112,175857,1,0
232,112,175926,1,0
232,112,175996,1,2
152,88,176206,1,0
88,136,176416,2,0,B|72:232|144:304,1,160,0|2
288,296,177255,6,0,B|376:296,2,80,0|0|2
256,192,177885,1,0
224,88,178094,2,0,B|136:88,2,80,0|0|2
256,192,178724,1,0
144,192,178933,5,0
346,126,179143,1,0
221,298,179353,1,0
221,85,179563,1,0
346,257,179773,1,0
256,192,180192,5,4
120,96,180612,5,0
72,160,180822,1,0
72,160,180892,1,0
72,160,180961,1,0
72,160,181031,1,2
120,224,181241,1,0
168,160,181451,2,0,B|256:128|344:168,1,160,0|2
400,296,182290,5,0
344,352,182500,1,0
344,352,182570,1,0
344,352,182640,1,0
344,352,182710,1,2
288,296,182919,1,0
344,240,183129,2,0,B|320:144|216:128,1,160,0|2
88,64,183968,5,0
56,136,184178,1,0
88,208,184388,2,0,B|88:304,1,80,2|0
328,288,184808,5,0
360,216,185017,1,0
328,144,185227,2,0,B|328:48,1,80,2|0
256,96,185647,5,0
256,288,185857,1,0
256,96,186066,1,0
256,288,186276,1,0
256,96,186486,1,0
456,192,187325,6,0,B|392:240|280:224,1,160
232,192,187954,1,0
184,256,188164,2,0,B|128:320|40:328,2,160
88,128,189423,1,0
160,88,189633,1,0
240,112,189843,2,0,B|320:136|416:104,1,160
176,192,190682,5,0
256,192,190892,1,0
336,192,191101,1,0
336,192,191521,1,0
256,192,191731,1,0
176,192,191940,1,0
296,304,192360,6,0,B|344:344|400:344,2,80
216,304,192989,2,0,B|168:344|112:344,2,80
256,232,193619,1,0
72,80,194038,6,0,B|112:64|160:80,1,80
224,104,194458,1,2
304,80,194668,1,0
376,112,194878,2,0,B|328:192|216:184,1,160,0|8
448,304,195717,5,0
376,328,195926,1,0
296,304,196136,2,0,B|224:288|192:320,1,80,2|0
144,272,196556,2,0,B|200:208|304:200,1,160,0|8
256,40,197395,5,0
184,80,197605,1,0
256,40,197815,1,2
328,80,198024,1,0
256,40,198234,2,0,B|256:192,2,120
184,80,199073,1,0
112,40,199283,1,0
40,80,199493,6,0,B|40:176,1,80,2|0
112,128,199912,2,0,B|112:256,2,120
184,168,200752,2,0,B|184:256,1,80
184,248,201171,1,0
192,256,201801,1,0
192,256,202010,1,0
192,256,202220,1,0
360,96,202850,5,0
287,330,203269,1,0
120,149,203689,1,8
440,88,204108,6,0,B|360:56|272:88,1,160,0|4
72,296,204947,2,0,B|152:328|240:296,1,160,0|4
256,192,205787,12,2,207045
96,312,207465,5,0
168,280,207675,1,0
240,312,207885,1,2
312,280,208094,2,0,B|400:248|416:160,1,160
416,128,208619,1,0
408,88,208724,1,2
328,72,208933,2,0,B|296:128|240:136,1,80
208,80,209353,5,0
168,88,209458,1,0
128,96,209563,1,0
88,168,209773,1,0
128,184,209878,1,0
168,200,209982,1,0
224,256,210192,1,0
264,248,210297,1,0
304,240,210402,1,0
360,184,210612,1,0
424,232,210822,6,0,B|384:312,1,80
388,303,211241,2,0,B|304:352,1,80,2|0
318,343,211661,2,0,B|240:360|136:328,1,160,0|8
424,152,212500,6,0,B|384:72,1,80
388,80,212919,2,0,B|304:32,1,80,2|0
318,40,213339,2,0,B|240:24|136:56,1,160,0|8
104,272,214178,6,0,B|160:288|200:264,1,80
240,216,214598,1,2
216,136,214808,1,0
272,80,215017,2,0,B|328:64|368:88,1,80
408,136,215437,1,2
352,192,215647,1,0
424,272,215857,5,0
424,272,216066,1,0
424,272,216276,1,0
424,272,216486,1,0
424,272,216696,1,0
336,288,216905,1,0
296,296,217010,1,0
256,304,217115,1,0
184,272,217325,1,0
328,80,217535,6,0,B|384:96|384:152,1,80
184,304,217954,2,0,B|128:288|128:232,1,80,2|0
400,200,218374,5,0
112,184,218794,1,8
144,120,219213,6,0,B|160:64|216:64,1,80
368,264,219633,2,0,B|352:320|296:320,1,80,2|0
264,48,220052,5,0
248,336,220472,1,8
256,192,220892,6,0,B|304:160|352:176,1,80
360,96,221311,2,0,B|320:72|272:80,1,80,2|0
208,104,221731,1,0
144,152,221940,1,0
128,184,222045,1,0
112,224,222150,1,0
48,272,222360,1,0
280,328,222989,6,0,B|328:320|368:272,1,80,2|0
384,216,223409,1,0
360,136,223619,1,0
336,104,223724,1,0
312,72,223829,1,0
240,104,224038,1,0
168,64,224248,2,0,B|88:112|64:192,1,160
272,304,225297,5,0
344,122,225507,1,0
151,149,225717,1,0
256,192,226346,12,0,227605
448,192,228024,5,0
256,192,228444,1,0
64,192,228864,1,8
72,88,229283,6,0,B|152:48|248:96,1,160,0|4
440,296,230122,2,0,B|360:336|264:288,1,160,0|4
256,192,230961,12,0,232640
416,120,235996,5,0
352,72,236206,1,0
352,72,236276,1,0
352,72,236346,1,0
352,72,236416,1,2
288,120,236626,1,0
352,168,236836,2,0,B|296:224|184:208,1,160,0|2
328,312,237675,5,0
256,344,237885,1,0
256,344,237954,1,0
256,344,238024,1,0
256,344,238094,1,2
184,312,238304,1,0
256,344,238514,2,0,B|256:176,1,160,0|2
136,72,239353,5,0
256,112,239563,1,0
376,72,239773,1,2
112,160,240192,5,0
256,192,240402,1,0
400,160,240612,1,2
48,248,241031,5,0
144,304,241241,1,0
256,320,241451,1,0
368,304,241661,1,0
464,248,241871,1,0
48,248,242290,5,4
464,248,242710,5,0
400,192,242919,1,0
400,192,242989,1,0
400,192,243059,1,0
400,192,243129,1,2
328,232,243339,1,0
264,176,243549,2,0,B|184:136|80:160,1,160,0|2
160,304,244388,5,0
232,264,244598,1,0
232,264,244668,1,0
232,264,244738,1,0
232,264,244808,2,0,B|320:264|328:312,1,80,2|0
384,248,245227,2,0,B|352:192|368:80,1,160,0|2
376,312,246066,5,0
256,272,246276,1,0
136,312,246486,1,2
416,224,246905,5,0
256,192,247115,1,0
96,224,247325,1,2
464,136,247745,5,0
368,80,247954,1,0
256,64,248164,1,0
144,80,248374,1,0
48,136,248584,1,0
256,192,249423,12,0,252780
