osu file format v9

[General]
AudioFilename: Berryz Koubou - Koi no Jubaku.mp3
AudioLeadIn: 0
PreviewTime: 78737
Countdown: 0
SampleSet: Normal
StackLeniency: 0.7
Mode: 0
LetterboxInBreaks: 0

[Editor]
DistanceSpacing: 0.8
BeatDivisor: 2
GridSize: 8

[Metadata]
Title:Koi no Jubaku
Artist:Berryz Koubou
Creator:Breeze
Version:Normal
Source:
Tags:loli gdeath saymun BexXz

[Difficulty]
HPDrainRate:4
CircleSize:3
OverallDifficulty:4
ApproachRate:4
SliderMultiplier:1
SliderTickRate:1

[Events]
//Background and Video events
0,0,"BG.jpg"
Video,0,"Berryz Koubou - Koi no Jubaku.avi"
//Break Periods
2,29541,31429
2,74856,78571
2,100030,102067
2,127083,128920
2,145335,149060
2,170520,186005
2,207665,209502
//Storyboard Layer 0 (Background)
//Storyboard Layer 1 (Fail)
//Storyboard Layer 2 (Pass)
//Storyboard Layer 3 (Foreground)
//Storyboard Sound Samples
//Background Colour Transformations
3,100,255,255,0

[TimingPoints]
1010,419.58041958042,4,1,1,70,1,0
16114,-100,4,1,1,100,0,1
16219,-100,4,1,1,60,0,0
19681,-100,4,1,1,90,0,0
20100,-100,4,1,1,60,0,0
20520,-100,4,1,1,90,0,0
20940,-100,4,1,1,60,0,0
22409,-100,4,1,1,50,0,0
23877,-100,4,1,1,80,0,0
24296,-100,4,1,1,50,0,0
25555,-100,4,1,1,80,0,0
25975,-100,4,1,1,50,0,0
26604,-100,4,1,1,80,0,0
26814,-100,4,1,1,50,0,0
27443,-100,4,1,1,80,0,0
27653,-100,4,1,1,80,0,0
32479,-100,4,1,1,50,0,0
34786,-100,4,1,1,80,0,0
35205,-100,4,1,1,50,0,0
35625,-100,4,1,1,80,0,0
36044,-100,4,1,1,50,0,0
37094,-100,4,2,0,50,0,0
39192,-100,4,1,1,50,0,0
41499,-100,4,1,1,80,0,0
41919,-100,4,1,1,50,0,0
42338,-100,4,1,1,80,0,0
42758,-100,4,1,1,50,0,0
44646,-100,4,2,0,50,0,0
45905,-100,4,1,1,50,0,0
48213,-100,4,2,1,80,0,0
48632,-100,4,2,1,50,0,0
49051,-100,4,2,1,80,0,0
49471,-100,4,2,1,50,0,0
52618,-100,4,1,1,50,0,0
54926,-100,4,1,1,80,0,0
55345,-100,4,1,1,50,0,0
55765,-100,4,1,1,80,0,0
56184,-100,4,1,1,50,0,0
56604,-100,4,1,1,80,0,0
57023,-100,4,1,1,50,0,0
57653,-100,4,1,1,80,0,0
58072,-100,4,1,1,50,0,0
58702,-100,4,1,1,50,0,0
59541,-100,4,1,1,50,0,0
61010,-100,4,1,1,80,0,0
61220,-100,4,1,1,80,0,0
62688,-100,4,1,1,50,0,0
64366,-100,4,1,1,80,0,0
64577,-100,4,1,1,80,0,0
66045,-100,4,1,1,50,0,0
67723,-100,4,1,1,80,0,0
67933,-100,4,1,1,50,0,0
69191,-100,4,1,1,80,0,0
69611,-100,4,1,1,50,0,0
70450,-100,4,1,1,80,0,0
70660,-100,4,1,1,50,0,0
72128,-100,4,1,1,80,0,0
72338,-100,4,1,1,50,0,0
74646,-100,4,2,1,80,0,0
74856,-100,4,1,1,50,0,0
79472,-100,4,1,1,70,0,0
80205,-100,4,1,1,100,0,0
80415,-100,4,1,1,70,0,0
80940,-100,4,1,1,100,0,0
81359,-100,4,1,1,70,0,0
81884,-100,4,1,1,100,0,0
82093,-100,4,1,1,70,0,0
82618,-100,4,1,1,100,0,0
83037,-100,4,1,1,70,0,0
83667,-100,4,1,1,100,0,0
83877,-100,4,1,1,70,0,0
84506,-100,4,1,1,100,0,0
84716,-100,4,1,1,70,0,0
85240,-100,4,1,1,100,0,0
85450,-100,4,1,1,70,0,0
85975,-100,4,1,1,100,0,0
86394,-100,4,1,1,70,0,0
87653,-100,4,1,1,100,0,0
88072,-100,4,1,1,70,0,0
89331,-100,4,1,1,100,0,0
89751,-100,4,1,1,70,0,0
90170,-100,4,1,1,100,0,0
90590,-100,4,1,1,70,0,0
91849,-100,4,1,1,100,0,0
92268,-100,4,1,1,70,0,0
93317,-100,4,1,1,100,0,0
94996,-100,4,1,1,50,0,0
95625,-100,4,1,1,70,0,0
96464,-100,4,1,1,100,0,0
103177,-100,4,1,1,50,0,0
105065,-100,4,1,1,70,0,0
105695,-100,4,1,1,80,0,0
106534,-100,4,1,1,70,0,0
107164,-100,4,2,0,70,0,0
109681,-100,4,1,1,70,0,0
110310,-100,4,1,1,100,0,0
110730,-100,4,1,1,70,0,0
110940,-100,4,1,1,50,0,0
111359,-100,4,1,1,100,0,0
111569,-100,4,1,1,50,0,0
111779,-100,4,1,1,70,0,0
111989,-100,4,1,1,100,0,0
112408,-100,4,1,1,70,0,0
112828,-100,4,1,1,100,0,0
113247,-100,4,1,1,70,0,0
115345,-100,4,2,0,70,0,0
116814,-100,4,1,1,60,0,0
117233,-100,4,1,1,100,0,0
117443,-100,4,1,1,60,0,0
118492,-100,4,1,1,70,0,0
118702,-100,4,1,1,100,0,0
119121,-100,4,1,1,70,0,0
119541,-100,4,1,1,100,0,0
119961,-100,4,1,1,70,0,0
120591,-100,4,2,0,70,0,0
123108,-100,4,1,1,70,0,0
123947,-100,4,1,1,100,0,0
124156,-100,4,1,1,70,0,0
124786,-100,4,1,1,100,0,0
124996,-100,4,1,1,70,0,0
125415,-100,4,1,1,100,0,0
125835,-100,4,1,1,70,0,0
126254,-100,4,1,1,100,0,0
126674,-100,4,1,1,70,0,0
130660,-100,4,1,1,100,0,0
130870,-100,4,1,1,70,0,0
131499,-100,4,1,1,100,0,0
131709,-100,4,1,1,70,0,0
134016,-100,4,1,1,100,0,0
134226,-100,4,1,1,70,0,0
134856,-100,4,1,1,100,0,0
135065,-100,4,1,1,70,0,0
137163,-100,4,1,1,100,0,0
137583,-100,4,1,1,70,0,0
138212,-100,4,1,1,100,0,0
138422,-100,4,1,1,70,0,0
139051,-100,4,1,1,100,0,0
139260,-100,4,1,1,70,0,0
139681,-100,4,1,1,100,0,0
140100,-100,4,1,1,70,0,0
140520,-100,4,1,1,100,0,0
140940,-100,4,1,1,70,0,0
141569,-100,4,1,1,100,0,0
141779,-100,4,1,1,70,0,0
142198,-100,4,1,1,100,0,0
142618,-100,4,1,1,70,0,0
143247,-100,4,1,1,100,0,0
143457,-100,4,1,1,70,0,0
145135,-100,4,2,0,100,0,0
145345,-100,4,1,1,70,0,0
150800,-100,4,1,1,100,0,0
151010,-100,4,1,1,70,0,0
151429,-100,4,1,1,100,0,0
151849,-100,4,1,1,70,0,0
152478,-100,4,1,1,100,0,0
152688,-100,4,1,1,70,0,0
153107,-100,4,1,1,100,0,0
153527,-100,4,1,1,70,0,0
154156,-100,4,1,1,100,0,0
154366,-100,4,1,1,70,0,0
154891,-100,4,1,1,100,0,0
156884,-100,4,1,1,70,0,0
158142,-100,4,1,1,100,0,0
158562,-100,4,1,1,70,0,0
159821,-100,4,1,1,100,0,0
160240,-100,4,1,1,70,0,0
160660,-100,4,1,1,100,0,0
161079,-100,4,1,1,70,0,0
162758,-100,4,1,1,100,0,0
163177,-100,4,1,1,70,0,0
163807,-100,4,1,1,100,0,0
165695,-100,4,1,1,70,0,0
166114,-100,4,1,1,100,0,0
169051,-100,4,1,1,70,0,0
173899,419.58041958042,4,1,1,70,1,0
187325,-200,4,2,0,70,0,0
193199,-100,4,1,1,100,0,0
194038,-100,4,1,1,70,0,0
194248,-100,4,1,1,100,0,0
194668,-100,4,1,1,70,0,0
195087,-100,4,1,1,100,0,0
195507,-100,4,1,1,70,0,0
195926,-100,4,1,1,100,0,0
196346,-100,4,1,1,70,0,0
196766,-100,4,1,1,100,0,0
197185,-100,4,1,1,70,0,0
197605,-100,4,1,1,100,0,0
198024,-100,4,1,1,70,0,0
199283,-100,4,1,1,100,0,0
199703,-100,4,1,1,70,0,0
200961,-100,4,1,1,100,0,0
201381,-100,4,1,1,70,0,0
202640,-100,4,1,1,50,0,0
203059,-100,4,1,1,100,0,0
206626,-100,4,1,1,50,0,0
206836,-100,4,1,1,40,0,0
207045,-100,4,1,1,30,0,0
207255,-100,4,1,1,20,0,0
207465,-100,4,1,1,10,0,0
207675,-100,4,1,1,70,0,0
211136,-100,4,1,1,100,0,0
211346,-100,4,1,1,70,0,0
211871,-100,4,1,1,100,0,0
212290,-100,4,1,1,70,0,0
212815,-100,4,1,1,100,0,0
213024,-100,4,1,1,70,0,0
213549,-100,4,1,1,100,0,0
213968,-100,4,1,1,70,0,0
214493,-100,4,1,1,100,0,0
214703,-100,4,1,1,70,0,0
215332,-100,4,1,1,100,0,0
215542,-100,4,1,1,70,0,0
216171,-100,4,1,1,100,0,0
216381,-100,4,1,1,70,0,0
216905,-100,4,1,1,100,0,0
217325,-100,4,1,1,70,0,0
218584,-100,4,1,1,100,0,0
219003,-100,4,1,1,70,0,0
220262,-100,4,1,1,100,0,0
220682,-100,4,1,1,70,0,0
221101,-100,4,1,1,100,0,0
221521,-100,4,1,1,70,0,0
222780,-100,4,1,1,100,0,0
223199,-100,4,1,1,70,0,0
224458,-100,4,1,1,100,0,0
224878,-100,4,1,1,70,0,0
227605,-100,4,2,1,70,0,0

[Colours]
Combo1 : 128,128,255
Combo2 : 255,128,192
Combo3 : 255,255,0
Combo4 : 0,255,255
SliderBorder : 255,255,255

[HitObjects]
224,192,15275,2,0,B|288:192,4,50,0|0|0|0|4
64,192,16954,5,0
160,64,17793,2,0,B|256:0|352:64,1,200
440,192,19471,6,0,B|328:192,1,100,0|0
256,192,20310,2,0,B|144:192,1,100,0|0
128,112,21149,2,0,B|56:144|56:240|128:272,1,200
296,272,22828,6,8,B|360:256|360:128|296:112,1,200,0|0
256,192,24086,1,0
216,112,24506,2,8,B|152:127|152:255|216:271,1,200,0|0
256,192,25765,1,0
296,272,26184,6,0,B|376:272,2,50,0|0|0
216,272,27023,2,0,B|136:272,2,50,0|0|0
256,192,27863,6,0,B|256:112,4,50,0|0|0|0|4
48,144,32898,6,0,B|112:192|192:144,1,150
144,80,33947,2,0,B|204:34|284:82,1,150
336,144,34996,1,0
400,96,35415,1,0
464,144,35835,1,0
400,192,36254,1,0
128,192,37723,5,0
368,192,38982,1,0
368,304,39611,6,0,B|291:349|227:302,1,150
288,240,40660,2,0,B|211:194|147:242,1,150
96,304,41709,1,0
48,240,42128,1,0
96,176,42548,1,0
256,192,42968,12,0,44436
256,192,45695,5,0
376,192,46324,6,0,B|392:144|352:80|296:96,1,150
214,95,47373,2,0,B|160:80|120:144|136:192,1,150
136,272,48422,1,8
216,296,48842,1,8
296,296,49261,1,8
376,272,49681,1,8
256,48,51149,5,0
256,336,53037,6,0,B|256:160,1,150
192,144,54086,2,0,B|224:100|288:100|320:144,1,150
366,207,55135,2,0,B|286:287,1,100,0|0
215,275,55975,2,0,B|128:192,1,100,0|0
192,144,56814,2,0,B|160:80|256:0|352:80|320:144,2,250,0|4|0
256,192,59331,1,0
256,272,59751,6,0,B|224:320|160:320|128:272,1,150
128,192,60800,1,0
128,192,61010,1,0
128,112,61429,2,4,B|128:32,2,75,0|0|4
312,40,63107,6,0,B|360:104|264:120|328:184,1,150
400,208,64156,1,0
400,208,64366,1,0
352,272,64786,2,4,B|288:336,2,75,0|0|4
144,128,66464,6,0,B|96:152|96:232|144:256,1,150
192,192,67513,1,0
192,192,67723,1,0
272,192,68142,2,0,B|448:192,2,150,0|0|0
256,112,69821,6,0,B|128:112,1,100,0|0
120,112,70450,1,0
96,192,70870,1,0
96,192,71079,1,0
120,272,71499,2,0,B|232:272,1,100,0|0
256,272,72128,1,0
280,192,72548,2,0,B|360:192,2,50
256,192,73177,12,4,74646
336,192,79891,6,0,B|416:192,4,50
256,192,81149,1,0
176,192,81569,6,0,B|80:192,4,50
256,192,82828,1,0
216,122,83247,6,0,B|160:64,2,50,0|0|0
296,121,84086,2,0,B|352:64,2,50,0|0|0
256,192,84926,6,0,B|256:256,4,50,0|0|0|0|0
256,112,86184,1,0
176,112,86604,6,0,B|108:144|108:240|176:272,1,200
256,288,87863,1,0
336,271,88282,6,0,B|404:240|404:144|336:112,1,200
256,112,89541,1,0
176,112,89961,5,0
176,192,90380,1,0
176,272,90800,2,0,B|96:272,2,75
256,192,92058,5,0
336,192,92478,2,0,B|336:96,2,75
336,232,93317,1,0
304,304,93737,1,0
256,192,94366,5,0
256,192,94576,1,0
256,192,94786,1,4
192,96,95415,5,0
256,48,95835,1,0
320,96,96254,1,0
256,144,96674,5,0
176,288,97513,1,0
336,288,98352,1,4
448,336,103387,6,0,B|448:272,1,50
448,240,103807,2,0,B|448:176,1,50
448,112,104436,2,0,B|448:48,2,50
416,112,105065,5,0
352,160,105485,1,0
288,112,105905,1,4
224,160,106324,1,4
160,112,106744,1,0
256,352,108212,5,0
64,48,110100,6,0,B|176:48,1,100,0|0
208,48,110730,1,0
288,48,111149,2,0,B|288:112,2,50,0|0|0
336,48,111779,5,0
400,96,112198,1,0
464,144,112618,1,0
400,192,113037,1,0
336,240,113457,2,0,B|272:368|112:368|64:240,1,350,0|4
128,192,115345,6,0,B|160:48|320:48,1,250
388,52,116814,6,0,B|388:140,1,50
388,140,117233,2,0,B|388:220,1,50
384,272,117863,2,0,B|352:320|288:320,1,100
256,320,118492,5,0
208,256,118912,1,0
256,192,119331,1,0
304,128,119751,1,0
256,64,120170,1,0
256,336,121639,5,0
48,48,123527,6,0,B|48:160,1,100,0|0
48,192,124156,1,0
48,272,124576,2,0,B|-16:272,2,50
88,272,125205,5,0
168,272,125625,1,0
248,272,126044,2,0,B|376:272,2,100,0|0|4
448,80,130240,6,0,B|384:80,1,50
352,80,130660,2,0,B|272:80,1,50,0|0
224,80,131289,1,0
224,80,131499,1,0
144,80,131919,2,4,B|48:80,2,75,4|0|0
64,272,133597,6,0,B|128:272,1,50
160,272,134016,2,0,B|224:272,1,50,0|0
288,272,134646,1,0
288,272,134856,1,0
368,272,135275,2,4,B|464:272,2,75,4|0|0
224,144,136954,6,0,B|224:80|160:80,1,100,0|0
128,80,137583,2,0,B|64:80|64:144,1,100,0|0
64,176,138212,1,0
64,256,138632,2,0,B|8:256,2,50
104,256,139261,2,0,B|280:256,1,150,0|0
336,256,140310,6,0,B|336:320|416:320,1,100,0|0
432,320,140940,2,0,B|496:320|496:224,1,100
496,208,141569,1,0
496,128,141989,2,0,B|496:64|416:64,1,100,0|0
400,64,142618,1,0
320,64,143037,2,0,B|320:16,2,50
320,104,143667,2,0,B|289:235|97:235|65:99,1,350,0|4
96,96,150380,6,0,B|96:192,1,50
96,192,150800,2,0,B|96:272,1,50,0|0
96,288,151219,1,0
176,288,151639,1,0
256,288,152058,6,0,B|352:288,1,50
352,288,152478,2,0,B|432:288,1,50,0|0
400,240,152898,1,0
400,160,153317,1,0
328,120,153737,6,0,B|360:64,2,50
256,80,154576,2,0,B|256:16,2,50,0|0|0
184,120,155415,2,0,B|152:64,4,50
112,176,156674,1,0
48,224,157093,6,0,B|48:352|192:352,1,200
256,352,158352,1,0
336,352,158772,2,0,B|459:352|459:224,1,200
400,176,160030,1,0
328,137,160450,5,0
256,96,160870,1,0
183,141,161289,2,0,B|103:189,2,75,0|0|0
256,240,162548,5,0
336,240,162968,2,0,B|416:240,2,75,0|0|0
296,240,163807,5,0
216,240,164226,1,0
96,240,164856,2,0,B|40:240,2,50
176,160,165905,5,0
256,160,166324,1,0
336,160,166744,1,0
336,240,167163,2,0,B|256:336|160:240,2,200
192,80,187325,6,0,B|256:32|336:80,1,150,2|0
368,112,189003,6,0,B|416:176|368:256,1,150,2|0
336,288,190682,6,0,B|256:320|176:288,1,150,2|0
144,272,192360,6,0,B|96:224|96:160,1,100,2|0
96,112,193619,1,0
176,112,194038,6,0,B|304:112,1,100,0|0
352,112,194878,1,0
432,112,195297,1,0
352,112,195717,5,0
352,192,196136,1,0
352,272,196556,2,0,B|224:272,1,100,0|0
176,272,197395,5,0
251,271,197815,1,0
256,192,198234,2,0,B|256:144|320:144,2,75
128,192,199493,5,0
128,112,199912,2,0,B|128:64|64:64,2,75,0|0|0
128,112,200752,1,0
208,112,201171,1,0
320,144,201801,5,0
320,192,202010,1,4
320,240,202220,1,4
224,320,202850,6,0,B|96:320,2,100,0|0|0
224,240,204108,2,0,B|224:112|384:112,2,200,0|0|4
256,192,205996,12,0,207465
256,112,210822,6,0,B|256:32,4,50
256,192,212080,1,0
256,272,212500,6,0,B|256:368,4,50
256,192,213759,1,0
186,232,214178,6,0,B|128:288,2,50,0|0|0
185,152,215017,2,0,B|128:96,2,50,0|0|0
256,192,215857,6,0,B|320:192,4,50,0|0|0|0|0
176,192,217115,1,0
176,272,217535,6,0,B|256:368|352:272,1,200
352,192,218794,1,0
352,112,219213,2,0,B|260:21|176:112,1,200
176,192,220472,1,0
176,272,220892,5,0
256,272,221311,1,0
336,272,221731,2,0,B|336:352,2,75
336,152,222989,5,0
264,112,223409,2,0,B|264:16,2,75
264,152,224248,1,0
264,232,224668,1,0
264,352,225297,5,0
264,352,225507,1,0
264,352,225717,1,4
128,128,228024,5,0
80,192,228444,1,0
128,256,228864,1,0
176,192,229283,2,8,B|272:224|272:160|384:192,2,200
256,192,231171,12,0,232640
