osu file format v12

[General]
AudioFilename: Bermuda Loverz - My Girl (Ladidada)(Rimini Rockaz Radio Edit).mp3
AudioLeadIn: 2000
PreviewTime: 108114
Countdown: 0
SampleSet: Normal
StackLeniency: 0.3
Mode: 0
LetterboxInBreaks: 0
EpilepsyWarning: 1

[Editor]
DistanceSpacing: 1
BeatDivisor: 4
GridSize: 4

[Metadata]
Title:My Girl (Nightcore Mix)
TitleUnicode:My Girl (Nightcore Mix)
Artist:Bermuda Loverz
ArtistUnicode:Bermuda Loverz
Creator:BounceBabe
Version:Normal
Source:
Tags:XinCrin Rimini Rockaz Radio Edit Remix Ladidada
BeatmapID:217617
BeatmapSetID:77570

[Difficulty]
HPDrainRate:4
CircleSize:3
OverallDifficulty:4
ApproachRate:4
SliderMultiplier:1.2
SliderTickRate:2

[Events]
//Background and Video events
0,0,"BG.jpg",0,0
//Break Periods
2,37255,38662
2,86005,90199
2,120290,124485
//Storyboard Layer 0 (Background)
//Storyboard Layer 1 (Fail)
//Storyboard Layer 2 (Pass)
//Storyboard Layer 3 (Foreground)
//Storyboard Sound Samples
//Background Colour Transformations
3,100,255,255,255

[TimingPoints]
91,357.142857142857,4,1,1,10,1,0
2948,-100,4,1,1,15,0,0
5805,-100,4,1,1,25,0,0
7233,-100,4,1,1,30,0,0
8662,-100,4,1,1,35,0,0
10090,-100,4,1,1,40,0,0
11519,-100,4,1,1,45,0,0
14375,-100,4,1,1,50,0,0
17232,-100,4,1,1,55,0,0
21519,-100,4,1,1,50,0,0
22680,-100,4,1,1,75,0,0
26430,-100,4,1,3,75,0,0
26608,-100,4,1,1,75,0,0
27858,-100,4,1,3,75,0,0
28037,-100,4,1,1,75,0,0
32144,-100,4,1,3,75,0,0
32323,-100,4,1,1,75,0,0
33573,-100,4,1,3,75,0,0
33751,-100,4,1,2,75,0,0
36965,-100,4,2,1,10,0,0
40090,-100,4,1,2,75,0,0
51519,-100,4,1,1,90,0,1
62948,-100,4,1,1,90,0,0
74376,-100,4,1,1,90,0,1
74465,-100,4,1,1,90,0,0
91519,-100,4,1,2,80,0,0
95715,-100,4,1,2,70,0,0
108305,-100,4,1,1,80,0,0
110715,-100,4,1,3,80,0,0
110894,-100,4,1,1,80,0,0
113573,-100,4,1,3,80,0,0
113751,-100,4,1,1,80,0,0
116430,-100,4,1,3,70,0,0
116608,-100,4,1,1,80,0,0
119287,-100,4,1,3,70,0,0
119465,-100,4,1,1,80,0,0
127858,-100,4,1,3,80,0,0
128037,-100,4,1,1,80,0,0
130090,-100,4,2,1,10,0,0

[Colours]
Combo1 : 255,180,100
Combo2 : 255,255,128
Combo3 : 100,175,255
Combo4 : 255,159,200
SliderBorder : 255,255,255

[HitObjects]
48,120,91,2,0,P|80:48|176:48,1,180
352,56,1162,1,0,0:0:0:0:
464,96,1519,2,0,P|432:168|340:170,1,180
160,152,2590,1,0,0:0:0:0:
64,232,2948,6,0,B|88:296|88:296|112:336|184:352,2,180
160,152,4376,2,0,B|229:167|253:207|253:207|277:271,2,180
84,60,5805,6,0,P|168:24|248:56,1,180
424,56,6876,1,0,0:0:0:0:
336,136,7233,2,0,P|252:172|172:140,1,180
196,320,8305,1,0,0:0:0:0:
196,320,8662,6,0,B|145:269|145:269|133:246|133:246|71:184,2,180
316,320,10090,2,0,B|366:269|366:269|378:246|378:246|440:184,2,180
256,216,11519,6,0,B|296:160|296:160|336:128,1,120,8|0,0:0|0:0,0:0:0:0:
392,152,12055,2,0,B|432:120|432:120|472:64,1,120,2|0,0:0|0:0,0:0:0:0:
432,24,12590,1,0,0:0:0:0:
312,24,12948,2,0,B|239:23|239:23|215:31|215:31|128:31,2,180
432,24,14376,6,0,P|432:96|400:128,1,120,8|0,0:0|0:0,0:0:0:0:
344,128,14912,2,0,P|312:160|312:232,1,120,2|0,0:0|0:0,0:0:0:0:
352,344,15626,1,0,0:0:0:0:
412,344,15805,2,0,P|476:272|484:184,2,180
296,344,17233,6,0,L|176:344,1,120,8|0,0:0|0:0,0:0:0:0:
116,344,17769,2,0,P|52:328|36:280,1,120,2|0,0:0|0:0,0:0:0:0:
36,220,18305,1,0,0:0:0:0:
32,104,18662,2,0,B|80:56|80:56|192:56,2,180
32,224,20090,6,0,L|160:224,1,120,8|0,0:0|0:0,0:0:0:0:
176,168,20626,2,0,L|304:168,1,120,2|0,0:0|0:0,0:0:0:0:
416,168,21340,1,0,0:0:0:0:
384,216,21519,6,0,L|328:304,2,90,8|8|8,0:0|0:0|0:0,0:0:0:0:
448,216,22233,2,0,L|488:272,2,60,8|8|8,0:0|0:0|0:0,0:0:0:0:
448,96,22948,6,0,B|416:64|360:56|360:56|280:80,1,180,12|0,0:0|0:0,0:0:0:0:
224,96,23662,1,2,0:0:0:0:
112,144,24019,1,2,0:0:0:0:
48,248,24376,2,0,B|80:280|136:288|136:288|216:264,1,180,8|0,0:0|0:0,0:0:0:0:
272,248,25090,1,2,0:0:0:0:
384,200,25447,1,2,0:0:0:0:
368,320,25805,6,0,P|448:312|504:224,2,180,8|0|2,0:0|0:0|0:0,0:0:0:0:
248,320,27233,2,0,P|168:312|112:224,2,180,8|0|2,0:0|0:0|0:0,0:0:0:0:
312,224,28662,6,0,B|344:160|344:160|400:128|400:72,1,180,8|0,0:0|0:0,0:0:0:0:
352,40,29376,1,2,0:0:0:0:
232,40,29733,1,2,0:0:0:0:
112,40,30090,2,0,B|80:104|80:104|24:136|24:192,1,180,8|0,0:0|0:0,0:0:0:0:
72,224,30804,1,2,0:0:0:0:
192,224,31161,1,2,0:0:0:0:
232,336,31519,6,0,B|168:344|168:344|120:320|120:320|56:328,2,180,8|0|2,0:0|0:0|0:0,0:0:0:0:
312,248,32948,2,0,B|373:255|373:255|421:231|421:231|485:239,2,180,8|0|2,0:0|0:0|0:0,0:0:0:0:
192,224,34376,1,4,0:0:0:0:
256,192,34555,12,0,37055,0:0:0:0:
8,64,40090,6,0,P|64:96|64:152,1,120,12|0,0:0|0:0,0:0:0:0:
56,264,40805,2,0,P|58:314|114:346,1,120
232,348,41519,1,0,0:0:0:0:
352,348,41876,1,0,0:0:0:0:
232,348,42233,1,0,0:0:0:0:
472,344,42948,6,0,L|496:224,1,120,12|0,0:0|0:0,0:0:0:0:
392,168,43662,2,0,L|416:48,1,120
296,48,44376,1,0,0:0:0:0:
176,48,44733,1,0,0:0:0:0:
296,48,45090,1,0,0:0:0:0:
80,144,45805,6,0,B|168:192|168:192|160:248|200:288|200:288|208:328,1,240,12|0,0:0|0:0,0:0:0:0:
256,216,46876,1,0,0:0:0:0:
305,321,47233,2,0,B|312:288|312:288|352:248|344:192|344:192|432:144,1,240,12|0,0:0|0:0,0:0:0:0:
200,72,48662,6,0,P|128:96|144:184,1,180,12|0,0:0|0:0,0:0:0:0:
200,200,49376,2,0,P|216:288|144:312,1,180,12|0,0:0|0:0,0:0:0:0:
88,304,50090,6,0,L|0:280,2,90,8|8|8,0:0|0:0|0:0,0:0:0:0:
120,256,50805,2,0,L|128:184,2,60,8|8|8,0:0|0:0|0:0,0:0:0:0:
216,328,51519,6,0,P|304:328|352:256,1,180,12|0,0:0|0:0,0:0:0:0:
424,88,52590,1,2,0:0:0:0:
456,200,52948,2,0,L|512:232,2,60
344,160,53662,1,2,0:0:0:0:
240,104,54019,1,0,0:0:0:0:
136,48,54376,6,0,B|80:64|80:64|80:192,1,180,8|0,0:0|0:0,0:0:0:0:
224,296,55448,1,2,0:0:0:0:
104,288,55805,2,0,L|56:336,2,60
184,200,56519,1,2,0:0:0:0:
200,80,56876,1,0,0:0:0:0:
304,136,57233,6,0,L|424:136,1,120,8|0,0:0|0:0,0:0:0:0:
488,232,57948,2,0,L|368:232,1,120
248,232,58662,2,0,P|208:264|216:328,3,120,8|2|2|0,0:0|0:0|0:0|0:0,0:0:0:0:
96,328,60090,6,0,P|103:264|63:232,1,120,8|0,0:0|0:0,0:0:0:0:
96,120,60805,2,0,L|216:120,1,120
336,120,61519,2,0,B|376:72|376:72|408:64|440:72,3,120,8|2|2|0,0:0|0:0|0:0|0:0,0:0:0:0:
416,192,62948,6,0,B|416:272|416:272|376:336|322:327|322:327|280:352,1,240,12|2,0:0|0:0,0:0:0:0:
96,192,64376,2,0,B|96:112|96:112|136:48|189:56|189:56|227:34,1,240,8|2,0:0|0:0,0:0:0:0:
160,264,65805,6,0,B|128:328|128:328|192:304|296:344,1,240,8|2,0:0|0:0,0:0:0:0:
352,120,67233,2,0,B|384:56|384:56|320:80|216:40,1,240,8|2,0:0|0:0,0:0:0:0:
96,32,68305,1,0,0:0:0:0:
144,144,68662,6,0,P|93:175|85:231,3,120,8|0|2|2,0:0|0:0|0:0|0:0,0:0:0:0:
144,336,70090,2,0,P|194:304|202:248,3,120,8|0|2|2,0:0|0:0|0:0|0:0,0:0:0:0:
320,272,71519,6,0,B|400:256|420:192|420:192|456:88,1,240,8|2,0:0|0:0,0:0:0:0:
344,144,72590,1,2,0:0:0:0:
360,24,72948,2,0,B|280:40|260:104|260:104|224:208,1,240,8|2,0:0|0:0,0:0:0:0:
184,312,74019,1,2,0:0:0:0:
96,232,74376,6,0,L|32:208,2,60,4|0|0,0:0|0:0|0:0,0:0:0:0:
184,312,75090,2,0,L|248:336,2,60
224,200,75805,2,0,L|271:156,2,60,8|0|0,0:0|0:0|0:0,0:0:0:0:
320,264,76519,2,0,L|384:264,2,60
224,200,77233,5,8,0:0:0:0:
332,144,77590,2,0,B|420:72|420:72|404:24|308:16,1,240
197,16,78662,2,0,B|108:24|92:72|92:72|180:144,1,240,8|0,0:0|0:0,0:0:0:0:
256,232,79733,1,0,0:0:0:0:
344,312,80090,6,0,P|384:288|408:216,3,120,8|0|0|0,0:0|0:0|0:0|0:0,0:0:0:0:
328,136,81519,2,0,P|352:69|392:45,3,120,8|0|0|0,0:0|0:0|0:0|0:0,0:0:0:0:
256,192,82948,12,4,85805,0:0:0:0:
96,40,91519,6,0,P|56:72|64:136,1,120,4|8,0:0|0:0,0:0:0:0:
112,248,92233,1,2,0:0:0:0:
63,135,92590,1,0,0:0:0:0:
184,152,92948,6,0,L|304:152,1,120,0|8,0:0|0:0,0:0:0:0:
368,48,93662,1,2,0:0:0:0:
304,152,94019,1,0,0:0:0:0:
424,152,94376,6,0,B|440:216|440:216|416:264,1,120,0|8,0:0|0:0,0:0:0:0:
328,344,95090,1,2,0:0:0:0:
415,264,95448,1,0,0:0:0:0:
296,232,95805,6,0,L|216:208,1,60,8|8,0:0|0:0,0:0:0:0:
152,184,96251,1,8,0:0:0:0:
160,272,96519,2,0,L|128:336,3,60,8|8|8|8,0:0|0:0|0:0|0:0,0:0:0:0:
72,320,97233,6,0,P|24:256|72:168,1,180,12|0,0:0|0:0,0:0:0:0:
96,120,97948,2,0,P|160:72|248:120,1,180,2|0,0:0|0:0,0:0:0:0:
296,88,98662,2,0,B|354:58|354:58|385:73|385:73|458:38,2,180,2|0|0,0:0|0:0|0:0,0:0:0:0:
272,208,100090,6,0,B|330:178|330:178|361:193|361:193|434:158,1,180,8|0,0:0|0:0,0:0:0:0:
480,200,100805,2,0,B|445:272|445:272|459:303|459:303|430:362,1,180,2|0,0:0|0:0,0:0:0:0:
368,360,101519,2,0,L|184:360,2,180,2|0|0,0:0|0:0|0:0,0:0:0:0:
340,244,102948,6,0,L|220:244,1,120,8|0,0:0|0:0,0:0:0:0:
104,240,103662,2,0,B|24:224|24:168|24:168|56:104,1,180,2|0,0:0|0:0,0:0:0:0:
72,56,104376,2,0,L|192:56,1,120,2|0,0:0|0:0,0:0:0:0:
308,60,105090,2,0,B|388:76|388:132|388:132|356:196,1,180
328,240,105805,5,8,0:0:0:0:
264,336,106162,2,0,L|144:336,1,120,0|2,0:0|0:0,0:0:0:0:
24,336,106876,1,0,0:0:0:0:
80,232,107233,6,0,L|48:176,1,60,8|8,0:0|0:0,0:0:0:0:
8,96,107680,1,8,0:0:0:0:
96,96,107948,2,0,L|216:96,1,120,8|0,0:0|0:0,0:0:0:0:
336,96,108662,6,0,P|400:128|416:176,1,120,4|0,0:0|0:0,0:0:0:0:
416,232,109198,2,0,P|431:274|495:306,1,120,8|0,0:0|0:0,0:0:0:0:
496,368,109733,1,0,0:0:0:0:
376,360,110090,2,0,L|184:360,2,180,2|0|2,0:0|0:0|0:0,0:0:0:0:
312,256,111519,6,0,P|248:256|208:216,1,120,0|0,0:0|0:0,0:0:0:0:
168,176,112055,2,0,P|129:139|65:139,1,120,8|0,0:0|0:0,0:0:0:0:
8,152,112590,1,0,0:0:0:0:
16,272,112948,2,0,B|24:344|24:344|78:360|136:352,2,180,2|0|2,0:0|0:0|0:0,0:0:0:0:
8,152,114376,6,0,P|24:112|96:88,1,120,0|8,0:0|0:0,0:0:0:0:
152,88,114912,2,0,L|272:88,1,120,2|0,0:0|0:0,0:0:0:0:
336,88,115448,1,0,0:0:0:0:
392,192,115805,2,0,P|392:272|488:296,2,180,2|0|2,0:0|0:0|0:0,0:0:0:0:
272,184,117233,6,0,L|160:240,1,120,0|8,0:0|0:0,0:0:0:0:
176,296,117769,2,0,L|64:352,1,120,2|0,0:0|0:0,0:0:0:0:
16,376,118305,1,0,0:0:0:0:
40,256,118662,2,0,P|72:192|40:88,2,180,2|0|2,0:0|0:0|0:0,0:0:0:0:
16,376,120090,1,4,0:0:0:0:
303,153,125805,6,0,P|256:120|192:120,1,120,8|0,0:0|0:0,0:0:0:0:
216,240,126519,2,0,P|263:273|327:273,1,120,2|2,0:0|0:0,0:0:0:0:
303,153,127233,2,0,B|371:128|371:128|391:113|391:113|473:83,2,180,8|0|2,0:0|0:0|0:0,0:0:0:0:
216,240,128662,6,0,P|263:273|327:273,1,120,8|0,0:0|0:0,0:0:0:0:
303,153,129376,2,0,P|256:120|192:120,2,120,2|2|4,0:0|0:0|0:0,0:0:0:0:
