osu file format v12

[General]
AudioFilename: Bermuda Loverz - My Girl (Ladidada)(Rimini Rockaz Radio Edit).mp3
AudioLeadIn: 2000
PreviewTime: 108114
Countdown: 0
SampleSet: Normal
StackLeniency: 0.3
Mode: 0
LetterboxInBreaks: 0
EpilepsyWarning: 1

[Editor]
DistanceSpacing: 1.2
BeatDivisor: 4
GridSize: 8

[Metadata]
Title:My Girl (Nightcore Mix)
TitleUnicode:My Girl (Nightcore Mix)
Artist:Bermuda Loverz
ArtistUnicode:Bermuda Loverz
Creator:BounceBabe
Version:Insane
Source:
Tags:XinCrin Rimini Rockaz Radio Edit Remix Ladidada
BeatmapID:217607
BeatmapSetID:77570

[Difficulty]
HPDrainRate:7
CircleSize:4
OverallDifficulty:7
ApproachRate:8
SliderMultiplier:1.5
SliderTickRate:2

[Events]
//Background and Video events
0,0,"BG.jpg",0,0
//Break Periods
2,37255,38662
2,86005,90090
2,120290,125055
//Storyboard Layer 0 (Background)
//Storyboard Layer 1 (Fail)
//Storyboard Layer 2 (Pass)
//Storyboard Layer 3 (Foreground)
//Storyboard Sound Samples
//Background Colour Transformations
3,100,255,255,255

[TimingPoints]
91,357.142857142857,4,1,1,10,1,0
2948,-100,4,1,1,15,0,0
5805,-100,4,1,1,25,0,0
7233,-100,4,1,1,30,0,0
8662,-100,4,1,1,35,0,0
10090,-100,4,1,1,40,0,0
11519,-100,4,1,1,45,0,0
14375,-100,4,1,1,50,0,0
17232,-100,4,1,1,55,0,0
21519,-100,4,1,1,50,0,0
22680,-100,4,1,1,75,0,0
36965,-100,4,2,1,10,0,0
40090,-100,4,1,2,75,0,0
51519,-100,4,1,1,90,0,1
55001,-100,4,1,3,70,0,1
55180,-100,4,1,1,90,0,1
57858,-100,4,1,3,70,0,1
58037,-100,4,1,1,90,0,1
62948,-100,4,1,1,90,0,0
74376,-100,4,1,1,90,0,1
74465,-100,4,1,1,90,0,0
91519,-100,4,1,2,80,0,0
95715,-100,4,1,2,70,0,0
108305,-100,4,1,1,80,0,0
116430,-100,4,1,3,70,0,0
116608,-100,4,1,1,80,0,0
119287,-100,4,1,3,70,0,0
119465,-100,4,1,1,80,0,0
130090,-100,4,2,1,10,0,0

[Colours]
Combo1 : 255,180,100
Combo2 : 255,255,128
Combo3 : 100,175,255
Combo4 : 255,159,200
SliderBorder : 255,255,255

[HitObjects]
32,40,91,6,0,P|8:104|64:160,1,150
112,88,626,2,0,P|162:142|138:206,1,150
128,296,1162,2,0,L|208:296,1,75
296,296,1519,5,0,0:0:0:0:
384,312,1698,1,0,0:0:0:0:
464,352,1876,1,0,0:0:0:0:
456,264,2055,2,0,P|504:224|488:144,2,150
368,232,2948,6,0,L|320:168,1,75
400,120,3305,2,0,L|432:48,1,75
430,51,3840,1,0,0:0:0:0:
344,48,4019,2,0,L|264:48,1,75
176,48,4376,5,0,0:0:0:0:
40,128,4555,1,0,0:0:0:0:
88,48,4733,1,0,0:0:0:0:
132,128,4912,2,0,P|132:192|52:208,1,150
59,212,5626,1,0,0:0:0:0:
0,280,5805,6,0,B|48:320|48:320|144:320,1,150
224,320,6341,2,0,B|311:320|311:320|359:360,1,150
448,360,6876,2,0,L|512:304,1,75
456,160,7233,5,0,0:0:0:0:
376,192,7412,1,0,0:0:0:0:
512,224,7591,1,0,0:0:0:0:
384,280,7769,2,0,P|312:264|288:196,1,150
328,112,8305,2,0,P|368:96|400:104,1,75
488,80,8662,5,0,0:0:0:0:
416,24,8841,1,0,0:0:0:0:
328,24,9019,1,0,0:0:0:0:
248,64,9198,2,0,B|192:48|152:72|96:56,1,150
8,64,9733,2,0,P|16:104|48:128,1,75
40,272,10091,5,0,0:0:0:0:
88,200,10269,1,0,0:0:0:0:
128,272,10448,1,0,0:0:0:0:
128,272,10626,2,0,P|208:260|248:312,1,150
247,308,11162,1,0,0:0:0:0:
247,308,11519,6,0,P|286:356|366:344,1,150,8|0,0:0|0:0,0:0:0:0:
448,304,12055,2,0,P|408:255|328:267,1,150,2|0,0:0|0:0,0:0:0:0:
328,267,12590,2,0,L|296:192,1,75
264,112,12948,2,0,B|232:72|232:72|192:88|192:88|161:41,1,150,0|0,0:0|0:0,0:0:0:0:
112,120,13483,2,0,B|80:160|80:160|40:144|40:144|9:190,1,150,0|0,0:0|0:0,0:0:0:0:
9,190,14019,2,0,L|32:264,1,75
48,352,14376,6,0,L|128:352,1,75,8|0,0:0|0:0,0:0:0:0:
216,352,14733,1,0,0:0:0:0:
304,352,14912,2,0,B|344:304|408:304|408:304|432:272,1,150,2|0,0:0|0:0,0:0:0:0:
426,278,15626,1,0,0:0:0:0:
440,192,15805,2,0,B|432:120|472:80|472:80|448:64,1,150,0|0,0:0|0:0,0:0:0:0:
360,48,16340,2,0,B|368:120|328:160|328:160|352:176,1,150
352,176,17055,1,0,0:0:0:0:
280,224,17233,6,0,B|232:192|248:136|248:136|272:88,1,150,8|0,0:0|0:0,0:0:0:0:
144,40,17769,2,0,B|192:72|176:128|176:128|154:171,1,150,2|0,0:0|0:0,0:0:0:0:
96,240,18305,2,0,P|68:212|60:176,1,75
154,171,18662,2,0,P|192:248|168:304,1,150,0|0,0:0|0:0,0:0:0:0:
168,303,19198,2,0,L|328:304,1,150
448,224,19733,1,0,0:0:0:0:
408,304,19912,1,0,0:0:0:0:
360,224,20090,6,0,P|384:160|456:136,1,150,8|0,0:0|0:0,0:0:0:0:
360,32,20626,2,0,P|336:96|264:120,1,150,2|0,0:0|0:0,0:0:0:0:
263,119,21340,1,0,0:0:0:0:
176,120,21519,5,8,0:0:0:0:
56,200,21787,1,8,0:0:0:0:
32,64,22055,1,8,0:0:0:0:
120,48,22233,5,8,0:0:0:0:
176,120,22412,1,8,0:0:0:0:
144,200,22590,1,8,0:0:0:0:
56,200,22769,1,0,0:0:0:0:
56,208,22858,1,0,0:0:0:0:
56,216,22948,6,0,P|48:288|96:344,1,150,4|0,0:0|0:0,0:0:0:0:
184,344,23483,2,0,L|264:344,1,75,2|0,0:0|0:0,0:0:0:0:
352,344,23840,1,2,0:0:0:0:
440,344,24019,2,0,P|432:304|408:280,1,75
320,264,24376,6,0,P|352:208|432:200,1,150,8|0,0:0|0:0,0:0:0:0:
464,112,24912,2,0,L|392:88,1,75,2|0,0:0|0:0,0:0:0:0:
304,88,25269,1,2,0:0:0:0:
216,88,25448,2,0,L|144:112,1,75
64,144,25805,6,0,P|16:200|48:264,1,150,8|0,0:0|0:0,0:0:0:0:
112,328,26340,1,2,0:0:0:0:
44,261,26519,1,0,0:0:0:0:
112,328,26698,1,2,0:0:0:0:
200,336,26876,2,0,L|280:336,1,75
368,336,27233,6,0,B|432:328|448:272|448:272|472:232,1,150,8|0,0:0|0:0,0:0:0:0:
464,144,27769,2,0,B|400:152|384:208|384:208|363:242,1,150,2|2,0:0|0:0,0:0:0:0:
362,242,28305,1,0,0:0:0:0:
272,240,28483,1,0,0:0:0:0:
240,152,28662,6,0,P|248:104|168:72,1,150,8|0,0:0|0:0,0:0:0:0:
144,160,29198,2,0,P|64:128|72:80,1,150,2|0,0:0|0:0,0:0:0:0:
72,79,29733,2,0,L|0:112,1,75,2|0,0:0|0:0,0:0:0:0:
8,200,30090,6,0,L|72:336,1,150,8|0,0:0|0:0,0:0:0:0:
160,344,30626,2,0,L|240:344,1,75,2|0,0:0|0:0,0:0:0:0:
328,344,30983,1,2,0:0:0:0:
280,264,31162,1,0,0:0:0:0:
235,344,31340,1,0,0:0:0:0:
328,344,31519,6,0,P|368:288|356:212,1,150,8|0,0:0|0:0,0:0:0:0:
272,176,32055,2,0,P|296:144|336:128,1,75,2|0,0:0|0:0,0:0:0:0:
416,144,32412,1,2,0:0:0:0:
355,211,32590,1,0,0:0:0:0:
272,176,32769,1,0,0:0:0:0:
192,136,32948,6,0,B|112:96|112:96|88:120|56:104,1,150,8|0,0:0|0:0,0:0:0:0:
32,256,33483,1,0,0:0:0:0:
88,192,33662,1,2,0:0:0:0:
0,176,33840,1,2,0:0:0:0:
32,256,34019,2,0,P|64:280|104:272,2,75,2|0|4,0:0|0:0|0:0,0:0:0:0:
256,192,34555,12,0,37055,0:0:0:0:
496,56,40091,5,12,0:0:0:0:
320,56,40448,2,0,L|400:56,1,75,0|0,0:0|0:0,0:0:0:0:
352,232,40983,1,0,0:0:0:0:
440,240,41162,2,0,L|464:168,1,75
376,152,41519,2,0,P|336:152|304:164,1,75,8|0,0:0|0:0,0:0:0:0:
352,232,41876,2,0,P|320:244|280:244,1,75
216,184,42233,1,0,0:0:0:0:
80,64,42591,5,0,0:0:0:0:
40,146,42769,1,0,0:0:0:0:
8,232,42948,2,0,B|80:248|128:208|128:208|144:224,1,150,8|0,0:0|0:0,0:0:0:0:
136,312,43483,2,0,B|152:328|152:328|200:288|272:304,1,150,0|0,0:0|0:0,0:0:0:0:
360,304,44019,2,0,L|440:304,1,75
480,224,44376,5,8,0:0:0:0:
432,144,44555,1,0,0:0:0:0:
448,56,44733,1,0,0:0:0:0:
360,88,44912,1,0,0:0:0:0:
280,48,45091,1,0,0:0:0:0:
136,152,45448,6,0,L|80:208,1,75
8,264,45805,2,0,P|-16:200|8:160,2,112.5,12|0|0,0:0|0:0|0:0,0:0:0:0:
96,288,46519,2,0,L|168:320,1,75
248,280,46876,2,0,L|320:312,1,75
408,336,47233,6,0,P|456:304|464:240,2,112.5,12|0|0,0:0|0:0|0:0,0:0:0:0:
380,248,47948,2,0,P|392:200|416:180,1,75
456,32,48305,2,0,P|444:80|420:100,1,75
344,128,48662,6,0,B|280:72|280:72|216:104|144:96,1,225,12|0,0:0|0:0,0:0:0:0:
64,144,49376,2,0,B|128:200|128:200|192:168|264:176,1,225,8|0,0:0|0:0,0:0:0:0:
344,216,50091,5,8,0:0:0:0:
456,296,50358,1,8,0:0:0:0:
344,216,50626,1,8,0:0:0:0:
368,304,50805,2,0,L|296:336,1,75,8|0,0:0|0:0,0:0:0:0:
440,208,51162,2,0,L|512:176,1,75,8|0,0:0|0:0,0:0:0:0:
508,88,51519,6,0,L|439:57,1,75,4|0,0:0|0:0,0:0:0:0:
368,104,51876,2,0,L|299:73,1,75,0|0,0:0|0:0,0:0:0:0:
216,48,52233,1,2,0:0:0:0:
128,72,52412,1,0,0:0:0:0:
72,144,52591,6,0,P|57:182|29:201,1,75,2|0,0:0|0:0,0:0:0:0:
158,159,52948,2,0,P|158:199|178:227,1,75,8|0,0:0|0:0,0:0:0:0:
120,296,53305,2,0,L|44:284,2,75,0|0|2,0:0|0:0|0:0,0:0:0:0:
296,320,54019,1,2,0:0:0:0:
384,328,54198,1,0,0:0:0:0:
472,336,54376,6,0,P|504:288|472:208,1,150,8|0,0:0|0:0,0:0:0:0:
400,160,54912,2,0,P|368:80|400:32,1,150,0|0,0:0|0:0,0:0:0:0:
399,32,55448,2,0,L|320:40,1,75,2|0,0:0|0:0,0:0:0:0:
232,48,55805,5,8,0:0:0:0:
104,136,55983,1,0,0:0:0:0:
144,56,56162,1,0,0:0:0:0:
196,128,56341,1,0,0:0:0:0:
104,136,56519,1,2,0:0:0:0:
48,312,56876,6,0,L|128:304,1,75,2|0,0:0|0:0,0:0:0:0:
216,304,57233,2,0,L|368:320,1,150,8|0,0:0|0:0,0:0:0:0:
456,328,57769,2,0,P|488:256|472:184,1,150
448,104,58305,2,0,L|408:32,1,75,2|0,0:0|0:0,0:0:0:0:
320,56,58662,6,0,P|296:96|264:112,1,75,8|0,0:0|0:0,0:0:0:0:
144,208,59019,2,0,P|168:168|200:152,1,75,0|0,0:0|0:0,0:0:0:0:
192,64,59376,2,0,B|144:72|88:56|40:64,1,150,2|2,0:0|0:0,0:0:0:0:
32,152,59912,1,0,0:0:0:0:
24,240,60091,6,0,P|24:312|88:336,1,150,8|0,0:0|0:0,0:0:0:0:
176,336,60626,2,0,L|336:336,1,150,2|2,0:0|0:0,0:0:0:0:
416,336,61162,1,0,0:0:0:0:
368,256,61341,1,0,0:0:0:0:
416,176,61519,6,0,L|480:120,1,75,10|2,0:0|0:0,0:0:0:0:
328,176,61876,2,0,L|264:120,1,75
200,72,62233,1,0,0:0:0:0:
112,72,62412,1,0,0:0:0:0:
112,72,62501,1,0,0:0:0:0:
112,72,62590,1,0,0:0:0:0:
40,128,62769,1,0,0:0:0:0:
24,216,62948,6,0,B|32:272|32:272|88:288|96:336,1,150,4|0,0:0|0:0,0:0:0:0:
184,332,63483,2,0,B|191:286|247:270|247:270|255:214,1,150
280,128,64019,2,0,L|344:80,1,75,2|0,0:0|0:0,0:0:0:0:
416,32,64376,6,0,P|432:80|376:160,1,150,8|0,0:0|0:0,0:0:0:0:
464,200,64912,2,0,P|413:277|429:325,1,150
336,328,65448,2,0,L|256:328,1,75,2|0,0:0|0:0,0:0:0:0:
168,328,65805,6,0,B|120:304|48:320|48:320|48:288,1,150,8|0,0:0|0:0,0:0:0:0:
48,200,66341,2,0,B|48:172|48:172|120:188|168:164,1,150
224,96,66876,2,0,P|192:80|152:80,1,75,2|0,0:0|0:0,0:0:0:0:
168,164,67233,6,0,P|248:184|304:144,1,150,8|0,0:0|0:0,0:0:0:0:
328,232,67769,2,0,P|380:196|460:216,1,150
440,304,68305,2,0,P|400:296|372:316,1,75,2|0,0:0|0:0,0:0:0:0:
280,320,68662,6,0,L|200:336,1,75,8|0,0:0|0:0,0:0:0:0:
46,321,69019,2,0,L|120:336,1,75
168,264,69376,2,0,P|176:200|136:128,1,150,0|2,0:0|0:0,0:0:0:0:
72,72,69912,1,0,0:0:0:0:
135,127,70091,6,0,L|200:88,1,75,8|0,0:0|0:0,0:0:0:0:
336,0,70448,2,0,L|272:40,1,75
280,128,70805,2,0,B|328:144|352:200|400:216,1,150,0|2,0:0|0:0,0:0:0:0:
480,248,71341,1,0,0:0:0:0:
256,192,71519,12,4,72948,0:0:0:0:
256,192,73037,12,4,74376,0:0:0:0:
16,328,74733,6,0,L|64:264,1,75
112,192,75091,1,0,0:0:0:0:
24,180,75269,2,0,P|48:135|66:122,1,75
154,268,75626,2,0,P|172:255|196:210,1,75,0|8,0:0|0:0,0:0:0:0:
176,120,75983,6,0,P|200:75|218:62,1,75
256,144,76341,2,0,P|304:129|326:132,2,75
280,232,76876,2,0,P|330:234|350:245,1,75
432,280,77233,6,0,B|448:240|424:192|424:192|440:136,1,150,8|0,0:0|0:0,0:0:0:0:
464,48,77769,2,0,B|408:48|368:72|368:72|352:120,1,150
328,208,78305,2,0,P|348:240|344:276,1,75
272,336,78662,6,0,P|252:304|256:268,1,75,8|0,0:0|0:0,0:0:0:0:
164,268,79019,2,0,P|168:304|148:336,1,75
72,280,79376,2,0,B|72:216|120:184|120:184|112:144,1,150
88,56,79912,1,0,0:0:0:0:
176,88,80091,6,0,B|209:104|209:104|253:66|315:83,1,150,8|0,0:0|0:0,0:0:0:0:
408,88,80626,2,0,P|384:144|296:160,1,150
304,256,81162,2,0,P|344:256|368:280,1,75
432,344,81519,5,8,0:0:0:0:
456,256,81698,1,0,0:0:0:0:
367,279,81876,1,0,0:0:0:0:
432,344,82055,1,0,0:0:0:0:
456,256,82233,1,0,0:0:0:0:
296,344,82591,6,0,P|256:344|232:320,1,75
148,292,82948,2,0,P|100:236|28:236,1,150,8|0,0:0|0:0,0:0:0:0:
28,148,83483,2,0,P|100:148|148:92,1,150
232,64,84019,2,0,P|256:40|296:40,1,75
256,192,84376,12,4,85805,0:0:0:0:
392,344,91519,6,0,P|456:296|456:232,1,150,4|8,0:0|0:0,0:0:0:0:
456,144,92055,1,2,0:0:0:0:
456,56,92233,2,0,L|304:56,1,150,0|8,0:0|0:0,0:0:0:0:
216,56,92769,1,2,0:0:0:0:
128,56,92948,6,0,P|64:88|72:160,1,150,0|8,0:0|0:0,0:0:0:0:
120,232,93483,1,2,0:0:0:0:
80,312,93662,2,0,P|147:334|193:278,1,150,0|8,0:0|0:0,0:0:0:0:
208,192,94198,1,2,0:0:0:0:
208,184,94287,1,0,0:0:0:0:
208,176,94376,6,0,P|272:208|280:280,1,150,0|8,0:0|0:0,0:0:0:0:
344,344,94912,1,2,0:0:0:0:
408,280,95090,2,0,P|416:208|480:176,1,150,0|8,0:0|0:0,0:0:0:0:
479,176,95626,6,0,P|480:128|488:96,1,75,2|8,0:0|0:0,0:0:0:0:
416,40,95983,1,8,0:0:0:0:
348,156,96251,1,8,0:0:0:0:
280,40,96519,5,8,0:0:0:0:
192,40,96698,1,8,0:0:0:0:
104,40,96876,1,8,0:0:0:0:
192,40,97055,2,0,L|208:76,2,37.5,8|0|4,0:0|0:0|0:0,0:0:0:0:
104,40,97412,5,0,0:0:0:0:
56,120,97590,2,0,L|16:192,1,75,8|0,0:0|0:0,0:0:0:0:
104,208,97948,2,0,L|112:288,1,75,0|0,0:0|0:0,0:0:0:0:
120,372,98305,1,8,0:0:0:0:
120,372,98394,1,2,0:0:0:0:
240,312,98662,6,0,L|320:296,1,75
400,280,99019,1,8,0:0:0:0:
400,280,99108,1,0,0:0:0:0:
378,146,99376,2,0,P|360:160|344:208,1,75
400,280,99733,1,8,0:0:0:0:
448,208,99912,1,0,0:0:0:0:
464,168,100001,1,0,0:0:0:0:
464,120,100090,6,0,P|440:80|412:68,1,75
328,72,100448,2,8,L|288:72,1,37.5,8|2,0:0|0:0,0:0:0:0:
192,168,100805,2,0,P|168:208|140:220,1,75
56,216,101163,2,0,L|16:216,1,37.5,8|0,0:0|0:0,0:0:0:0:
72,96,101519,5,0,0:0:0:0:
160,80,101698,1,0,0:0:0:0:
192,168,101876,1,8,0:0:0:0:
192,168,101965,1,0,0:0:0:0:
264,288,102233,2,0,L|336:312,1,75
496,288,102590,2,0,L|424:312,1,75,8|0,0:0|0:0,0:0:0:0:
380,300,102858,1,0,0:0:0:0:
376,256,102948,6,0,P|384:168|432:128,1,150,6|8,0:0|0:0,0:0:0:0:
464,48,103483,1,2,0:0:0:0:
376,56,103662,2,0,P|295:93|237:71,1,150,0|8,0:0|0:0,0:0:0:0:
152,48,104198,1,2,0:0:0:0:
168,136,104376,6,0,B|136:176|136:176|88:176|88:176|56:216,1,150,0|8,0:0|0:0,0:0:0:0:
8,296,104912,1,2,0:0:0:0:
96,296,105090,2,0,B|146:303|146:303|170:345|170:345|221:352,1,150,0|8,0:0|0:0,0:0:0:0:
312,352,105626,1,2,0:0:0:0:
320,352,105715,1,0,0:0:0:0:
328,352,105805,6,0,B|432:352|432:352|448:320|472:320,1,150,0|8,0:0|0:0,0:0:0:0:
464,232,106340,1,2,0:0:0:0:
464,144,106519,2,0,B|448:144|432:112|432:112|328:112,1,150,0|8,0:0|0:0,0:0:0:0:
240,112,107055,1,2,0:0:0:0:
152,112,107233,5,8,0:0:0:0:
104,36,107412,1,8,0:0:0:0:
116,196,107680,1,8,0:0:0:0:
240,112,107948,1,8,0:0:0:0:
240,288,108305,6,0,P|208:344|128:360,1,150,0|8,0:0|0:0,0:0:0:0:
240,288,109019,2,0,P|272:256|304:256,1,75
448,208,109376,2,0,P|416:240|384:240,1,75,2|0,0:0|0:0,0:0:0:0:
336,168,109733,2,0,B|344:88|344:88|304:32,1,150,0|8,0:0|0:0,0:0:0:0:
112,40,110448,6,0,P|80:48|56:80,1,75
112,216,110805,2,0,P|80:208|56:176,1,75,2|0,0:0|0:0,0:0:0:0:
136,128,111162,2,0,P|200:144|200:224,1,150,0|8,0:0|0:0,0:0:0:0:
96,360,111876,6,0,L|184:360,1,75
339,360,112233,2,0,L|264:360,1,75,2|0,0:0|0:0,0:0:0:0:
216,280,112590,2,0,B|264:264|280:216|280:216|344:216,1,150,0|8,0:0|0:0,0:0:0:0:
424,56,113305,6,0,P|472:80|472:104,1,75
422,223,113662,2,0,P|470:199|472:184,1,75,2|0,0:0|0:0,0:0:0:0:
392,144,114019,2,0,B|352:128|288:160|240:144,1,150,0|8,0:0|0:0,0:0:0:0:
152,144,114555,1,0,0:0:0:0:
136,56,114733,2,0,P|184:56|200:80,2,75,0|0|2,0:0|0:0|0:0,0:0:0:0:
64,112,115269,5,0,0:0:0:0:
72,200,115448,2,0,L|80:280,1,75,0|0,0:0|0:0,0:0:0:0:
88,368,115805,2,0,P|176:336|184:288,1,150,8|0,0:0|0:0,0:0:0:0:
272,288,116340,2,0,P|280:334|368:366,1,150,0|2,0:0|0:0,0:0:0:0:
448,328,116876,2,0,L|504:272,1,75,0|0,0:0|0:0,0:0:0:0:
512,184,117233,5,8,0:0:0:0:
400,32,117590,1,0,0:0:0:0:
392,216,117948,1,2,0:0:0:0:
512,80,118305,1,0,0:0:0:0:
328,128,118662,6,0,B|256:96|256:96|184:112,1,150,8|0,0:0|0:0,0:0:0:0:
112,168,119198,2,0,B|184:200|184:200|253:184,1,150
328,128,119733,1,0,0:0:0:0:
408,168,119911,1,0,0:0:0:0:
336,216,120090,1,4,0:0:0:0:
16,336,125805,5,8,0:0:0:0:
192,336,126162,1,0,0:0:0:0:
80,192,126519,1,2,0:0:0:0:
256,192,126876,1,2,0:0:0:0:
496,48,127233,5,8,0:0:0:0:
320,48,127590,1,0,0:0:0:0:
432,192,127947,1,2,0:0:0:0:
256,192,128305,1,2,0:0:0:0:
144,48,128662,6,0,P|216:80|200:136,1,150,8|0,0:0|0:0,0:0:0:0:
368,336,129376,2,0,P|296:304|312:248,2,150,2|2|4,0:0|0:0|0:0,0:0:0:0:
