osu file format v12

[General]
AudioFilename: Bermuda Loverz - My Girl (Ladidada)(Rimini Rockaz Radio Edit).mp3
AudioLeadIn: 2000
PreviewTime: 108114
Countdown: 0
SampleSet: Soft
StackLeniency: 0.3
Mode: 0
LetterboxInBreaks: 0
EpilepsyWarning: 1

[Editor]
DistanceSpacing: 1.2
BeatDivisor: 4
GridSize: 8

[Metadata]
Title:My Girl (Nightcore Mix)
TitleUnicode:My Girl (Nightcore Mix)
Artist:Bermuda Loverz
ArtistUnicode:Bermuda Loverz
Creator:BounceBabe
Version:Hard
Source:
Tags:XinCrin Rimini Rockaz Radio Edit Remix Ladidada
BeatmapID:217728
BeatmapSetID:77570

[Difficulty]
HPDrainRate:6
CircleSize:3
OverallDifficulty:6
ApproachRate:7
SliderMultiplier:1.3
SliderTickRate:2

[Events]
//Background and Video events
0,0,"BG.jpg",0,0
//Break Periods
2,37255,38662
2,86005,90619
2,120290,124905
//Storyboard Layer 0 (Background)
//Storyboard Layer 1 (Fail)
//Storyboard Layer 2 (Pass)
//Storyboard Layer 3 (Foreground)
//Storyboard Sound Samples
//Background Colour Transformations
3,100,255,255,255

[TimingPoints]
91,357.142857142857,4,1,1,10,1,0
2948,-100,4,1,1,15,0,0
5805,-100,4,1,1,25,0,0
7233,-100,4,1,1,30,0,0
8662,-100,4,1,1,35,0,0
10090,-100,4,1,1,40,0,0
11519,-100,4,1,1,45,0,0
14375,-100,4,1,1,50,0,0
17232,-100,4,1,1,55,0,0
21519,-100,4,1,1,50,0,0
22680,-100,4,1,1,75,0,0
36965,-100,4,2,1,10,0,0
40090,-100,4,1,2,75,0,0
51519,-100,4,1,1,90,0,1
55001,-100,4,1,3,70,0,1
55180,-100,4,1,1,90,0,1
57858,-100,4,1,3,70,0,1
58037,-100,4,1,1,90,0,1
59287,-100,4,1,3,90,0,1
59465,-100,4,1,1,90,0,1
60715,-100,4,1,3,90,0,1
60894,-100,4,1,1,90,0,1
62144,-100,4,1,3,90,0,1
62323,-100,4,1,1,90,0,1
62948,-100,4,1,1,90,0,0
69287,-100,4,1,3,90,0,0
69465,-100,4,1,1,90,0,0
72144,-100,4,1,3,90,0,0
72323,-100,4,1,1,90,0,0
74376,-100,4,1,1,90,0,1
74465,-100,4,1,1,90,0,0
91519,-100,4,1,2,70,0,0
91787,-100,4,1,4,70,0,0
91965,-100,4,1,2,70,0,0
92501,-100,4,1,4,70,0,0
92680,-100,4,1,2,70,0,0
93215,-100,4,1,4,70,0,0
93394,-100,4,1,2,70,0,0
93930,-100,4,1,4,70,0,0
94108,-100,4,1,2,70,0,0
94644,-100,4,1,4,70,0,0
94823,-100,4,1,2,70,0,0
95358,-100,4,1,4,70,0,0
95537,-100,4,1,2,70,0,0
95715,-100,4,1,2,70,0,0
103930,-100,4,1,4,70,0,0
104108,-100,4,1,2,70,0,0
105358,-100,4,1,4,70,0,0
105537,-100,4,1,2,70,0,0
106073,-100,4,1,4,70,0,0
106251,-100,4,1,2,70,0,0
108305,-100,4,1,1,80,0,0
113573,-100,4,1,3,80,0,0
113751,-100,4,1,1,80,0,0
119287,-100,4,1,3,80,0,0
119465,-100,4,1,1,80,0,0
130090,-100,4,2,1,10,0,0

[Colours]
Combo1 : 255,180,100
Combo2 : 255,255,128
Combo3 : 100,175,255
Combo4 : 255,159,200
SliderBorder : 255,255,255

[HitObjects]
56,40,91,6,0,L|192:40,1,130
186,40,626,1,0,0:0:0:0:
344,40,983,2,0,L|416:64,1,65
456,120,1340,1,0,0:0:0:0:
408,184,1519,2,0,P|368:264|440:344,2,195
256,168,2948,6,0,L|144:240,1,130
146,238,3483,1,0,0:0:0:0:
264,344,3840,2,0,L|200:352,1,65
128,320,4198,1,0,0:0:0:0:
72,264,4376,2,0,P|56:168|128:112,2,195
232,256,5805,6,0,P|296:240|328:184,1,130
336,112,6340,2,0,P|367:59|431:43,1,130
512,40,6876,1,0,0:0:0:0:
464,192,7233,2,0,B|456:264|496:312|496:312|440:360,2,195
512,40,8662,6,0,P|448:32|384:56,1,130
312,72,9198,2,0,P|251:93|187:85,1,130
112,72,9733,1,0,0:0:0:0:
104,224,10090,2,0,B|96:304|96:304|16:304|0:352,2,195
264,224,11519,6,0,L|408:224,1,130,8|0,0:0|0:0,0:0:0:0:
472,224,12055,1,2,0:0:0:0:
472,72,12412,2,0,L|408:72,2,65
472,152,12948,2,0,L|272:152,2,195
472,304,14376,6,0,L|336:304,1,130,8|0,0:0|0:0,0:0:0:0:
264,304,14912,1,2,0:0:0:0:
112,304,15269,2,0,L|40:304,2,65
192,304,15805,2,0,B|184:224|96:224|96:224|96:152,2,195
344,304,17233,6,0,P|400:272|416:208,1,130,8|0,0:0|0:0,0:0:0:0:
472,160,17769,2,0,L|472:24,1,130,2|0,0:0|0:0,0:0:0:0:
392,32,18305,2,0,L|328:32,1,65
248,32,18662,2,0,B|176:40|168:104|168:104|88:112,2,195
352,152,20090,6,0,P|360:208|296:232,1,130,8|0,0:0|0:0,0:0:0:0:
296,312,20626,2,0,L|168:344,1,130,2|0,0:0|0:0,0:0:0:0:
88,344,21162,2,0,L|24:344,1,65
24,264,21519,6,0,L|-8:160,2,97.5,8|8|8,0:0|0:0|0:0,0:0:0:0:
110,283,22233,2,0,L|88:344,2,65,8|8|8,0:0|0:0|0:0,0:0:0:0:
72,144,22948,6,0,P|104:88|224:88,1,195,12|0,0:0|0:0,0:0:0:0:
304,96,23662,1,2,0:0:0:0:
384,96,23840,2,0,L|456:96,2,65,0|2|0,0:0|0:0|0:0,0:0:0:0:
344,168,24376,6,0,P|336:248|424:304,1,195,8|0,0:0|0:0,0:0:0:0:
504,304,25090,1,2,0:0:0:0:
464,232,25269,2,0,L|496:176,2,65,0|2|0,0:0|0:0|0:0,0:0:0:0:
424,304,25805,6,0,L|224:304,1,195,8|0,0:0|0:0,0:0:0:0:
152,304,26519,1,2,0:0:0:0:
80,336,26698,2,0,L|16:376,2,65,0|2|0,0:0|0:0|0:0,0:0:0:0:
88,256,27233,6,0,P|64:176|136:104,1,195,8|0,0:0|0:0,0:0:0:0:
136,24,27948,1,2,0:0:0:0:
208,64,28126,2,0,L|272:64,2,65,0|2|0,0:0|0:0|0:0,0:0:0:0:
136,103,28662,6,0,B|160:144|200:144|200:144|316:144,1,195,8|0,0:0|0:0,0:0:0:0:
396,144,29376,2,0,L|428:200,1,65,0|2,0:0|0:0,0:0:0:0:
480,264,29733,2,0,L|512:320,1,65,2|0,0:0|0:0,0:0:0:0:
440,356,30090,6,0,B|368:332|320:372|248:348,1,195,8|0,0:0|0:0,0:0:0:0:
168,328,30805,2,0,P|128:312|112:288,1,65,0|2,0:0|0:0,0:0:0:0:
104,216,31162,2,0,P|91:199|51:183,1,65,2|0,0:0|0:0,0:0:0:0:
16,112,31519,6,0,B|44:72|100:72|100:72|185:123,1,195,8|0,0:0|0:0,0:0:0:0:
260,148,32233,2,0,B|300:164|300:164|332:164,1,65,0|2,0:0|0:0,0:0:0:0:
400,184,32590,2,0,B|421:184|421:184|461:200,1,65,2|0,0:0|0:0,0:0:0:0:
504,268,32948,6,0,P|456:332|352:308,1,195,8|0,0:0|0:0,0:0:0:0:
280,284,33662,2,0,L|208:308,1,65,2|2,0:0|0:0,0:0:0:0:
184,232,34019,2,0,L|112:208,1,65,2|0,0:0|0:0,0:0:0:0:
48,184,34376,1,4,0:0:0:0:
256,192,34555,12,0,37055,0:0:0:0:
104,48,40090,6,0,P|64:96|72:160,1,130,12|0,0:0|0:0,0:0:0:0:
112,232,40626,2,0,P|152:184|144:120,1,130
192,56,41162,2,0,L|256:32,1,65
332,32,41519,2,0,L|392:54,1,65,0|0,0:0|0:0,0:0:0:0:
464,88,41876,1,0,0:0:0:0:
464,168,42055,1,0,0:0:0:0:
416,232,42233,1,0,0:0:0:0:
304,344,42590,2,0,L|240:344,1,65
160,344,42948,6,0,B|128:368|88:352|88:352|40:320,1,130,12|0,0:0|0:0,0:0:0:0:
0,256,43483,2,0,B|32:232|72:248|72:248|120:280,1,130
192,280,44019,2,0,L|248:248,1,65
248,168,44376,2,0,L|192:136,1,65
120,176,44733,1,0,0:0:0:0:
120,96,44911,1,0,0:0:0:0:
192,56,45090,1,0,0:0:0:0:
352,56,45448,2,0,L|416:56,1,65
496,56,45805,6,0,P|504:144|424:208,1,195,12|0,0:0|0:0,0:0:0:0:
428,284,46519,1,0,0:0:0:0:
288,352,46876,1,0,0:0:0:0:
136,352,47233,2,0,P|128:264|208:200,1,195,12|0,0:0|0:0,0:0:0:0:
204,124,47947,1,0,0:0:0:0:
344,56,48304,1,0,0:0:0:0:
328,208,48662,6,0,L|392:200,2,65,12|0|0,0:0|0:0|0:0,0:0:0:0:
224,328,49376,2,0,L|160:336,2,65,12|0|0,0:0|0:0|0:0,0:0:0:0:
376,344,50090,2,0,L|480:360,2,97.5,12|8|8,0:0|0:0|0:0,0:0:0:0:
312,296,50805,1,8,0:0:0:0:
256,240,50983,1,8,0:0:0:0:
256,160,51162,1,8,0:0:0:0:
288,88,51340,1,0,0:0:0:0:
352,48,51519,6,0,P|408:48|448:112,1,130,12|0,0:0|0:0,0:0:0:0:
448,184,52055,2,0,L|448:320,1,130,2|2,0:0|0:0,0:0:0:0:
368,320,52590,1,0,0:0:0:0:
288,320,52769,1,0,0:0:0:0:
208,320,52948,2,0,L|160:272,1,65,8|0,0:0|0:0,0:0:0:0:
104,328,53305,2,0,L|56:280,1,65
16,216,53662,2,0,P|32:144|80:128,1,130,2|2,0:0|0:0,0:0:0:0:
144,88,54198,1,0,0:0:0:0:
208,40,54376,6,0,L|352:40,1,130,8|0,0:0|0:0,0:0:0:0:
344,120,54912,2,0,L|488:120,1,130
472,200,55448,1,2,0:0:0:0:
472,280,55626,1,0,0:0:0:0:
408,328,55805,2,0,L|344:352,1,65,8|0,0:0|0:0,0:0:0:0:
276,320,56162,2,0,L|212:344,1,65
136,344,56519,2,0,B|48:344|48:344|32:328|40:304,1,130,2|2,0:0|0:0,0:0:0:0:
48,224,57055,1,0,0:0:0:0:
80,152,57233,6,0,P|128:112|104:56,1,130,8|0,0:0|0:0,0:0:0:0:
105,57,57769,2,0,L|304:56,1,195,0|2,0:0|0:0,0:0:0:0:
456,64,58662,2,0,P|408:104|432:160,1,130,8|0,0:0|0:0,0:0:0:0:
430,158,59198,2,0,L|231:159,1,195,0|2,0:0|0:0,0:0:0:0:
80,160,60090,6,0,B|48:220|48:220|80:280,1,130,8|0,0:0|0:0,0:0:0:0:
77,274,60626,2,0,B|120:352|120:352|240:352,1,195,0|2,0:0|0:0,0:0:0:0:
384,352,61519,2,0,B|416:292|416:292|384:232,1,130,8|0,0:0|0:0,0:0:0:0:
386,237,62055,2,0,B|343:159|343:159|223:159,1,195,0|2,0:0|0:0,0:0:0:0:
156,160,62769,1,0,0:0:0:0:
192,88,62948,6,0,L|144:40,1,65,12|0,0:0|0:0,0:0:0:0:
64,40,63305,2,0,B|48:104|48:104|64:168,1,130,0|2,0:0|0:0,0:0:0:0:
72,320,64019,1,0,0:0:0:0:
152,320,64198,1,0,0:0:0:0:
232,320,64376,6,0,L|312:320,1,65,8|0,0:0|0:0,0:0:0:0:
376,320,64733,2,0,P|440:312|464:256,1,130,0|2,0:0|0:0,0:0:0:0:
464,104,65448,1,0,0:0:0:0:
464,24,65626,1,0,0:0:0:0:
392,64,65805,6,0,L|328:64,1,65,8|0,0:0|0:0,0:0:0:0:
248,64,66162,2,0,P|176:56|120:80,1,130,0|2,0:0|0:0,0:0:0:0:
48,208,66876,1,0,0:0:0:0:
48,288,67055,1,0,0:0:0:0:
120,248,67233,6,0,L|184:248,1,65,8|0,0:0|0:0,0:0:0:0:
264,248,67590,2,0,P|320:248|352:312,1,130,0|2,0:0|0:0,0:0:0:0:
512,312,68305,1,0,0:0:0:0:
512,232,68483,1,0,0:0:0:0:
512,152,68662,6,0,P|472:96|488:32,1,130,8|0,0:0|0:0,0:0:0:0:
482,39,69198,2,0,L|287:35,1,195,0|0,0:0|0:0,0:0:0:0:
128,32,70090,2,0,L|64:32,1,65,8|0,0:0|0:0,0:0:0:0:
64,112,70448,2,0,L|129:112,2,65,0|0|2,0:0|0:0|0:0,0:0:0:0:
160,232,71162,1,0,0:0:0:0:
80,232,71340,1,0,0:0:0:0:
0,232,71519,6,0,P|40:288|24:352,1,130,8|0,0:0|0:0,0:0:0:0:
29,344,72055,2,0,L|223:347,1,195
392,344,72948,2,0,L|457:344,1,65,8|0,0:0|0:0,0:0:0:0:
456,264,73306,2,0,L|391:264,2,65,0|0|2,0:0|0:0|0:0,0:0:0:0:
488,112,74019,2,0,L|416:112,1,65
344,112,74376,6,0,P|272:120|240:80,1,130,12|0,0:0|0:0,0:0:0:0:
200,8,74912,1,0,0:0:0:0:
160,80,75090,2,0,P|128:120|56:112,1,130
40,192,75626,1,0,0:0:0:0:
56,272,75805,2,0,P|128:264|160:304,1,130,8|0,0:0|0:0,0:0:0:0:
200,376,76340,1,0,0:0:0:0:
240,304,76519,2,0,P|272:264|344:272,1,130
426,272,77055,1,0,0:0:0:0:
440,192,77233,6,0,B|440:136|384:112|384:112|288:112,1,195,8|0,0:0|0:0,0:0:0:0:
136,120,78126,1,0,0:0:0:0:
56,120,78305,1,0,0:0:0:0:
56,272,78662,2,0,L|96:328,1,65,8|0,0:0|0:0,0:0:0:0:
160,280,79019,2,0,L|197:332,2,65
312,280,79733,1,0,0:0:0:0:
392,280,79912,1,0,0:0:0:0:
472,280,80090,6,0,B|472:224|472:224|488:200|488:200|488:80,1,195,8|0,0:0|0:0,0:0:0:0:
336,72,80983,1,0,0:0:0:0:
256,72,81162,1,0,0:0:0:0:
104,72,81519,2,0,L|40:56,1,65,8|0,0:0|0:0,0:0:0:0:
24,136,81876,2,0,L|88:152,2,65
88,280,82590,1,0,0:0:0:0:
168,280,82769,1,0,0:0:0:0:
248,280,82948,1,4,0:0:0:0:
256,192,83037,12,4,85805,0:0:0:0:
376,344,91519,6,0,B|424:360|464:312|464:312|488:216,1,195,4|0,0:0|0:0,0:0:0:0:
504,144,92233,2,0,B|456:128|416:176|416:176|392:272,1,195,0|0,0:0|0:0,0:0:0:0:
376,344,92948,6,0,B|304:336|240:312|240:312|184:320,1,195,4|0,0:0|0:0,0:0:0:0:
200,240,93662,2,0,B|145:247|145:247|81:223|9:215,1,195,0|0,0:0|0:0,0:0:0:0:
8,136,94376,6,0,B|80:136|144:160|144:160|160:104,1,195,4|0,0:0|0:0,0:0:0:0:
240,104,95090,2,0,B|255:50|255:50|319:74|391:74,1,195
472,72,95805,1,8,0:0:0:0:
472,72,95983,1,8,0:0:0:0:
440,184,96251,1,8,0:0:0:0:
336,232,96519,5,8,0:0:0:0:
344,312,96698,1,8,0:0:0:0:
272,280,96876,1,8,0:0:0:0:
264,200,97055,1,8,0:0:0:0:
264,188,97144,1,0,0:0:0:0:
264,176,97233,6,0,P|208:128|152:136,1,130,4|8,0:0|0:0,0:0:0:0:
32,232,97948,2,0,P|88:280|144:272,1,130,0|8,0:0|0:0,0:0:0:0:
296,248,98662,6,0,L|416:192,1,130,0|8,0:0|0:0,0:0:0:0:
448,40,99376,2,0,L|328:96,1,130,0|8,0:0|0:0,0:0:0:0:
256,128,99912,1,0,0:0:0:0:
244,128,100001,1,0,0:0:0:0:
232,128,100090,6,0,B|184:128|184:128|160:136|160:136|104:136,1,130,0|8,0:0|0:0,0:0:0:0:
64,288,100805,2,0,B|112:288|112:288|136:280|136:280|192:280,1,130,0|8,0:0|0:0,0:0:0:0:
352,280,101519,6,0,B|424:280|424:280|464:232,1,130,0|8,0:0|0:0,0:0:0:0:
472,80,102233,2,0,B|400:80|400:80|360:128,1,130,0|8,0:0|0:0,0:0:0:0:
320,192,102769,1,0,0:0:0:0:
308,184,102858,1,0,0:0:0:0:
296,176,102948,6,0,L|248:128,1,65,4|0,0:0|0:0,0:0:0:0:
168,128,103305,2,0,L|120:80,1,65,8|0,0:0|0:0,0:0:0:0:
64,136,103662,2,0,B|144:224|144:224|149:260|112:288,1,195
111,288,104376,6,0,L|168:328,1,65,4|0,0:0|0:0,0:0:0:0:
240,304,104733,2,0,L|296:343,1,65,8|0,0:0|0:0,0:0:0:0:
372,340,105090,2,0,P|452:308|460:204,1,195
384,200,105805,6,0,P|394:101|474:69,2,195,4|0|8,0:0|0:0|0:0,0:0:0:0:
232,200,107233,1,8,0:0:0:0:
232,200,107412,1,8,0:0:0:0:
192,88,107680,1,8,0:0:0:0:
112,176,107948,1,8,0:0:0:0:
400,312,108662,6,0,P|328:264|272:336,1,195,12|0,0:0|0:0,0:0:0:0:
192,344,109376,2,0,L|120:360,1,65,2|0,0:0|0:0,0:0:0:0:
48,360,109733,1,2,0:0:0:0:
64,280,109912,1,0,0:0:0:0:
80,200,110090,6,0,B|104:136|64:64|64:64|120:64,1,195,8|0,0:0|0:0,0:0:0:0:
200,64,110805,2,0,L|264:64,1,65,2|0,0:0|0:0,0:0:0:0:
344,64,111162,1,2,0:0:0:0:
304,136,111340,1,0,0:0:0:0:
384,136,111519,6,0,B|432:176|424:256|424:256|464:312,1,195,8|0,0:0|0:0,0:0:0:0:
392,352,112233,2,0,L|328:368,1,65,2|0,0:0|0:0,0:0:0:0:
248,368,112590,1,2,0:0:0:0:
288,296,112769,1,0,0:0:0:0:
208,296,112948,2,0,B|168:312|160:360|160:360|40:360,2,195,8|0|2,0:0|0:0|0:0,0:0:0:0:
136,160,114376,6,0,L|88:112,1,65,8|0,0:0|0:0,0:0:0:0:
144,56,114733,2,0,L|240:152,1,130,0|2,0:0|0:0,0:0:0:0:
352,256,115448,1,2,0:0:0:0:
352,256,115626,1,0,0:0:0:0:
432,256,115805,6,0,L|488:224,1,65,8|0,0:0|0:0,0:0:0:0:
488,144,116162,2,0,B|440:96|440:96|376:96,1,130,0|2,0:0|0:0,0:0:0:0:
232,160,116876,1,2,0:0:0:0:
232,160,117055,1,0,0:0:0:0:
168,208,117233,6,0,L|112:240,1,65,8|0,0:0|0:0,0:0:0:0:
48,288,117590,2,0,P|96:320|168:296,1,130,0|2,0:0|0:0,0:0:0:0:
296,216,118305,1,2,0:0:0:0:
296,216,118483,1,0,0:0:0:0:
336,144,118662,6,0,P|352:96|424:80,1,130,8|0,0:0|0:0,0:0:0:0:
504,96,119198,2,0,P|488:144|416:160,1,130,0|0,0:0|0:0,0:0:0:0:
376,236,119733,2,0,L|408:292,2,65,2|0|4,0:0|0:0|0:0,0:0:0:0:
404,260,125805,6,0,P|348:284|332:348,1,130,8|0,0:0|0:0,0:0:0:0:
180,346,126519,2,0,P|164:284|108:260,1,130,2|2,0:0|0:0,0:0:0:0:
104,104,127233,2,0,P|120:166|176:190,2,130,0|0|2,0:0|0:0|0:0,0:0:0:0:
104,104,128305,1,2,0:0:0:0:
256,64,128662,6,0,L|400:64,1,130,8|0,0:0|0:0,0:0:0:0:
464,200,129376,2,0,L|320:200,2,130,2|2|4,0:0|0:0|0:0,0:0:0:0:
