osu file format v11

[General]
AudioFilename: Moe.mp3
AudioLeadIn: 2000
PreviewTime: 23910
Countdown: 0
SampleSet: Soft
StackLeniency: 0.4
Mode: 0
LetterboxInBreaks: 0

[Editor]
DistanceSpacing: 0.9
BeatDivisor: 2
GridSize: 4

[Metadata]
Title:My Girl (Nightcore Mix)
TitleUnicode:My Girl (Nightcore Mix)
Artist:Bermuda Loverz
ArtistUnicode:Bermuda Loverz
Creator:Andrea
Version:Normal
Source:
Tags:Trance Remix osuplayer111
BeatmapID:217589
BeatmapSetID:77453

[Difficulty]
HPDrainRate:4
CircleSize:3
OverallDifficulty:4
ApproachRate:5
SliderMultiplier:1.2
SliderTickRate:1

[Events]
//Background and Video events
0,0,"BG.jpg"
//Break Periods
2,35985,40299
//Storyboard Layer 0 (Background)
//Storyboard Layer 1 (Fail)
//Storyboard Layer 2 (Pass)
//Storyboard Layer 3 (Foreground)
//Storyboard Sound Samples
//Background Colour Transformations
3,100,128,255,255

[TimingPoints]
71,357.142857142857,4,2,1,100,1,0
12928,-100,4,1,1,80,0,0
47213,-100,4,1,1,80,0,1
58642,-100,4,1,1,80,0,0
70070,-100,4,1,1,80,0,1
79356,-100,4,1,1,65,0,1
79535,-100,4,1,1,80,0,1
81499,-100,4,1,1,80,0,0

[Colours]
Combo1 : 255,98,21
Combo2 : 0,120,240
Combo3 : 255,26,26
Combo4 : 143,32,255

[HitObjects]
112,148,1142,1,0,0:0:0
176,60,1499,2,0,P|255:134|336:59,1,240,2|0,0:0|0:0,0:0:0
400,148,2570,1,0,0:0:0
356,248,2928,6,0,P|256:315|256:315|156:248,2,240,2|0|2,0:0|0:0|0:0,0:0:0
400,148,4713,1,0,0:0:0
336,60,5070,2,0,P|260:60|260:60|176:96|176:96|100:96,2,240,0|2|0,0:0|0:0|0:0,0:0:0
400,148,6856,5,0,0:0:0
444,248,7213,2,0,P|328:248|252:336,2,240,2|0|2,0:0|0:0|0:0,0:0:0
372,336,8999,1,0,0:0:0
372,336,9356,6,0,P|264:120,2,240,0|2|0,0:0|0:0|0:0,0:0:0
444,248,11142,1,0,0:0:0
400,148,11499,1,2,0:0:0
216,36,12213,1,0,0:0:0
120,84,12570,6,0,P|60:84|60:84|16:124,1,120,0|4,0:0|0:0,0:0:0
100,192,13285,1,2,0:0:0
16,260,13642,2,0,P|60:300|60:300|120:300,1,120,2|2,0:0|0:0,0:0:0
216,348,14356,6,0,P|332:348|408:256,2,240,2|2|2,0:0|0:0|0:0,0:0:0
216,240,16142,1,2,0:0:0
312,192,16499,2,0,P|312:84|424:84,2,240,2|2|2,0:0|0:0|0:0,0:0:0
420,192,18285,1,2,0:0:0
368,284,18642,5,2,0:0:0
260,284,18999,2,0,P|140:284|48:356,1,240,8|8,0:0|0:0,0:0:0
12,252,20070,1,2,0:0:0
96,184,20428,2,8,P|96:72|204:32,1,240
256,124,21499,1,2,0:0:0
309,31,21856,6,8,P|416:72|416:184,1,240
364,280,22928,1,2,0:0:0
256,280,23285,2,8,P|136:280|136:280|44:356,1,240
36,248,24356,5,4,0:0:0
36,140,24713,2,0,P|144:140|144:32,3,240,8|8|8|8,0:0|0:0|0:0|0:0,0:0:0
256,28,27213,1,2,0:0:0
368,32,27570,2,8,P|368:140|476:140,1,240
476,248,28642,6,0,P|416:248|376:292,1,120,2|8,0:0|0:0,0:0:0
308,372,29356,1,2,0:0:0
204,372,29713,1,8,0:0:0
134,289,30070,2,0,P|96:248|36:248,1,120,2|8,0:0|0:0,0:0:0
172,80,31142,5,8,0:0:0
256,24,31499,1,2,0:0:0
340,80,31856,2,8,P|388:184|312:268,1,240
256,360,32928,1,2,0:0:0
198,267,33285,2,8,P|124:184|172:80,1,240
256,24,34356,1,2,0:0:0
256,192,34535,12,2,35785,0:0:0
104,192,41499,5,2,0:0:0
256,344,42213,1,2,0:0:0
408,192,42928,1,2,0:0:0
256,40,43642,1,2,0:0:0
324,204,44356,5,2,0:0:0
256,264,44713,1,2,0:0:0
188,204,45070,1,2,0:0:0
212,120,45428,1,2,0:0:0
300,120,45785,1,2,0:0:0
56,48,47213,5,4,0:0:0
164,48,47570,1,2,0:0:0
112,140,47928,2,0,P|112:260|112:260|184:356,1,240,2|2,0:0|0:0,0:0:0
256,276,48999,1,2,0:0:0
328,356,49356,6,0,P|400:260|400:260|400:140,1,240,2|2,0:0|0:0,0:0:0
308,80,50428,1,2,0:0:0
204,80,50785,2,0,P|88:80|24:176,1,240,2|2,0:0|0:0,0:0:0
84,264,51856,1,2,0:0:0
140,356,52213,6,0,P|260:356|260:356|348:272,1,240,2|2,0:0|0:0,0:0:0
420,192,53285,1,2,0:0:0
346,110,53642,2,0,P|260:28|260:28|140:28,1,240,2|2,0:0|0:0,0:0:0
32,32,54713,1,2,0:0:0
88,124,55070,6,0,P|88:240|172:324,1,240,2|2,0:0|0:0,0:0:0
256,256,56142,1,2,0:0:0
340,324,56499,2,0,P|424:240|424:124,1,240,2|2,0:0|0:0,0:0:0
360,40,57570,1,2,0:0:0
256,36,57928,6,0,P|140:36|72:132,1,240,2|2,0:0|0:0,0:0:0
160,192,58999,2,8,P|256:264|256:264|352:192,1,240
460,192,60070,1,2,0:0:0
408,288,60428,1,8,0:0:0
256,136,61142,5,8,0:0:0
180,60,61499,1,2,0:0:0
72,60,61856,2,8,P|72:180|72:180|148:272,1,240
256,272,62928,1,2,0:0:0
364,272,63285,6,8,P|440:180|440:180|440:60,1,240
332,60,64356,1,2,0:0:0
256,136,64713,2,8,P|176:136|176:136|112:184|112:184|32:184,1,240
36,292,65785,1,2,0:0:0
128,348,66142,6,8,P|248:348|312:256,1,240
420,252,67213,1,2,0:0:0
420,144,67570,2,8,P|300:144|228:56,1,240
120,60,68642,1,2,0:0:0
40,132,68999,1,8,0:0:0
112,336,69713,6,0,P|172:336|204:288,1,120,8|4,0:0|0:0,0:0:0
256,196,70428,1,8,0:0:0
308,290,70785,2,0,P|340:336|400:336,1,120,2|8,0:0|0:0,0:0:0
404,228,71499,1,2,0:0:0
352,132,71856,6,8,P|257:71|160:132,1,240
108,228,72928,1,2,0:0:0
204,284,73285,1,8,0:0:0
308,284,73642,1,2,0:0:0
404,228,73999,2,0,P|404:168|404:168|364:120,1,120,8|2,0:0|0:0,0:0:0
288,48,74713,6,8,P|168:48|92:132,1,240
180,192,75785,1,2,0:0:0
92,252,76142,2,8,P|168:336|288:336,1,240
384,292,77213,1,2,0:0:0
296,232,77570,1,8,0:0:0
368,28,78285,5,8,0:0:0
308,116,78642,1,2,0:0:0
204,116,78999,1,8,0:0:0
144,28,79356,1,2,0:0:0
256,28,79713,1,8,0:0:0
256,192,80070,12,4,81499,0:0:0
