osu file format v11

[General]
AudioFilename: Moe.mp3
AudioLeadIn: 2000
PreviewTime: 23910
Countdown: 0
SampleSet: Soft
StackLeniency: 0.4
Mode: 0
LetterboxInBreaks: 0

[Editor]
DistanceSpacing: 1.1
BeatDivisor: 4
GridSize: 4

[Metadata]
Title:My Girl (Nightcore Mix)
TitleUnicode:My Girl (Nightcore Mix)
Artist:Bermuda Loverz
ArtistUnicode:Bermuda Loverz
Creator:Andrea
Version:Hard
Source:
Tags:Trance Remix osuplayer111
BeatmapID:217396
BeatmapSetID:77453

[Difficulty]
HPDrainRate:7
CircleSize:4
OverallDifficulty:7
ApproachRate:8
SliderMultiplier:1.6
SliderTickRate:1

[Events]
//Background and Video events
0,0,"BG.jpg"
//Break Periods
2,35985,40749
//Storyboard Layer 0 (Background)
//Storyboard Layer 1 (Fail)
//Storyboard Layer 2 (Pass)
//Storyboard Layer 3 (Foreground)
//Storyboard Sound Samples
//Background Colour Transformations
3,100,128,255,255

[TimingPoints]
71,357.142857142857,4,2,1,100,1,0
12928,-100,4,1,1,80,0,0
47213,-100,4,1,1,80,0,1
58642,-100,4,1,1,80,0,0
70070,-100,4,1,1,80,0,1
79356,-100,4,1,1,65,0,1
79535,-100,4,1,1,80,0,1
81499,-100,4,1,1,80,0,0

[Colours]
Combo1 : 255,98,21
Combo2 : 0,120,240
Combo3 : 255,26,26
Combo4 : 143,32,255

[HitObjects]
184,80,1142,2,0,P|256:51|328:80,2,160,0|2|0,0:0|0:0|0:0,0:0:0
256,128,2035,1,0,0:0:0
160,276,2392,1,0,0:0:0
212,348,2571,1,0,0:0:0
300,348,2749,1,0,0:0:0
352,276,2928,2,0,P|436:276|468:216,1,160,2|0,0:0|0:0,0:0:0
384,196,3464,1,0,0:0:0
320,32,3821,6,0,P|320:72|296:104,1,80
192,32,4178,2,0,P|192:72|216:104,1,80,0|2,0:0|0:0,0:0:0
256,276,4714,1,0,0:0:0
184,328,4892,2,0,P|256:364|256:364|328:328,2,160
256,276,5785,1,2,0:0:0
100,192,6142,1,0,0:0:0
52,264,6321,6,0,P|23:192|52:120,2,160
104,336,7214,1,2,0:0:0
208,192,7571,1,0,0:0:0
256,116,7749,2,0,P|308:116|308:116|356:144|356:144|408:144,1,160
496,144,8285,1,0,0:0:0
452,220,8464,1,0,0:0:0
408,296,8642,6,0,P|328:296|296:364,1,160,2|0,0:0|0:0,0:0:0
216,360,9178,2,0,P|184:296|104:296,1,160
28,340,9714,1,0,0:0:0
28,252,9892,1,0,0:0:0
104,296,10071,1,2,0:0:0
256,204,10428,1,0,0:0:0
328,136,10607,2,0,P|280:136|256:108|256:108|232:136|184:136,2,160
256,204,11499,2,0,P|256:40,1,160,2|0,0:0|0:0,0:0:0
256,44,12035,1,0,0:0:0
256,340,12571,6,0,P|336:340|368:272,2,160,0|4|2,0:0|0:0|0:0,0:0:0
168,340,13464,1,0,0:0:0
100,284,13642,2,0,P|60:284|28:256,1,80,2|0,0:0|0:0,0:0:0
84,192,13999,1,2,0:0:0
30,124,14178,2,0,P|60:100|100:100,1,80,0|2,0:0|0:0,0:0:0
268,40,14714,6,0,P|308:40|340:68,1,80,2|0,0:0|0:0,0:0:0
388,136,15071,1,2,0:0:0
456,192,15249,1,0,0:0:0
388,248,15428,1,2,0:0:0
337,319,15607,2,0,P|308:344|268:344,1,80,0|2,0:0|0:0,0:0:0
180,192,16142,1,2,0:0:0
116,252,16321,6,0,P|63:192|63:192|116:132,1,160
184,76,16857,1,2,0:0:0
256,128,17035,1,0,0:0:0
328,76,17214,2,0,P|408:88|456:148,1,160,2|2,0:0|0:0,0:0:0
455,237,17749,2,0,P|408:296|328:308,1,160,0|0,0:0|0:0,0:0:0
256,256,18285,1,2,0:0:0
184,308,18464,1,0,0:0:0
96,308,18642,6,0,P|96:228|96:228|40:168,1,160,2|8,0:0|0:0,0:0:0
104,108,19178,2,0,P|160:172|160:172|236:172,1,160
324,172,19714,1,8,0:0:0
388,108,19892,1,0,0:0:0
452,172,20071,2,0,P|452:252|392:300,1,160,2|8,0:0|0:0,0:0:0
320,348,20607,2,0,P|256:300|256:300|192:348,1,160
132,284,21142,2,0,P|196:236,2,80,8|0|2,0:0|0:0|0:0,0:0:0
12,156,21857,5,8,0:0:0
68,88,22035,2,0,P|148:88|200:144,1,160
256,76,22571,1,8,0:0:0
344,76,22749,1,0,0:0:0
396,148,22928,2,0,P|396:228|340:284,1,160,2|8,0:0|0:0,0:0:0
256,284,23464,1,0,0:0:0
68,88,23999,6,0,P|148:88|188:24,2,160,8|4|8,0:0|0:0|0:0,0:0:0
4,148,24892,1,0,0:0:0
80,192,25071,1,2,0:0:0
4,236,25249,2,0,P|64:292,1,80,0|8,0:0|0:0,0:0:0
128,348,25607,1,0,0:0:0
180,276,25785,6,0,P|256:300|256:300|332:276,1,160,2|8,0:0|0:0,0:0:0
364,192,26321,1,0,0:0:0
312,120,26499,2,0,P|348:44,1,80,2|0,0:0|0:0,0:0:0
256,48,26857,1,8,0:0:0
165,47,27035,2,0,P|200:120,1,80,0|2,0:0|0:0,0:0:0
256,288,27571,1,8,0:0:0
308,360,27749,6,0,P|388:360|432:300,1,160
432,212,28285,1,8,0:0:0
432,124,28464,1,0,0:0:0
376,56,28642,2,0,P|336:100|336:100|352:152|304:188,1,160,2|8,0:0|0:0,0:0:0
208,188,29178,2,0,P|160:152|176:100|176:100|136:56,1,160,0|0,0:0|0:0,0:0:0
80,124,29714,1,8,0:0:0
80,212,29892,1,0,0:0:0
80,300,30071,6,0,P|124:360|204:360,1,160,2|8,0:0|0:0,0:0:0
256,288,30607,2,0,P|336:288|336:288|400:336,1,160
464,276,31142,2,0,P|400:228,1,80,8|0,0:0|0:0,0:0:0
328,176,31499,2,0,P|256:147|184:176,1,160,2|8,0:0|0:0,0:0:0
256,224,32035,2,0,P|256:60,1,160
180,16,32571,1,8,0:0:0
256,64,32749,1,0,0:0:0
332,16,32928,1,2,0:0:0
468,192,33285,5,8,0:0:0
468,192,33464,1,0,0:0:0
256,320,33821,1,0,0:0:0
44,192,34178,1,0,0:0:0
44,192,34357,1,2,0:0:0
256,192,34446,12,2,35785,0:0:0
40,40,41499,5,2,0:0:0
472,40,41857,1,2,0:0:0
472,344,42214,1,2,0:0:0
40,344,42571,1,2,0:0:0
360,192,42928,5,2,0:0:0
152,192,43285,1,2,0:0:0
256,84,43642,1,2,0:0:0
256,300,43999,1,2,0:0:0
172,108,44357,6,0,P|112:56,1,80,2|0,0:0|2:0,0:0:0
340,108,44714,2,0,P|400:56,1,80,2|0,0:0|2:0,0:0:0
340,276,45071,2,0,P|400:328,1,80,2|0,0:0|2:0,0:0:0
172,276,45428,2,0,P|112:328,1,80,2|0,0:0|2:0,0:0:0
256,192,45785,1,2,0:0:0
256,72,46678,6,0,P|256:24,2,40,0|0|2,2:0|2:0|2:0,2:2:0
320,132,47035,1,0,2:2:0
256,192,47214,2,0,P|176:192|136:256,1,160,4|2,0:0|0:0,0:0:0
48,268,47749,2,0,P|128:268|184:324,1,160
256,368,48285,1,2,0:0:0
328,320,48464,1,0,0:0:0
416,320,48642,2,0,P|468:256|468:256|468:176,1,160,2|2,0:0|0:0,0:0:0
464,92,49178,6,0,P|384:92|328:36,1,160
256,88,49714,2,0,P|176:88,1,80,2|0,0:0|0:0,0:0:0
88,92,50071,2,0,P|88:168|32:224,1,160,2|2,0:0|0:0,0:0:0
32,312,50607,2,0,P|112:312|176:364,1,160
256,332,51142,1,2,0:0:0
340,360,51321,1,0,0:0:0
424,332,51499,2,0,P|464:272|400:240,1,160,2|2,0:0|0:0,0:0:0
402,144,52035,6,0,P|464:112|424:52,1,160
340,24,52571,1,2,0:0:0
256,52,52749,1,0,0:0:0
172,24,52928,2,0,P|112:72|32:72,1,160,2|2,0:0|0:0,0:0:0
28,160,53464,1,0,0:0:0
144,292,53821,1,0,0:0:0
212,348,53999,1,2,0:0:0
300,348,54178,1,0,0:0:0
368,292,54357,2,0,P|412:224|412:224|412:144,1,160,2|2,0:0|0:0,0:0:0
496,124,54892,6,0,P|416:124|416:124|352:72,1,160
276,28,55428,1,2,0:0:0
208,84,55607,1,0,0:0:0
140,28,55785,2,0,P|76:76|76:152,1,160,2|2,0:0|0:0,0:0:0
75,233,56321,2,0,P|76:308|140:356,1,160
200,292,56857,1,2,0:0:0
256,224,57035,1,0,0:0:0
312,292,57214,2,0,P|392:292|404:224,1,160,2|2,0:0|0:0,0:0:0
356,156,57749,1,0,0:0:0
216,52,58107,6,0,P|244:20,2,40,0|0|2,2:0|2:0|2:0,0:0:0
156,116,58464,1,0,2:0:0
68,120,58642,2,0,P|68:200|68:200|16:264,2,160,2|8|2,0:0|0:0|0:0,0:0:0
156,116,59535,1,0,0:0:0
200,192,59714,2,0,P|240:192|256:240|256:240|272:192|312:192,2,160,8|2|8,0:0|0:0|0:0,0:0:0
156,268,60607,1,0,0:0:0
212,336,60785,1,2,0:0:0
300,336,60964,1,0,0:0:0
356,268,61142,1,8,0:0:0
424,104,61499,5,2,0:0:0
256,48,61857,1,8,0:0:0
88,104,62214,1,2,0:0:0
28,168,62392,1,0,0:0:0
88,232,62571,2,0,P|164:232|208:296,2,160,8|2|8,0:0|0:0|0:0,0:0:0
120,312,63464,1,0,0:0:0
176,380,63642,1,2,0:0:0
264,380,63821,1,0,0:0:0
320,312,63999,1,8,0:0:0
392,156,64357,6,0,P|312:156|256:104,2,160,2|8|2,0:0|0:0|0:0,0:0:0
348,80,65249,1,0,0:0:0
280,24,65428,2,0,P|200:24|168:88,2,160,8|2|8,0:0|0:0|0:0,0:0:0
256,104,66321,1,0,0:0:0
256,192,66499,1,2,0:0:0
256,276,66678,1,0,0:0:0
232,360,66857,6,0,P|312:360|344:296,2,160,8|2|8,0:0|0:0|0:0,0:0:0
92,252,67928,1,2,0:0:0
28,192,68107,1,0,0:0:0
92,132,68285,2,0,P|172:132|172:132|224:72,2,160,8|2|8,0:0|0:0|0:0,0:0:0
132,52,69178,1,0,2:0:0
308,52,69535,6,0,P|344:16,2,40,0|0|8,2:0|2:0|0:0,0:0:0
372,112,69892,1,0,2:0:0
436,172,70071,2,0,P|436:252|376:300,1,160,4|8,0:0|0:0,0:0:0
360,212,70607,2,0,P|504:292,1,160
499,289,71142,1,8,0:0:0
499,289,71321,1,0,0:0:0
499,289,71499,1,2,0:0:0
340,364,71857,5,8,0:0:0
276,304,72035,2,0,P|196:304|140:360,1,160
52,360,72571,1,8,0:0:0
88,280,72749,1,0,0:0:0
44,204,72928,2,0,P|116:180|132:104,1,160,2|8,0:0|0:0,0:0:0
44,88,73464,2,0,P|124:88|176:32,1,160
256,64,73999,1,8,0:0:0
336,32,74178,1,0,0:0:0
416,64,74357,2,0,P|468:128|468:128|468:208,1,160,2|8,0:0|0:0,0:0:0
468,292,74892,6,0,P|388:292|388:292|336:352,1,160
256,316,75428,1,8,0:0:0
176,352,75607,1,0,0:0:0
96,316,75785,2,0,P|96:236|44:176,1,160,2|8,0:0|0:0,0:0:0
46,177,76321,2,0,P|136:40,1,160
212,84,76857,1,8,0:0:0
300,84,77035,1,0,0:0:0
372,32,77214,6,0,P|440:72|440:152,1,160,2|8,0:0|0:0,0:0:0
442,237,77749,2,0,P|440:312|372:352,1,160
356,264,78285,1,8,0:0:0
304,192,78464,1,0,0:0:0
256,120,78642,6,0,P|256:32,1,80,2|0,0:0|2:0,0:0:0
256,264,78999,2,0,P|256:352,1,80,8|0,0:0|2:0,0:0:0
208,192,79357,2,0,P|128:192,1,80,2|0,0:0|2:0,0:0:0
304,192,79714,2,0,P|384:192,1,80,8|0,0:0|2:0,0:0:0
256,192,80071,12,4,81499,0:0:0
