osu file format v11

[General]
AudioFilename: Moe.mp3
AudioLeadIn: 2000
PreviewTime: 23910
Countdown: 0
SampleSet: Normal
StackLeniency: 0.4
Mode: 0
LetterboxInBreaks: 0

[Editor]
DistanceSpacing: 1
BeatDivisor: 1
GridSize: 4

[Metadata]
Title:My Girl (Nightcore Mix)
TitleUnicode:My Girl (Nightcore Mix)
Artist:Bermuda Loverz
ArtistUnicode:Bermuda Loverz
Creator:Andrea
Version:Easy
Source:
Tags:Trance Remix osuplayer111
BeatmapID:217627
BeatmapSetID:77453

[Difficulty]
HPDrainRate:2
CircleSize:2
OverallDifficulty:2
ApproachRate:3
SliderMultiplier:1
SliderTickRate:1

[Events]
//Background and Video events
0,0,"BG.jpg"
//Break Periods
2,35985,40059
//Storyboard Layer 0 (Background)
//Storyboard Layer 1 (Fail)
//Storyboard Layer 2 (Pass)
//Storyboard Layer 3 (Foreground)
//Storyboard Sound Samples
//Background Colour Transformations
3,100,128,255,255

[TimingPoints]
71,357.142857142857,4,2,1,100,1,0
12928,-100,4,1,1,80,0,0
47213,-100,4,1,1,80,0,1
58642,-100,4,1,1,80,0,0
70070,-100,4,1,1,80,0,1
79356,-100,4,1,1,65,0,1
79535,-100,4,1,1,80,0,1
81499,-100,4,1,1,80,0,0

[Colours]
Combo1 : 255,98,21
Combo2 : 0,120,240
Combo3 : 255,26,26
Combo4 : 143,32,255

[HitObjects]
48,44,1499,1,2,0:0:0
48,340,2928,1,2,0:0:0
464,340,4356,1,2,0:0:0
464,44,5785,1,2,0:0:0
48,192,7213,5,2,0:0:0
464,192,8642,1,2,0:0:0
256,44,10070,1,2,0:0:0
256,340,11499,1,2,0:0:0
256,44,12928,5,4,0:0:0
184,116,13285,2,0,P|256:174|328:112,2,200,2|2|2,0:0|0:0|0:0,0:0:0
52,268,15428,5,2,0:0:0
120,344,15785,1,2,0:0:0
220,344,16142,2,0,P|320:344|320:344|396:280,2,200,2|2|2,0:0|0:0|0:0,0:0:0
176,148,18285,5,2,0:0:0
256,92,18642,1,2,0:0:0
336,148,18999,2,8,P|436:148|480:68,2,200
256,332,21142,6,8,P|188:332|188:332|132:296|132:296|64:296,3,200
40,88,23999,6,0,P|88:88|136:56,1,100,8|4,0:0|0:0,0:0:0
236,56,24713,2,8,P|336:56|336:56|420:120,1,200
304,284,26142,6,8,P|204:284|128:220,2,200
172,136,28285,1,8,0:0:0
72,308,28999,1,8,0:0:0
272,308,29713,5,8,0:0:0
348,244,30070,1,2,0:0:0
424,180,30428,2,8,P|424:80|344:28,2,200
256,72,32570,2,8,P|180:40|160:68|136:96|60:72,2,200
256,192,34356,12,2,35785,0:0:0
92,192,41499,5,2,0:0:0
256,76,42213,1,2,0:0:0
420,192,42928,1,2,0:0:0
256,308,43642,1,2,0:0:0
256,192,44356,12,2,45785,0:0:0
256,192,47213,5,4,0:0:0
184,124,47570,2,0,P|255:54|255:54|328:123,2,200,2|2|2,0:0|0:0|0:0,0:0:0
164,324,49713,5,2,0:0:0
256,364,50070,1,2,0:0:0
348,324,50428,2,0,P|412:248|412:248|412:144,1,200,2|2,0:0|0:0,0:0:0
232,56,51856,6,0,P|132:56|64:124,1,200,2|2,0:0|0:0,0:0:0
136,192,52928,1,2,0:0:0
64,261,53285,2,0,P|132:328|232:328,3,200,2|2|2|2,0:0|0:0|0:0|0:0,0:0:0
384,192,56142,5,2,0:0:0
256,44,56856,1,2,0:0:0
128,192,57570,1,2,0:0:0
256,340,58285,6,0,P|256:240,1,100,2|2,0:0|0:0,0:0:0
256,140,58999,1,8,0:0:0
156,312,59713,1,8,0:0:0
356,312,60428,1,8,0:0:0
256,140,61142,6,0,P|256:32,2,100,8|2|8,0:0|0:0|0:0,0:0:0
64,192,62570,1,8,0:0:0
256,244,63285,1,8,0:0:0
448,192,63999,5,8,0:0:0
384,116,64356,1,2,0:0:0
320,40,64713,2,8,P|220:40|156:112,2,200
448,192,66856,5,8,0:0:0
316,340,67570,2,8,P|216:340|216:340|136:280,3,200
80,192,70070,5,4,0:0:0
136,104,70428,2,8,P|216:44|216:44|316:44,3,200
476,168,73285,2,8,P|380:168|308:240,1,200
256,320,74356,1,2,0:0:0
202,237,74713,6,8,P|132:168|36:168,2,200
276,52,76856,1,8,0:0:0
376,52,77213,1,2,0:0:0
456,112,77570,1,8,0:0:0
400,304,78285,6,0,P|352:304|320:340,1,100,8|2,0:0|0:0,0:0:0
256,264,78999,1,8,0:0:0
192,340,79356,2,0,P|160:304|112:304,1,100,2|8,0:0|0:0,0:0:0
256,192,80070,12,4,81499,0:0:0
