osu file format v11

[General]
AudioFilename: Beridzebeth .mp3
AudioLeadIn: 2000
PreviewTime: 49795
Countdown: 0
SampleSet: Soft
StackLeniency: 0.7
Mode: 0
LetterboxInBreaks: 1

[Editor]
Bookmarks: 30078
DistanceSpacing: 1
BeatDivisor: 4
GridSize: 4

[Metadata]
Title:Seijin no Tou
TitleUnicode:聖人の塔
Artist:Beridzebeth
ArtistUnicode:Beridzebeth
Creator:Strawberry
Version:Normal
Source:beatmania IIDX 19 Lincle
Tags:iidx19 Flask raririn Firce777 mintong89 prastik dancefloor lincle kingdom battle track
BeatmapID:211619
BeatmapSetID:66968

[Difficulty]
HPDrainRate:4
CircleSize:3
OverallDifficulty:4
ApproachRate:5
SliderMultiplier:1.2
SliderTickRate:1

[Events]
//Background and Video events
0,0,"BG.jpg"
//Break Periods
2,79768,85791
//Storyboard Layer 0 (Background)
//Storyboard Layer 1 (Fail)
//Storyboard Layer 2 (Pass)
//Storyboard Layer 3 (Foreground)
//Storyboard Sound Samples
//Background Colour Transformations
3,100,163,162,255

[TimingPoints]
419,309.278350515464,4,2,0,100,1,0
419,-133.333333333333,4,2,0,60,0,0
10290,309.278350515464,4,2,0,60,1,0
10290,-133.333333333333,4,2,0,60,0,0
18949,-133.333333333333,4,2,1,60,0,0
20186,-133.333333333333,4,1,0,40,0,1
20341,-133.333333333333,4,1,0,40,0,0
20650,-133.333333333333,4,2,1,70,0,0
25135,-133.333333333333,4,1,0,40,0,1
25289,-133.333333333333,4,1,0,40,0,0
25599,-133.333333333333,4,2,1,70,0,0
30083,-133.333333333333,4,1,0,40,0,1
30238,-133.333333333333,4,1,0,40,0,0
30393,-133.333333333333,4,2,1,70,0,0
37815,-133.333333333333,4,1,0,40,0,0
39516,-133.333333333333,4,2,1,70,0,0
39980,-133.333333333333,4,2,1,70,0,1
40135,-133.333333333333,4,2,1,70,0,0
44929,-133.333333333333,4,1,0,40,0,1
45083,-133.333333333333,4,1,0,40,0,0
45393,-133.333333333333,4,2,1,70,0,0
49877,-133.333333333333,4,1,0,40,0,1
50032,-133.333333333333,4,1,0,40,0,0
50186,-133.333333333333,4,2,1,70,0,0
57609,-133.333333333333,4,1,0,40,0,0
59310,-133.333333333333,4,2,1,70,0,0
59774,-133.333333333333,4,1,0,50,0,0
69671,-133.333333333333,4,1,0,55,0,0
79568,-133.333333333333,4,2,1,70,0,0
89465,-133.333333333333,4,1,0,60,0,0
89774,-133.333333333333,4,2,1,70,0,0
104310,-133.333333333333,4,2,1,70,0,1
104465,-133.333333333333,4,2,1,70,0,0
106784,-133.333333333333,4,1,0,50,0,0
107248,-133.333333333333,4,1,0,55,0,0
107712,-133.333333333333,4,1,0,60,0,0
108021,-133.333333333333,4,2,1,70,0,0
108176,-133.333333333333,4,2,1,72,0,0
108331,-133.333333333333,4,2,1,75,0,0
108485,-133.333333333333,4,2,1,78,0,0
108640,-133.333333333333,4,2,1,80,0,0
108795,-133.333333333333,4,2,1,82,0,0
108949,-133.333333333333,4,2,1,85,0,0
109104,-133.333333333333,4,2,1,88,0,0
109258,-133.333333333333,4,2,1,70,0,1
109413,-133.333333333333,4,2,1,70,0,0
112351,-133.333333333333,4,2,1,75,0,0
112970,-133.333333333333,4,2,1,80,0,0
113124,-133.333333333333,4,2,1,82,0,0
113279,-133.333333333333,4,2,1,85,0,0
113434,-133.333333333333,4,2,1,88,0,0
113588,-133.333333333333,4,2,1,90,0,0
113743,-133.333333333333,4,2,1,92,0,0
113898,-133.333333333333,4,2,1,95,0,0
114052,-133.333333333333,4,2,1,98,0,0
114207,-133.333333333333,4,2,1,70,0,1
114362,-133.333333333333,4,2,1,70,0,0

[Colours]
Combo1 : 255,255,0
Combo2 : 10,190,104
Combo3 : 43,132,221
Combo4 : 146,50,241

[HitObjects]
112,80,419,2,0,P|64:148|116:232,1,180.000006866455,4|2,0:3|0:3,0:0:0
160,156,1346,1,0,0:0:0
220,224,1656,2,0,P|260:145|212:77,1,180.000006866455,2|2,0:0|0:3,0:0:0
128,44,2583,1,0,0:0:0
47,88,2893,6,0,P|67:136|119:136|119:136|107:240,1,180.000006866455,4|2,3:0|3:0,0:0:0
156,300,3821,1,0,0:0:0
203,225,4130,2,0,P|192:138|192:138|244:138|264:90,1,180.000006866455,0|2,0:0|0:3,0:0:0
188,44,5058,1,0,0:0:0
264,92,5367,6,0,P|296:128|296:128|376:148|368:232,1,180.000006866455,4|2,0:3|0:3,0:0:0
280,224,6295,1,0,0:0:0
192,224,6604,2,0,P|185:149|265:129|265:129|297:93,1,180.000006866455,4|2,0:3|0:3,0:0:0
360,28,7532,1,0,0:0:0
448,44,7841,6,0,P|468:104|420:144|420:144|460:168|456:212,1,180.000006866455,4|2,0:3|0:3,0:0:0
368,216,8769,1,0,0:0:0
332,292,9078,2,0,P|296:280|284:244|284:244|236:300|172:276,1,180.000006866455,4|2,0:3|0:3,0:0:0
208,192,10006,1,0,0:0:0
256,116,10290,6,0,P|188:76|136:136|136:136|76:136,1,180.000006866455,8|2,0:3|0:3,0:0:0
16,192,11217,1,0,0:0:0
90,248,11527,2,0,P|136:248|136:248|188:308|256:268,1,180.000006866455,8|2,0:3|0:3,0:0:0
316,200,12454,1,0,0:0:0
399,237,12764,6,0,P|427:201|407:157|407:157|459:177|503:137,1,180.000006866455,8|2,0:3|0:3,0:0:0
440,72,13692,1,0,0:0:0
361,27,14001,2,0,P|333:63|353:107|353:107|301:87|257:127,1,180.000006866455,8|2,0:3|0:3,0:0:0
192,172,14929,1,0,0:0:0
108,208,15238,6,0,P|136:272|208:264|208:264|176:320,1,180.000006866455,8|2,0:3|0:3,0:0:0
256,360,16166,1,0,0:0:0
331,312,16475,2,0,P|304:264|304:264|376:272|404:208,1,180.000006866455,8|2,0:3|0:3,0:0:0
320,172,17403,1,0,0:0:0
352,88,17712,6,0,P|280:88|232:176,1,180.000006866455,8|2,0:3|0:3,0:0:0
236,264,18640,1,0,0:0:0
163,329,18949,6,0,P|159:377,2,45.0000017166138,8|2|0,0:0|0:0|0:0,0:0:0
76,304,19568,2,0,P|55:347,2,45.0000017166138,2|2|2,0:0|0:0|0:0,0:0:0
16,232,20186,6,0,P|60:188|52:120,2,135.000005149841,4|8|8,0:2|0:0|0:0,0:0:0
76,304,21424,2,0,P|104:264|188:264,2,135.000005149841,0|8|8,0:0|0:0|0:0,0:0:0
80,212,22661,6,0,P|152:336,2,135.000005149841,0|8|8,0:0|0:0|0:0,0:0:0
160,168,23898,2,0,P|231:292,2,135.000005149841,0|8|8,0:0|0:0|0:0,0:0:0
152,80,25135,6,0,P|212:72|236:128|236:128|256:160,2,135.000005149841,4|8|8,0:2|0:0|0:0,0:0:0
60,84,26372,2,0,P|88:156|156:172,2,135.000005149841,0|8|8,0:0|0:0|0:0,0:0:0
152,80,27609,6,0,P|224:80|220:36|280:24,2,135.000005149841,0|8|8,0:0|0:0|0:0,0:0:0
152,172,28846,2,0,P|200:180|248:152|248:152|264:192,1,135.000005149841,0|8,0:0|0:0,0:0:0
272,228,29465,1,8,0:0:0
292,316,29774,1,8,0:0:0
220,368,30083,6,2,P|184:356|188:328|152:312,1,90.0000034332277,4|8,0:1|0:0,0:0:0
80,256,30702,2,0,P|33:240,2,45.0000017166138,0|0|8,0:0|0:0|0:0,0:0:0
136,184,31320,2,0,P|204:120,1,90.0000034332277,0|8,0:0|0:0,0:0:0
292,124,31939,2,0,P|357:185,1,90.0000034332277,0|8,0:0|0:0,0:0:0
440,224,32558,6,0,P|496:232,2,45.0000017166138,0|0|8,0:0|0:0|0:0,0:0:0
408,308,33176,2,0,P|452:342,2,45.0000017166138,0|0|8,0:0|0:0|0:0,0:0:0
320,328,33795,1,2,0:0:0
232,308,34104,1,8,0:0:0
248,220,34413,1,2,0:0:0
336,240,34722,1,8,0:0:0
416,196,35032,6,0,P|460:188|488:144,1,90.0000034332277,6|8,0:1|0:0,0:0:0
480,64,35650,2,0,P|451:29|398:27,1,90.0000034332277,0|8,0:0|0:0,0:0:0
376,108,36269,2,0,P|284:108,1,90.0000034332277,0|8,0:0|0:0,0:0:0
196,124,36887,2,0,P|152:152,2,45.0000017166138,0|0|8,0:0|0:0|0:0,0:0:0
256,192,37506,5,0,0:0:0
332,236,37815,2,2,P|256:280|180:236,1,180.000006866455,4|0,0:0|0:0,0:0:0
180,148,38743,2,2,P|256:104|332:148,1,180.000006866455,4|0,0:0|0:0,0:0:0
412,180,39671,2,0,P|440:224,2,45.0000017166138,8|8|4,0:0|0:0|0:2,0:0:0
488,124,40290,5,0,0:0:0
436,48,40599,1,0,0:0:0
348,44,40908,1,8,0:0:0
288,112,41217,2,0,P|232:132|224:208,2,135.000005149841,0|8|8,0:0|0:0|0:0,0:0:0
312,200,42454,6,0,P|357:238|427:207,2,135.000005149841,0|8|8,0:0|0:0|0:0,0:0:0
380,140,43692,2,0,P|390:81|328:36,2,135.000005149841,0|8|8,0:0|0:0|0:0,0:0:0
296,108,44929,6,2,P|240:120|252:192|252:192|252:232,2,135.000005149841,4|8|8,0:1|0:0|0:0,0:0:0
228,48,46166,2,0,P|184:88|168:168,2,135.000005149841,0|8|8,0:0|0:0|0:0,0:0:0
320,48,47403,6,0,P|364:88|380:168,2,135.000005149841,0|8|8,0:0|0:0|0:0,0:0:0
256,112,48640,2,0,P|312:124|300:196|300:196|300:236,2,135.000005149841,0|8|8,0:0|0:0|0:0,0:0:0
168,120,49877,6,0,P|124:116|88:144,1,90.0000034332277,6|0,0:1|0:0,0:0:0
40,216,50496,2,0,P|0:244,2,45.0000017166138,0|0|8,0:0|0:0|0:0,0:0:0
120,256,51114,2,0,P|164:260|200:232,1,90.0000034332277,0|8,0:0|0:0,0:0:0
288,236,51733,2,0,P|322:262|366:258,1,90.0000034332277,0|8,0:0|0:0,0:0:0
456,236,52351,6,0,P|496:264,2,45.0000017166138,0|0|8,0:0|0:0|0:0,0:0:0
456,148,52970,2,0,P|496:120,2,45.0000017166138,0|0|8,0:0|0:0|0:0,0:0:0
368,140,53588,1,2,0:0:0
300,80,53898,1,8,0:0:0
212,80,54207,1,2,0:0:0
144,140,54516,1,8,0:0:0
136,228,54826,6,0,P|144:276|120:312,1,90.0000034332277,6|8,0:1|0:0,0:0:0
32,296,55444,2,0,P|24:248|48:212,1,90.0000034332277,0|8,0:0|0:0,0:0:0
100,144,56063,2,0,P|120:110|112:62,1,90.0000034332277,0|8,0:0|0:0,0:0:0
200,40,56681,2,0,P|218:74|264:91,1,90.0000034332277,0|8,0:0|0:0,0:0:0
352,80,57300,5,0,0:0:0
440,68,57609,2,2,P|452:128|396:156|396:156|396:236,1,180.000006866455,0|0,0:1|0:0,0:0:0
304,228,58537,2,2,P|304:155|304:155|248:127|260:67,1,180.000006866455,0|0,0:1|0:0,0:0:0
292,36,59310,2,0,P|252:48|200:40,1,90.0000034332277,8|8,0:0|0:0,0:0:0
160,28,59774,5,2,0:1:0
128,112,60083,5,0,0:1:0
128,112,60238,1,2,0:1:0
70,180,60547,5,0,0:1:0
70,180,60702,1,2,0:1:0
117,257,61011,5,0,0:1:0
117,257,61166,1,2,0:1:0
205,235,61475,5,0,0:1:0
205,235,61630,1,2,0:1:0
211,145,61939,5,2,0:1:0
211,145,62094,1,2,0:1:0
301,145,62403,5,0,0:1:0
301,145,62558,1,2,0:1:0
307,235,62867,5,0,0:1:0
307,235,63021,1,2,0:1:0
395,257,63331,5,0,0:1:0
395,257,63485,1,2,0:1:0
442,180,63795,5,2,0:1:0
442,180,63949,1,2,0:1:0
384,112,64259,5,2,0:1:0
384,112,64413,1,2,0:1:0
376,24,64722,5,2,0:1:0
300,76,65032,6,0,P|256:60,1,45.0000017166138,0|2,0:1|0:1,0:0:0
264,152,65496,6,0,P|220:136,1,45.0000017166138,0|2,0:1|0:1,0:0:0
232,228,65960,6,2,P|188:212,1,45.0000017166138,0|2,0:1|0:1,0:3:0
196,304,66424,6,0,P|152:288,1,45.0000017166138,0|2,0:1|0:1,0:1:0
160,380,66887,6,0,P|116:364,1,45.0000017166138,2|2,0:1|0:1,0:0:0
52,304,67351,6,0,P|96:320,1,45.0000017166138,0|2,0:1|0:1,0:0:0
84,228,67815,6,0,P|128:244,1,45.0000017166138,0|2,0:1|0:1,0:0:0
116,152,68279,6,0,P|160:168,1,45.0000017166138,0|2,0:1|0:1,0:0:0
152,76,68743,6,0,P|200:96,1,45.0000017166138,2|2,0:0|0:0,0:0:0
196,4,69207,6,0,P|244:24,1,45.0000017166138,2|2,0:0|0:0,0:0:0
252,112,69671,5,2,0:1:0
316,176,69980,5,2,0:1:0
316,176,70135,1,2,0:1:0
407,171,70444,5,2,0:1:0
407,171,70599,1,2,0:1:0
451,250,70908,5,2,0:1:0
451,250,71063,1,2,0:1:0
388,316,71372,5,2,0:1:0
388,316,71527,1,2,0:1:0
307,276,71836,5,0,0:1:0
307,276,71991,1,2,0:1:0
205,276,72300,5,0,0:1:0
205,276,72454,1,2,0:1:0
124,316,72764,5,0,0:1:0
124,316,72918,1,2,0:1:0
61,250,73228,5,0,0:1:0
61,250,73382,1,2,0:1:0
105,171,73692,5,0,0:1:0
105,171,73846,1,2,0:1:0
192,188,74155,5,2,0:1:0
192,188,74310,1,2,0:1:0
204,276,74619,5,2,0:1:0
204,276,74929,6,2,P|212:332,1,45.0000017166138,0|2,0:1|0:1,0:0:0
276,260,75393,6,2,P|284:316,1,45.0000017166138,2|2,0:1|0:1,0:0:0
348,240,75857,6,2,P|356:296,1,45.0000017166138,0|2,0:1|0:1,0:0:0
420,224,76320,6,2,P|428:280,1,45.0000017166138,2|2,0:1|0:1,0:0:0
492,204,76784,6,2,P|500:260,1,45.0000017166138,0|2,0:1|0:1,0:0:0
484,160,77248,6,2,P|477:115,1,45.0000017166138,0|2,0:1|0:1,0:0:0
412,176,77712,6,2,P|405:131,1,45.0000017166138,2|2,0:1|0:1,0:0:0
336,188,78176,6,0,P|328:136,1,45.0000017166138,0|2,0:0|0:0,0:0:0
264,204,78640,6,0,P|256:148,1,45.0000017166138,0|2,0:0|0:0,0:0:0
196,228,79104,5,2,0:1:0
196,228,79259,6,2,P|184:192|136:200,1,90.0000034332277,2|4,0:1|0:1,0:0:0
256,192,86991,12,2,88846,0:3:0
108,52,89465,6,2,P|72:76|64:136,1,90.0000034332277,4|8,0:1|0:0,0:0:0
68,164,89929,2,0,P|88:228|68:296,1,135.000005149841,0|8,0:0|0:0,0:0:0
140,348,90702,2,0,P|240:348,1,90.0000034332277,0|8,0:0|0:0,0:0:0
276,348,91166,2,0,P|332:348|332:348|368:336|368:336|412:336,1,135.000005149841,0|8,0:0|0:0,0:0:0
496,364,91939,6,0,P|500:320|480:280,1,90.0000034332277,0|8,0:0|0:0,0:0:0
456,240,92403,2,0,P|432:180|464:112,1,135.000005149841,0|8,0:0|0:0,0:0:0
384,64,93176,2,0,P|284:64,1,90.0000034332277,0|8,0:0|0:0,0:0:0
248,64,93640,2,0,P|192:64|192:64|156:76|156:76|112:76,1,135.000005149841,0|8,0:0|0:0,0:0:0
104,164,94413,6,0,P|124:208|116:252,1,90.0000034332277,0|8,0:0|0:0,0:0:0
80,272,94877,2,0,P|156:244|208:276,1,135.000005149841,0|8,0:0|0:0,0:0:0
256,336,95650,2,0,P|300:352|344:344,1,90.0000034332277,0|8,0:0|0:0,0:0:0
384,328,96114,2,0,P|444:300|516:324,1,135.000005149841,0|8,0:0|0:0,0:0:0
484,232,96887,6,0,P|464:188|472:144,1,90.0000034332277,0|8,0:0|0:0,0:0:0
508,124,97351,2,0,P|432:152|380:120,1,135.000005149841,0|8,0:0|0:0,0:0:0
332,60,98125,6,0,P|280:48,2,45.0000017166138,0|2|0,0:0|0:0|0:0,0:0:0
280,132,98743,2,0,P|248:168,2,45.0000017166138,2|2|2,0:0|0:0|0:0,0:0:0
200,88,99362,6,0,P|168:136|172:212,1,135.000005149841,4|4,0:0|0:0,0:0:0
280,132,100290,2,0,P|291:188|347:239,1,135.000005149841,4|4,0:0|0:0,0:0:0
364,104,101217,2,0,P|412:136|487:132,1,135.000005149841,4|4,0:0|0:0,0:0:0
472,268,102145,2,0,P|424:236|348:240,1,135.000005149841,4|4,0:0|0:0,0:0:0
252,148,103073,2,0,P|240:91|184:40,1,135.000005149841,4|4,0:0|0:0,0:0:0
140,168,104001,1,4,0:0:0
212,220,104310,6,0,P|268:228,2,45.0000017166138
208,312,104929,2,0,P|160:336,1,45.0000017166138,0|0,0:1|0:1,0:0:0
80,324,105393,2,2,P|28:324,1,45.0000017166138
76,244,105857,2,0,P|24:244,1,45.0000017166138,2|2,0:0|0:0,0:0:0
68,164,106320,2,0,P|16:164,1,45.0000017166138,2|2,0:0|0:0,0:0:0
60,84,106784,6,0,P|108:84,1,45.0000017166138,2|2,0:1|0:1,0:1:0
196,72,107248,2,0,P|244:72,1,45.0000017166138,2|2,0:1|0:1,0:1:0
332,80,107712,2,0,P|380:80,1,45.0000017166138,2|2,0:1|0:1,0:1:0
420,88,108021,6,2,P|420:100|420:100|424:108|424:108|416:108|416:108|424:116|424:116|416:116|416:116|424:124|424:124|416:124|416:124|424:132|424:132|416:132|416:132|424:140|424:140|416:140|416:140|424:148|424:148|416:148|416:148|424:156|424:156|416:156|416:156|424:164|424:164|416:164|416:164|424:172|424:172|416:172|416:172|416:180|416:180|424:180|424:180|424:188|424:188|416:188|416:188|416:196|416:196|424:196|424:196|416:204|416:204|424:204|424:204|416:212|416:212|424:212|424:212|416:220|416:220|424:220|424:220|416:228|416:228|424:228|424:228|416:236|416:236|424:236|424:236,1,315.000012016297,4|2,0:0|0:0,0:1:0
256,192,109259,12,2,114207,0:0:0
