osu file format v11

[General]
AudioFilename: Beridzebeth .mp3
AudioLeadIn: 2000
PreviewTime: 49795
Countdown: 0
SampleSet: Soft
StackLeniency: 0.7
Mode: 0
LetterboxInBreaks: 1

[Editor]
DistanceSpacing: 1.2
BeatDivisor: 6
GridSize: 4

[Metadata]
Title:Seijin no Tou
TitleUnicode:聖人の塔
Artist:Beridzebeth
ArtistUnicode:Beridzebeth
Creator:Strawberry
Version:Another
Source:beatmania IIDX 19 Lincle
Tags:iidx19 Flask raririn Firce777 mintong89 prastik dancefloor lincle kingdom battle track
BeatmapID:194953
BeatmapSetID:66968

[Difficulty]
HPDrainRate:6
CircleSize:4
OverallDifficulty:7
ApproachRate:9
SliderMultiplier:1.8
SliderTickRate:2

[Events]
//Background and Video events
0,0,"BG.jpg"
//Break Periods
//Storyboard Layer 0 (Background)
//Storyboard Layer 1 (Fail)
//Storyboard Layer 2 (Pass)
//Storyboard Layer 3 (Foreground)
//Storyboard Sound Samples
//Background Colour Transformations
3,100,163,162,255

[TimingPoints]
419,309.278350515464,4,2,0,100,1,0
419,-133.333333333333,4,2,0,60,0,0
10290,309.278350515464,4,2,0,60,1,0
10290,-133.333333333333,4,2,0,60,0,0
18949,-100,4,2,0,60,0,0
20186,-100,4,2,1,70,0,1
20341,-100,4,2,1,70,0,0
25135,-100,4,2,1,70,0,1
25289,-100,4,2,1,70,0,0
35960,-83.3333333333333,4,2,1,70,0,0
36269,-100,4,2,1,70,0,0
37197,-83.3333333333333,4,2,1,70,0,0
37661,-100,4,2,1,70,0,0
39980,-100,4,2,1,70,0,1
40135,-100,4,2,1,70,0,0
44929,-100,4,2,1,70,0,1
45083,-100,4,2,1,70,0,0
49877,-100,4,2,1,70,0,1
50032,-100,4,2,1,70,0,0
55753,-83.3333333333333,4,2,1,70,0,0
56063,-100,4,2,1,70,0,0
56990,-83.3333333333333,4,2,1,70,0,0
57454,-100,4,2,1,70,0,0
88846,-83.3333333333333,4,2,1,70,0,0
99362,-100,4,2,1,70,0,0
104310,-100,4,2,1,70,0,1
104465,-100,4,2,1,70,0,0
108176,-100,4,2,1,72,0,0
108331,-100,4,2,1,75,0,0
108485,-100,4,2,1,78,0,0
108640,-100,4,2,1,80,0,0
108795,-100,4,2,1,82,0,0
108949,-100,4,2,1,85,0,0
109104,-100,4,2,1,88,0,0
109258,-100,4,2,1,70,0,1
109413,-100,4,2,1,70,0,0
112351,-100,4,2,1,75,0,0
112970,-100,4,2,1,80,0,0
113124,-100,4,2,1,82,0,0
113279,-100,4,2,1,85,0,0
113434,-100,4,2,1,88,0,0
113588,-100,4,2,1,90,0,0
113743,-100,4,2,1,92,0,0
113898,-100,4,2,1,95,0,0
114052,-100,4,2,1,98,0,0
114207,-100,4,2,1,70,0,1
114362,-100,4,2,1,70,0,0

[Colours]
Combo1 : 255,255,0
Combo2 : 10,190,104
Combo3 : 43,132,221
Combo4 : 146,50,241

[HitObjects]
88,168,419,2,0,P|120:112|192:104,1,135.000005149842,4|0,0:3|3:0,0:0:0
244,156,882,1,0,0:0:0
300,216,1037,2,0,P|352:264|432:256,1,135.000005149842,2|0,0:3|0:0,0:0:0
388,164,1501,1,0,0:0:0
300,216,1656,2,0,P|244:256,1,67.5000025749208,2|0,0:0|0:0,0:0:0
168,228,1965,2,0,P|112:268,1,67.5000025749208,2|0,0:0|0:0,0:0:0
40,312,2274,1,2,0:3:0
108,168,2429,1,0,0:0:0
48,228,2583,1,0,0:0:0
188,152,2738,1,0,0:0:0
268,172,2893,6,0,P|340:168|400:128,1,135.000005149842,4|0,0:3|3:0,0:0:0
432,64,3357,1,0,0:0:0
464,140,3511,2,0,P|492:208,1,67.5000025749208,2|0,0:3|0:0,0:0:0
460,280,3821,1,0,0:0:0
492,352,3975,1,0,0:0:0
460,280,4130,6,0,P|396:256,1,67.5000025749208,2|0,0:0|0:0,0:0:0
268,284,4439,1,2,0:0:0
324,224,4594,1,0,0:0:0
268,284,4748,6,0,P|204:260,1,67.5000025749208,2|0,0:3|0:0,0:0:0
132,228,5058,1,2,0:0:0
76,288,5212,1,0,0:0:0
148,324,5367,6,0,P|192:280|220:212,1,135.000005149842,4|0,0:3|0:0,0:0:0
224,132,5831,1,0,0:0:0
196,56,5986,2,0,P|264:28,1,67.5000025749208,2|0,0:3|0:0,0:0:0
112,32,6295,2,0,P|49:57,1,67.5000025749208
24,136,6604,1,2,0:0:0
92,184,6759,1,0,0:0:0
96,316,6913,1,2,0:0:0
144,248,7068,1,0,0:0:0
216,212,7223,2,0,P|252:196|279:192,1,67.5000025749208,2|0,0:3|0:0,0:0:0
415,212,7532,2,0,P|379:228|352:232,1,67.5000025749208
279,192,7841,6,0,P|264:128|288:60,1,135.000005149842,4|0,0:3|0:0,0:0:0
356,20,8305,1,0,0:0:0
200,88,8460,2,0,P|168:104|128:108,1,67.5000025749208,2|0,0:3|0:0,0:0:0
56,104,8769,2,0,P|52:144|60:176,1,67.5000025749208
140,200,9078,1,2,0:0:0
76,248,9233,1,0,0:0:0
9,374,9388,2,0,P|20:344|40:316,1,67.5000025749208,2|0,0:0|0:0,0:0:0
152,276,9697,1,0,0:0:0
212,332,9851,1,0,0:0:0
288,300,10006,2,0,P|352:272,1,67.5000025749208,0|0,0:0|0:0,0:0:0
484,216,10290,6,0,P|425:139|327:168,1,202.500007724762,4|4,0:3|0:3,0:0:0
276,216,10908,2,0,P|148:168,1,135.000005149842,0|0,3:0|0:0,0:0:0
88,216,11372,1,2,0:0:0
76,136,11527,1,0,0:0:0
160,258,11681,2,0,P|229:283,1,67.5000025749208,4|0,0:3|0:0,0:0:0
248,352,11991,1,0,0:0:0
312,300,12145,2,0,P|340:240|312:180,1,135.000005149842,0|0,0:0|3:0,0:0:0
220,48,12764,6,0,P|179:139|237:212,1,202.500007724762,4|4,0:3|0:3,0:0:0
313,181,13382,2,0,P|376:176|416:232,1,135.000005149842,0|0,3:0|0:0,0:0:0
336,332,13846,1,2,0:0:0
416,312,14001,1,0,0:0:0
296,260,14155,2,0,P|232:232,1,67.5000025749208,4|0,0:3|0:0,0:0:0
164,196,14465,2,0,P|144:264|95:302,1,135.000005149842,4|0,0:3|0:0,0:0:0
76,292,14851,1,0,0:0:0
56,284,14929,2,0,P|43:236|43:236|65:198|56:148,1,135.000005149842,0|4,0:0|0:3,0:0:0
56,283,15547,5,0,0:0:0
164,196,15702,2,0,P|228:168|296:172,1,135.000005149842,4|0,0:3|0:0,0:0:0
364,220,16166,1,0,0:0:0
284,88,16320,1,0,0:3:0
256,80,16630,5,4,0:3:0
228,72,16939,5,4,0:3:0
152,48,17094,2,0,P|132:80|128:112,1,67.5000025749208
40,172,17403,2,0,P|48:208|68:234,1,67.5000025749208,0|2,0:0|0:0,0:0:0
168,272,17712,6,0,P|232:252|300:272,1,135.000005149842,4|0,0:3|3:0,0:0:0
372,344,18176,2,0,P|424:304|440:232,1,135.000005149842,4|0,0:3|3:0,0:0:0
416,148,18640,2,0,P|461:98,1,67.5000025749208,4|0,0:3|0:0,0:0:0
311,69,18949,6,0,P|296:112,3,45
256,132,19259,2,0,P|240:174,3,45
208,204,19568,1,2,0:0:0
200,228,19645,1,0,0:0:0
192,252,19722,1,2,0:0:0
184,276,19800,1,0,0:0:0
176,300,19877,1,2,0:0:0
124,292,19954,1,0,0:0:0
81,261,20032,1,2,0:0:0
72,210,20109,1,0,0:0:0
88,164,20186,6,0,P|44:156,3,45,4|0|0|0,0:0|0:0|0:0|0:0,0:0:0
36,136,20496,2,0,P|0:96|16:40|16:40,1,90,4|10,0:0|0:0,0:0:0
36,56,20728,1,0,0:0:0
56,60,20805,2,0,P|112:72,3,45,2|0|8|0,0:0|0:0|0:0|0:0,0:0:0
128,76,21114,1,0,0:0:0
156,76,21192,1,0,0:0:0
184,72,21269,1,10,0:0:0
208,64,21346,1,0,0:0:0
228,48,21424,5,0,0:0:0
248,32,21501,1,0,0:0:0
264,12,21578,2,0,P|308:32|324:72,1,90,8|0,0:0|0:0,0:0:0
348,272,21887,2,0,P|304:252|288:212,2,90,0|8|0,0:0|0:0|0:0,0:0:0
376,264,22274,1,0,0:0:0
396,248,22351,1,2,0:0:0
408,224,22429,1,0,0:0:0
412,196,22506,1,2,0:0:0
408,168,22583,1,0,0:0:0
396,144,22661,5,8,0:0:0
376,124,22738,1,0,0:0:0
352,112,22815,1,0,0:0:0
324,108,22893,1,0,0:0:0
296,108,22970,1,2,0:0:0
272,120,23047,1,0,0:0:0
252,136,23125,1,8,0:0:0
240,160,23202,1,0,0:0:0
236,188,23279,6,0,P|228:236,3,45,0|0|8|0,0:0|0:0|0:0|0:0,0:0:0
204,240,23588,2,0,P|196:288,3,45,0|0|8|0,0:0|0:0|0:0|0:0,0:0:0
176,300,23898,1,0,0:0:0
168,328,23975,1,0,0:0:0
160,356,24052,1,8,0:0:0
56,268,24207,1,8,0:0:0
88,136,24362,2,0,P|116:44,1,90,0|2,0:0|0:0,0:0:0
304,72,24671,6,0,P|256:88,5,45,0|0|2|0|0|0,0:0|0:0|0:0|0:0|0:0|0:0,0:0:0
244,108,25135,2,0,P|236:152|264:196,1,90,6|0,0:0|0:0,0:0:0
272,200,25367,1,0,0:0:0
288,208,25444,2,0,P|308:246|300:290,1,90,4|0,0:0|0:0,0:0:0
272,292,25676,1,0,0:0:0
248,300,25753,1,2,0:0:0
228,316,25831,1,0,0:0:0
212,340,25908,1,2,0:0:0
176,232,26063,5,0,0:0:0
168,208,26140,1,0,0:0:0
160,184,26217,1,2,0:0:0
152,160,26295,1,0,0:0:0
144,136,26372,2,0,P|128:92,2,45
76,220,26681,1,0,0:0:0
68,196,26759,1,0,0:0:0
60,172,26836,2,0,P|32:260,2,90
52,148,27222,1,0,0:0:0
44,124,27300,1,0,0:0:0
112,52,27454,6,0,P|96:8,5,45,0|0|2|0|2|0,0:0|0:0|0:0|0:0|0:0|0:0,0:0:0
212,64,28073,5,0,0:0:0
236,76,28150,1,0,0:0:0
264,80,28228,1,2,0:0:0
292,80,28305,1,0,0:0:0
316,72,28382,1,0,0:0:0
340,64,28460,1,0,0:0:0
364,76,28537,1,0,0:0:0
376,100,28614,1,0,0:0:0
372,128,28692,2,0,P|368:172,3,45
348,192,29001,5,0,0:0:0
344,220,29078,1,0,0:0:0
340,248,29155,2,0,P|336:296,1,45
232,248,29310,5,0,0:0:0
228,276,29387,1,0,0:0:0
224,304,29465,2,0,P|220:352,1,45
132,208,29619,5,0,0:0:0
116,184,29697,1,0,0:0:0
104,160,29774,1,2,0:0:0
120,140,29851,1,0,0:0:0
140,120,29929,1,2,0:0:0
160,100,30006,1,0,0:0:0
180,80,30083,2,0,P|224:156|224:156|320:156,1,180,2|4,0:0|0:0,0:0:0
432,88,30547,5,8,0:0:0
468,88,30625,1,2,0:0:0
504,88,30702,1,0,0:0:0
376,244,30857,5,8,0:0:0
412,244,30934,1,2,0:0:0
448,244,31011,1,6,0:0:0
440,268,31088,1,0,0:0:0
432,292,31166,1,10,0:0:0
424,316,31243,1,0,0:0:0
416,340,31320,2,0,P|320:340|320:340|288:308|288:308|236:308,1,180,0|4,0:0|0:0,0:0:0
228,288,31707,1,0,0:0:0
216,264,31784,1,10,0:0:0
224,236,31862,1,0,0:0:0
244,216,31939,2,0,P|272:176|268:136,1,90,2|8,0:0|0:0,0:0:0
252,116,32171,1,0,0:0:0
232,96,32248,2,0,P|184:96,3,45,6|0|0|0,0:0|0:0|0:0|0:0,0:0:0
160,84,32558,6,0,P|132:124|136:164,1,90,2|0,0:0|0:0,0:0:0
152,184,32790,1,0,0:0:0
168,204,32867,2,0,P|168:260,1,45,6|0,0:0|0:0,0:0:0
192,264,33021,2,0,P|192:320,1,45,10|0,0:0|0:0,0:0:0
208,332,33176,1,0,0:0:0
236,328,33253,1,0,0:0:0
264,324,33331,1,8,0:0:0
292,320,33408,1,0,0:0:0
304,296,33485,1,6,0:0:0
332,292,33563,1,0,0:0:0
360,288,33640,1,10,0:0:0
388,284,33717,1,0,0:0:0
416,280,33795,6,0,P|512:268,1,90,0|8,0:0|0:0,0:0:0
372,196,34104,1,6,0:0:0
232,140,34259,1,8,0:0:0
92,80,34413,6,0,P|-4:92,2,90,2|10|4,0:0|0:0|0:0,0:0:0
244,60,34877,1,8,0:0:0
396,48,35032,6,0,P|412:96|396:132,1,90,10|0,0:0|0:0,0:0:0
360,156,35264,1,0,0:0:0
316,164,35341,1,4,0:0:0
284,196,35418,1,0,0:0:0
272,240,35496,1,8,0:0:0
360,316,35650,1,0,0:0:0
384,276,35728,1,0,0:0:0
424,252,35805,1,8,0:0:0
468,248,35882,1,0,0:0:0
512,260,35960,6,0,P|492:208,1,53.9999983520508,4|0,0:0|0:0,0:0:0
448,180,36114,2,0,P|428:128,1,53.9999983520508,8|0,0:0|0:0,0:0:0
392,100,36269,6,0,P|344:104|304:80,1,90,2|8,0:0|0:0,0:0:0
280,48,36501,1,0,0:0:0
236,60,36578,1,6,0:0:0
192,76,36655,1,0,0:0:0
148,92,36733,1,10,0:0:0
64,220,36887,1,0,0:0:0
108,204,36965,1,0,0:0:0
152,188,37042,1,0,0:0:0
196,176,37119,1,0,0:0:0
240,160,37197,6,0,P|296:136,1,53.9999983520508,4|0,0:0|0:0,0:0:0
344,148,37351,2,0,P|400:124,1,53.9999983520508,0|0,0:0|0:0,0:0:0
448,128,37506,6,0,P|480:176|476:224,1,107.999996704102,8|0,0:0|0:0,0:0:0
464,248,37738,1,0,0:0:0
440,264,37815,1,6,0:0:0
412,264,37893,1,0,0:0:0
388,252,37970,1,8,0:0:0
368,232,38047,1,0,0:0:0
344,220,38125,1,2,0:0:0
316,220,38202,1,0,0:0:0
292,232,38279,1,10,0:0:0
272,252,38357,1,0,0:0:0
256,276,38434,2,0,P|232:316,3,45,4|0|8|0,0:0|0:0|0:0|0:0,0:0:0
212,332,38743,5,2,0:0:0
184,336,38820,1,0,0:0:0
160,324,38898,1,2,0:0:0
144,304,38975,1,0,0:0:0
140,276,39052,1,6,0:0:0
144,248,39130,1,0,0:0:0
156,224,39207,1,8,0:0:0
172,204,39284,1,0,0:0:0
196,193,39362,5,2,0:0:0
216,180,39439,1,0,0:0:0
224,156,39516,1,6,0:0:0
218,129,39594,1,0,0:0:0
196,112,39671,1,6,0:0:0
172,104,39748,1,0,0:0:0
144,108,39826,1,2,0:0:0
120,124,39903,1,0,0:0:0
104,144,39980,6,0,P|32:112|28:20,1,180,10|4,0:0|0:0,0:0:0
256,40,40444,1,8,0:0:0
439,152,40599,2,0,P|420:188|376:208,1,90,0|8,0:0|0:0,0:0:0
264,232,40908,2,0,P|280:280|320:300,1,90,0|8,0:0|0:0,0:0:0
292,136,41217,2,0,P|192:136,1,90,0|8,0:0|0:0,0:0:0
48,232,41527,2,0,P|138:232,1,90,0|4,0:0|0:0,0:0:0
264,232,41836,1,8,0:0:0
376,208,41991,1,4,0:0:0
292,136,42145,1,8,0:0:0
404,112,42300,1,4,0:0:0
316,36,42454,6,0,P|232:56|196:140,1,180,8|4,0:0|0:0,0:0:0
404,112,42918,1,8,0:0:0
140,76,43073,2,0,P|160:120|196:136,1,90,0|8,0:0|0:0,0:0:0
376,208,43382,2,0,P|356:252|320:268,1,90,0|8,0:0|0:0,0:0:0
48,292,43692,2,0,P|96:280|136:280,1,90,0|8,0:0|0:0,0:0:0
164,284,43924,1,0,0:0:0
192,292,44001,2,0,P|240:372,2,90,0|8|0,0:0|0:0|0:0,0:0:0
112,128,44465,1,8,0:0:0
228,168,44619,1,0,0:0:0
244,192,44697,1,0,0:0:0
260,216,44774,1,8,0:0:0
276,240,44851,1,0,0:0:0
292,264,44929,6,0,P|316:304|316:304|404:304,1,135,6|0,0:0|0:0,0:0:0
424,324,45238,2,0,P|516:324,1,90,4|8,0:0|0:0,0:0:0
364,172,45547,2,0,P|312:96,1,90,0|4,0:0|0:0,0:0:0
296,76,45779,1,0,0:0:0
268,76,45857,2,0,P|176:76,1,90,4|8,0:0|0:0,0:0:0
40,100,46166,2,0,P|56:128|56:128|120:128,1,90,0|8,0:0|0:0,0:0:0
316,164,46475,2,0,P|300:192|300:192|236:192,1,90,0|8,0:0|0:0,0:0:0
108,192,46784,1,0,0:0:0
176,308,46939,1,4,0:0:0
242,192,47094,1,0,0:0:0
310,308,47248,1,4,0:0:0
392,192,47403,6,0,P|440:144|444:68,1,135,8|0,0:0|0:0,0:0:0
436,56,47712,2,0,P|340:56,1,90,4|8,0:0|0:0,0:0:0
196,120,48021,2,0,P|104:120,1,90,0|4,0:0|0:0,0:0:0
80,132,48253,1,0,0:0:0
60,148,48331,2,0,P|44:168|36:188,2,45,0|0|8,0:0|0:0|0:0,0:0:0
132,244,48640,2,0,P|124:296|144:340,1,90,0|8,0:0|0:0,0:0:0
164,324,48872,1,0,0:0:0
192,324,48949,2,0,P|240:328|272:352,2,90,8|0|8,0:0|0:0|0:0,0:0:0
200,296,49336,1,0,0:0:0
208,272,49413,1,0,0:0:0
216,248,49491,1,0,0:0:0
224,224,49568,5,6,0:0:0
236,192,49645,1,0,0:0:0
260,164,49722,1,2,0:0:0
292,148,49800,1,0,0:0:0
328,144,49877,2,0,P|364:92|364:92|424:112|424:112|456:60,1,180,2|4,0:0|0:0,0:0:0
309,252,50341,2,0,P|289:298,2,45,8|0|0,0:0|0:0|0:0,0:0:0
64,276,50650,1,8,0:0:0
72,240,50728,1,0,0:0:0
96,212,50805,1,6,0:0:0
132,204,50882,1,0,0:0:0
164,188,50960,1,10,0:0:0
184,156,51037,1,0,0:0:0
180,120,51114,6,0,P|132:52|40:56,1,180,0|4,0:0|0:0,0:0:0
32,88,51501,1,0,0:0:0
40,124,51578,1,10,0:0:0
72,140,51655,1,0,0:0:0
108,140,51733,2,0,P|148:120|196:116,1,90,2|8,0:0|0:0,0:0:0
228,120,51965,1,0,0:0:0
260,136,52042,6,0,P|300:160,1,45,6|0,0:0|0:0,0:0:0
272,240,52197,2,0,P|312:264,1,45,10|0,0:0|0:0,0:0:0
384,224,52351,6,0,P|432:224|460:196,1,90,8|0,0:0|0:0,0:0:0
472,172,52583,1,0,0:0:0
472,144,52661,1,6,0:0:0
460,120,52738,1,0,0:0:0
440,100,52815,1,10,0:0:0
412,92,52893,1,0,0:0:0
384,96,52970,2,0,P|336:112,3,45,0|0|8|0,0:0|0:0|0:0|0:0,0:0:0
316,112,53279,1,4,0:0:0
288,108,53357,1,2,0:0:0
268,88,53434,1,10,0:0:0
260,64,53511,1,0,0:0:0
256,36,53588,6,0,P|164:56,1,90,0|8,0:0|0:0,0:0:0
20,92,53898,1,6,0:0:0
200,152,54052,1,8,0:0:0
380,220,54207,2,0,P|480:208,2,90,0|8|6,0:0|0:0|0:0,0:0:0
192,244,54671,1,8,0:0:0
80,116,54826,6,0,P|108:76|140:52,1,90,10|0,0:0|0:0,0:0:0
184,40,55058,1,0,0:0:0
216,72,55135,1,6,0:0:0
260,84,55212,1,0,0:0:0
304,80,55290,1,10,0:0:0
380,220,55444,1,0,0:0:0
420,204,55521,1,0,0:0:0
452,172,55599,1,8,0:0:0
464,128,55676,1,0,0:0:0
456,84,55753,6,0,P|404:108,1,53.9999983520508,4|0,0:0|0:0,0:0:0
344,160,55908,2,0,P|288:184,1,53.9999983520508,8|0,0:0|0:0,0:0:0
236,244,56063,6,0,P|196:268|180:312,1,90,2|8,0:0|0:0,0:0:0
184,352,56295,1,0,0:0:0
140,348,56372,1,6,0:0:0
96,344,56449,1,0,0:0:0
52,340,56527,1,10,0:0:0
0,220,56681,1,0,0:0:0
44,224,56759,1,0,0:0:0
88,228,56836,1,8,0:0:0
132,232,56913,1,0,0:0:0
176,236,56991,6,0,P|220:200,1,53.9999983520508,6|8,0:0|0:0,0:0:0
184,128,57145,2,0,P|232:88,1,53.9999983520508,10|0,0:0|0:0,0:0:0
308,108,57300,6,0,P|360:108|416:136,1,107.999996704102,8|0,0:0|0:0,0:0:0
496,276,57609,1,6,0:0:0
492,248,57686,1,0,0:0:0
476,224,57764,1,8,0:0:0
456,208,57841,1,0,0:0:0
428,204,57918,5,2,0:0:0
400,212,57996,1,0,0:0:0
380,232,58073,1,10,0:0:0
368,256,58150,1,0,0:0:0
368,284,58228,2,0,P|392:328,3,45,6|0|8|0,0:0|0:0|0:0|0:0,0:0:0
364,328,58537,5,2,0:0:0
340,340,58614,1,0,0:0:0
316,356,58692,1,8,0:0:0
292,364,58769,1,0,0:0:0
264,364,58846,1,4,0:0:0
240,352,58924,1,0,0:0:0
224,332,59001,1,8,0:0:0
216,308,59078,1,0,0:0:0
220,280,59155,5,2,0:0:0
236,256,59233,1,0,0:0:0
244,232,59310,1,6,0:0:0
244,204,59387,1,0,0:0:0
228,184,59465,1,0,0:0:0
204,176,59542,1,0,0:0:0
176,180,59619,1,0,0:0:0
152,196,59697,1,0,0:0:0
140,220,59774,5,8,0:0:0
12,336,59929,1,0,0:0:0
24,248,60083,1,4,0:0:0
144,312,60238,2,0,P|240:304,1,90,8|0,0:0|0:0,0:0:0
360,352,60547,1,8,0:0:0
396,220,60702,2,0,P|420:128,2,90,4|8|0,0:0|0:0|0:0,0:0:0
284,128,61166,2,0,P|256:36,2,90,8|4|8,0:0|0:0|0:0,0:0:0
72,52,61630,2,0,P|140:124,1,90,4|8,0:0|0:0,0:0:0
360,352,61939,1,4,0:0:0
284,224,62094,6,0,P|244:204|200:216,1,90,8|2,0:0|0:0,0:0:0
172,232,62326,1,0,0:0:0
159,266,62403,1,2,0:0:0
168,300,62480,1,0,0:0:0
188,328,62558,2,0,P|228:348|272:336,1,90,6|8,0:0|0:0,0:0:0
372,236,62867,5,0,0:0:0
452,112,63021,2,0,P|448:64|424:32,1,90,10|4,0:0|0:0,0:0:0
372,236,63331,5,8,0:0:0
173,59,63485,2,0,P|216:56|260:72,1,90,0|8,0:0|0:0,0:0:0
372,236,63795,5,4,0:0:0
120,188,63949,2,0,P|80:208|56:248,1,90,10|2,0:0|0:0,0:0:0
196,304,64259,1,8,0:0:0
196,304,64336,1,0,0:0:0
196,304,64413,2,0,P|284:332,1,90,6|0,0:0|0:0,0:0:0
372,236,64722,6,0,P|420:232|456:264,2,90,8|0|4,0:0|0:0|0:0,0:0:0
360,100,65186,6,0,P|380:56|426:41,2,90,8|0|8,0:0|0:0|0:0,0:0:0
224,96,65650,6,0,P|196:56|206:9,2,90,4|8|0,0:0|0:0|0:0,0:0:0
156,212,66114,6,0,P|108:215|72:184,2,90,8|4|8,0:0|0:0|0:0,0:0:0
256,304,66578,6,0,P|235:347|189:362,2,90,0|8|0,0:0|0:0|0:0,0:0:0
372,236,67042,5,10,0:0:0
372,236,67119,1,0,0:0:0
372,236,67197,2,0,P|364:196|364:196|368:180|360:144,1,90,2|0,0:0|0:0,0:0:0
340,40,67506,2,0,P|288:120,1,90,6|8,0:0|0:0,0:0:0
224,200,67815,1,2,0:0:0
164,292,67970,2,0,P|114:367,2,90,10|4|8,0:0|0:0|0:0,0:0:0
224,200,68434,6,0,P|192:168|144:168,1,90,0|8,0:0|0:0,0:0:0
48,248,68743,1,4,0:0:0
224,200,68898,6,0,P|256:232|304:232,1,90,8|0,0:0|0:0,0:0:0
400,152,69207,1,8,0:0:0
400,152,69284,1,8,0:0:0
400,152,69362,2,0,P|420:128,4,22.5,0|0|0|0|8,0:0|0:0|0:0|0:0|0:0,0:0:0
272,296,69671,6,0,P|210:361,1,90,8|0,0:0|0:0,0:0:0
224,200,69980,1,4,0:0:0
184,100,70135,2,0,P|245:34,1,90,8|0,0:0|0:0,0:0:0
224,200,70444,1,8,0:0:0
272,296,70599,6,0,P|316:280|348:248,1,90,4|8,0:0|0:0,0:0:0
224,200,70908,1,0,0:0:0
109,145,71063,2,0,P|140:116|184:100,1,90,8|4,0:0|0:0,0:0:0
224,200,71372,1,8,0:0:0
272,296,71527,2,0,P|180:276,1,90,0|4,0:0|0:0,0:0:0
184,100,71836,2,0,P|271:119,1,90,0|8,0:0|0:0,0:0:0
292,136,72068,1,2,0:0:0
312,156,72145,2,0,P|404:176,1,90,10|0,0:0|0:0,0:0:0
504,204,72454,6,0,P|448:276|360:276,1,180,8|0,0:0|0:0,0:0:0
8,180,72918,2,0,P|64:108|152:108,1,180,8|8,0:0|0:0,0:0:0
392,68,73382,6,0,P|388:160|320:216,1,180,8|4,0:0|0:0,0:0:0
120,316,73846,2,0,P|124:224|192:168,1,180,8|8,0:0|0:0,0:0:0
256,248,74310,5,6,0:0:0
256,276,74387,1,2,0:0:0
256,304,74465,1,0,0:0:0
348,252,74619,6,0,P|388:276|436:264,2,90,8|0|4,0:0|0:0|0:0,0:0:0
341,123,75083,6,0,P|376:92|380:43,2,90,8|0|8,0:0|0:0|0:0,0:0:0
216,89,75547,6,0,P|198:46|152:27,2,90,4|8|0,0:0|0:0|0:0,0:0:0
146,197,76011,6,0,P|99:201|68:239,2,90,8|4|8,0:0|0:0|0:0,0:0:0
227,298,76475,6,0,P|216:343|243:385,2,90,0|8|4,0:0|0:0|0:0,0:0:0
264,80,76939,5,8,0:0:0
488,156,77094,2,0,P|452:188|452:188|412:200,1,90,4|0,0:0|0:0,0:0:0
256,192,77403,2,0,P|292:160|292:160|331:147,1,90,8|0,0:0|0:0,0:0:0
340,244,77712,1,0,0:0:0
264,80,77867,2,0,P|168:104,1,90,8|4,0:0|0:0,0:0:0
131,198,78176,1,8,0:0:0
80,56,78331,6,0,P|68:144|144:200,1,180,8|8,0:0|0:0,0:0:0
432,328,78795,2,0,P|444:240|368:184,1,180,2|2,0:0|0:0,0:0:0
256,192,79259,2,0,P|256:236,3,45,8|0|0|0,0:0|0:0|0:0|0:0,0:0:0
256,237,79568,6,0,P|192:296|192:296|96:264|104:148,1,270,8|8,0:0|0:0,0:0:0
176,84,80186,2,0,P|256:48|336:84,1,180,6|0,0:0|0:0,0:0:0
408,152,80650,2,0,P|416:264|320:296|320:296|320:296,1,180,8|8,0:0|0:0,0:0:0
256,236,81114,2,0,P|256:144,1,90,2|8,0:0|0:0,0:0:0
256,36,81424,1,4,0:0:0
256,324,81733,1,2,0:0:0
168,92,82042,6,0,P|88:192|168:284,1,270,8|8,0:0|0:0,0:0:0
256,236,82661,2,0,P|256:48,1,180,6|8,0:0|0:0,0:0:0
344,92,83125,2,0,P|412:152|500:172,2,180,0|8|0,0:0|0:0|0:0,0:0:0
452,108,83898,2,0,P|372:156,1,90,6|0,0:0|0:0,0:0:0
368,260,84207,2,0,P|288:308,1,90,4|2,0:0|0:0,0:0:0
36,209,84516,6,0,P|84:344|196:356,1,270,8|0,0:0|0:0,0:0:0
152,256,85135,2,0,P|148:168|216:108,1,180,6|0,0:0|0:0,0:0:0
320,116,85599,1,0,0:0:0
404,184,85753,2,0,P|400:280|256:364,2,270,0|8|0,0:0|0:0|0:0,0:0:0
180,208,86991,6,0,P|112:148|116:52,1,180,2|0,0:0|0:0,0:0:0
332,176,87454,2,0,P|400:236|396:332,1,180,0|2,0:0|0:0,0:0:0
256,296,87918,2,0,P|256:348,3,45,2|0|0|0,0:0|0:0|0:0|0:0,0:0:0
256,296,88228,1,0,0:0:0
248,272,88305,1,0,0:0:0
240,248,88382,1,8,0:0:0
240,220,88460,1,0,0:0:0
248,192,88537,1,0,0:0:0
260,168,88614,1,0,0:0:0
268,144,88692,1,0,0:0:0
268,116,88769,1,0,0:0:0
264,88,88846,6,0,P|216:112,1,53.9999983520508,2|0,0:0|0:0,0:0:0
184,104,89001,2,0,P|136:128,1,53.9999983520508,2|0,0:0|0:0,0:0:0
104,124,89155,2,0,P|56:148,3,53.9999983520508
36,176,89465,5,8,0:0:0
36,208,89542,1,0,0:0:0
48,240,89619,1,0,0:0:0
72,264,89697,1,0,0:0:0
124,244,89774,1,4,0:0:0
148,268,89851,1,0,0:0:0
176,284,89929,1,8,0:0:0
208,288,90006,1,0,0:0:0
240,244,90083,5,0,0:0:0
268,224,90161,1,0,0:0:0
300,220,90238,1,8,0:0:0
332,228,90315,1,0,0:0:0
360,248,90393,1,4,0:0:0
388,260,90470,1,0,0:0:0
420,256,90547,1,8,0:0:0
448,244,90625,1,0,0:0:0
468,220,90702,6,0,P|496:168,3,53.9999983520508,0|0|8|0,0:0|0:0|0:0|0:0,0:0:0
484,140,91011,2,0,P|456:88,3,53.9999983520508,4|0|8|0,0:0|0:0|0:0|0:0,0:0:0
440,64,91320,6,0,P|384:80,1,53.9999983520508
356,88,91475,2,0,P|300:80,1,53.9999983520508,8|0,0:0|0:0,0:0:0
268,84,91630,2,0,P|240:132,1,53.9999983520508,8|0,0:0|0:0,0:0:0
228,160,91784,2,0,P|176:180,1,53.9999983520508,8|0,0:0|0:0,0:0:0
148,188,91939,5,8,0:0:0
116,192,92016,1,0,0:0:0
84,180,92094,1,0,0:0:0
64,156,92171,1,0,0:0:0
56,124,92248,1,4,0:0:0
68,96,92326,1,0,0:0:0
92,76,92403,1,8,0:0:0
124,72,92480,1,0,0:0:0
156,80,92558,1,0,0:0:0
176,108,92635,1,0,0:0:0
180,140,92712,1,8,0:0:0
172,172,92790,1,0,0:0:0
148,188,92867,1,4,0:0:0
128,212,92944,1,0,0:0:0
118,244,93021,1,8,0:0:0
114,277,93099,1,0,0:0:0
120,308,93176,6,0,P|172:292,3,53.9999983520508,0|0|8|0,0:0|0:0|0:0|0:0,0:0:0
192,316,93485,2,0,P|244:300,3,53.9999983520508,4|0|0|0,0:0|0:0|0:0|0:0,0:0:0
272,316,93795,1,0,0:0:0
304,308,93872,1,0,0:0:0
336,300,93949,1,8,0:0:0
368,292,94027,1,0,0:0:0
376,260,94104,1,4,0:0:0
408,252,94181,1,0,0:0:0
440,244,94259,1,8,0:0:0
472,236,94336,1,0,0:0:0
504,232,94413,6,0,P|496:176,1,53.9999983520508,8|0,0:0|0:0,0:0:0
488,148,94568,2,0,P|440:124,1,53.9999983520508
408,112,94722,2,0,P|372:72,1,53.9999983520508,4|0,0:0|0:0,0:0:0
348,48,94877,2,0,P|296:60,1,53.9999983520508,8|0,0:0|0:0,0:0:0
264,72,95032,1,0,0:0:0
240,96,95109,1,0,0:0:0
228,124,95186,1,8,0:0:0
232,156,95264,1,0,0:0:0
248,184,95341,1,4,0:0:0
276,196,95418,1,0,0:0:0
308,192,95496,1,8,0:0:0
336,176,95573,1,0,0:0:0
368,168,95650,5,4,0:0:0
400,172,95728,1,0,0:0:0
424,192,95805,1,8,0:0:0
432,224,95882,1,0,0:0:0
416,252,95960,1,4,0:0:0
392,276,96037,1,0,0:0:0
360,288,96114,1,8,0:0:0
328,284,96192,1,0,0:0:0
296,280,96269,2,0,P|244:268,3,53.9999983520508,0|0|8|0,0:0|0:0|0:0|0:0,0:0:0
220,288,96578,2,0,P|168:276,3,53.9999983520508,4|0|8|0,0:0|0:0|0:0|0:0,0:0:0
140,292,96887,6,0,P|92:272|80:216,1,107.999996704102,8|0,0:0|0:0,0:0:0
88,192,97119,1,0,0:0:0
112,168,97197,1,4,0:0:0
144,160,97274,1,0,0:0:0
176,164,97351,1,8,0:0:0
204,180,97429,1,0,0:0:0
224,204,97506,1,0,0:0:0
252,220,97583,1,0,0:0:0
284,220,97661,1,8,0:0:0
312,204,97738,1,0,0:0:0
328,176,97815,1,4,0:0:0
328,144,97893,1,0,0:0:0
312,116,97970,1,8,0:0:0
284,104,98047,1,0,0:0:0
252,96,98125,6,0,P|196:96,3,53.9999983520508,0|2|0|2,0:0|0:0|0:0|0:0,0:0:0
176,72,98434,2,0,P|120:72,3,53.9999983520508,0|2|0|2,0:0|0:0|0:0|0:0,0:0:0
88,72,98743,1,8,0:0:0
68,96,98820,1,0,0:0:0
60,128,98898,1,0,0:0:0
68,160,98975,1,0,0:0:0
88,184,99052,1,8,0:0:0
120,196,99130,1,0,0:0:0
152,196,99207,1,0,0:0:0
184,204,99284,1,0,0:0:0
208,224,99362,6,0,P|208:260,3,30,8|0|0|0,0:0|0:0|0:0|0:0,0:0:0
328,112,99826,2,0,P|328:148,3,30,8|0|0|0,0:0|0:0|0:0|0:0,0:0:0
148,48,100290,2,0,P|148:84,3,30,8|0|0|0,0:0|0:0|0:0|0:0,0:0:0
392,280,100753,2,0,P|392:316,3,30,8|0|0|0,0:0|0:0|0:0|0:0,0:0:0
80,232,101217,2,0,P|80:268,3,30,8|0|0|0,0:0|0:0|0:0|0:0,0:0:0
208,196,101681,5,8,0:0:0
208,196,101733,1,0,0:0:0
208,196,101784,1,0,0:0:0
208,196,101836,1,0,0:0:0
412,120,102145,5,8,0:0:0
412,120,102197,1,0,0:0:0
412,120,102248,1,0,0:0:0
412,120,102300,1,0,0:0:0
132,72,102609,5,8,0:0:0
132,72,102661,1,0,0:0:0
132,72,102712,1,0,0:0:0
132,72,102764,1,0,0:0:0
368,252,103073,5,8,0:0:0
368,252,103125,1,0,0:0:0
368,252,103176,1,0,0:0:0
368,252,103228,1,0,0:0:0
84,292,103537,5,8,0:0:0
84,292,103588,1,0,0:0:0
84,292,103640,1,0,0:0:0
84,292,103692,1,0,0:0:0
312,52,104001,5,8,0:0:0
312,52,104052,1,0,0:0:0
312,52,104104,1,0,0:0:0
312,52,104155,1,0,0:0:0
240,132,104310,5,6,0:0:0
160,208,104465,2,0,P|64:176,2,90,8|4|8,0:0|0:0|0:0,0:0:0
264,240,104929,1,0,0:0:0
364,276,105083,2,0,P|456:252,1,90,4|8,0:0|0:0,0:0:0
440,92,105393,5,8,0:0:0
312,52,105547,2,0,P|220:20,1,90,4|8,0:0|0:0,0:0:0
56,72,105857,5,8,0:0:0
184,112,106011,2,0,P|276:148,1,90,4|8,0:0|0:0,0:0:0
392,284,106320,5,8,0:0:0
264,244,106475,2,0,P|180:211,1,90,4|8,0:0|0:0,0:0:0
52,168,106784,5,0,0:0:0
52,168,106836,1,0,0:0:0
52,168,106887,1,0,0:0:0
52,168,106939,2,0,P|52:260,1,90,4|8,0:0|0:0,0:0:0
192,144,107248,5,8,0:0:0
192,144,107300,1,0,0:0:0
192,144,107351,1,0,0:0:0
192,144,107403,2,0,P|192:54,1,90,4|8,0:0|0:0,0:0:0
312,184,107712,6,0,P|312:280,1,90,8|0,0:0|0:0,0:0:0
312,300,107944,1,0,0:0:0
324,324,108021,1,8,0:0:0
348,340,108099,1,0,0:0:0
376,340,108176,1,0,0:0:0
400,328,108253,1,0,0:0:0
416,304,108331,1,8,0:0:0
416,276,108408,1,0,0:0:0
404,252,108485,1,0,0:0:0
384,236,108563,1,0,0:0:0
356,232,108640,1,8,0:0:0
332,220,108717,1,0,0:0:0
312,204,108795,1,0,0:0:0
296,180,108872,1,0,0:0:0
292,152,108949,2,0,P|308:128,7,22.5
315,113,109259,5,8,0:0:0
256,192,109336,12,2,114207,0:0:0
