osu file format v14

[General]
AudioFilename: seijin no tou An remix.mp3
AudioLeadIn: 0
PreviewTime: 72084
Countdown: 0
SampleSet: None
StackLeniency: 0.7
Mode: 1
LetterboxInBreaks: 0
WidescreenStoryboard: 1

[Editor]
DistanceSpacing: 0.7
BeatDivisor: 4
GridSize: 32
TimelineZoom: 2.06

[Metadata]
Title:Seijin no Tou (An remix)
TitleUnicode:聖人の塔 (An remix)
Artist:Beridzebeth
ArtistUnicode:Beridzebeth
Creator:Kunieda
Version:Oni
Source:
Tags:iidx19 lincle kingdom battle track
BeatmapID:678580
BeatmapSetID:302782

[Difficulty]
HPDrainRate:5
CircleSize:5
OverallDifficulty:5
ApproachRate:5
SliderMultiplier:1.4
SliderTickRate:1

[Events]
//Background and Video events
0,0,"subterranean_city_by_boc0-d7zdnl7.jpg",0,0
//Break Periods
//Storyboard Layer 0 (Background)
//Storyboard Layer 1 (Fail)
//Storyboard Layer 2 (Pass)
//Storyboard Layer 3 (Foreground)
//Storyboard Sound Samples

[TimingPoints]
10210,315.789473684211,4,1,0,100,1,0
30400,315.789473684211,4,1,0,100,1,0
72084,-100,4,1,0,100,0,1
92294,-100,4,1,0,100,0,0
122610,-200,4,1,0,100,0,0
152294,-100,4,1,0,100,0,0
152926,-100,4,1,0,100,0,1
173136,-100,4,1,0,100,0,0

[HitObjects]
256,192,29788,5,8,0:0:0:0:
256,192,29867,1,8,0:0:0:0:
256,192,29946,1,8,0:0:0:0:
256,192,30025,1,8,0:0:0:0:
256,192,30104,1,8,0:0:0:0:
256,192,30183,1,8,0:0:0:0:
256,192,30262,1,8,0:0:0:0:
256,192,30400,1,4,0:0:0:0:
256,192,30715,1,8,0:0:0:0:
256,192,30873,1,0,0:0:0:0:
256,192,31189,1,8,0:0:0:0:
256,192,31347,1,0,0:0:0:0:
256,192,31505,1,0,0:0:0:0:
256,192,31584,1,0,0:0:0:0:
256,192,31663,1,8,0:0:0:0:
256,192,31821,1,0,0:0:0:0:
256,192,31978,1,8,0:0:0:0:
256,192,32136,1,8,0:0:0:0:
256,192,32215,1,8,0:0:0:0:
256,192,32294,1,8,0:0:0:0:
256,192,32452,1,0,0:0:0:0:
256,192,32531,1,0,0:0:0:0:
256,192,32610,1,0,0:0:0:0:
256,192,32768,1,0,0:0:0:0:
256,192,32926,1,8,0:0:0:0:
256,192,33242,1,8,0:0:0:0:
256,192,33400,1,0,0:0:0:0:
256,192,33716,1,8,0:0:0:0:
256,192,33874,1,0,0:0:0:0:
256,192,34032,1,0,0:0:0:0:
256,192,34111,1,0,0:0:0:0:
256,192,34190,1,8,0:0:0:0:
256,192,34348,1,0,0:0:0:0:
256,192,34505,1,8,0:0:0:0:
256,192,34663,1,8,0:0:0:0:
256,192,34742,1,8,0:0:0:0:
256,192,34821,1,8,0:0:0:0:
256,192,34979,1,0,0:0:0:0:
256,192,35058,1,0,0:0:0:0:
256,192,35137,1,0,0:0:0:0:
256,192,35295,1,0,0:0:0:0:
256,192,35453,1,8,0:0:0:0:
256,192,35768,1,8,0:0:0:0:
256,192,35926,1,0,0:0:0:0:
256,192,36242,1,8,0:0:0:0:
256,192,36400,1,0,0:0:0:0:
256,192,36558,1,0,0:0:0:0:
256,192,36637,1,0,0:0:0:0:
256,192,36716,1,8,0:0:0:0:
256,192,36874,1,0,0:0:0:0:
256,192,37031,1,8,0:0:0:0:
256,192,37189,1,8,0:0:0:0:
256,192,37268,1,8,0:0:0:0:
256,192,37347,1,8,0:0:0:0:
256,192,37505,1,0,0:0:0:0:
256,192,37584,1,0,0:0:0:0:
256,192,37663,1,0,0:0:0:0:
256,192,37821,1,0,0:0:0:0:
256,192,37979,1,8,0:0:0:0:
256,192,38294,1,8,0:0:0:0:
256,192,38452,1,0,0:0:0:0:
256,192,38768,1,8,0:0:0:0:
256,192,38926,1,0,0:0:0:0:
256,192,39084,1,0,0:0:0:0:
256,192,39163,1,0,0:0:0:0:
256,192,39242,1,8,0:0:0:0:
256,192,39400,1,0,0:0:0:0:
256,192,39557,1,8,0:0:0:0:
256,192,39715,1,8,0:0:0:0:
256,192,39794,1,8,0:0:0:0:
256,192,39873,1,8,0:0:0:0:
256,192,40031,1,0,0:0:0:0:
256,192,40110,1,0,0:0:0:0:
256,192,40189,1,0,0:0:0:0:
256,192,40347,1,0,0:0:0:0:
256,192,40505,1,8,0:0:0:0:
256,192,40821,1,8,0:0:0:0:
256,192,40979,1,0,0:0:0:0:
256,192,41295,1,8,0:0:0:0:
256,192,41453,1,0,0:0:0:0:
256,192,41611,1,0,0:0:0:0:
256,192,41690,1,0,0:0:0:0:
256,192,41769,1,8,0:0:0:0:
256,192,41927,1,0,0:0:0:0:
256,192,42084,1,8,0:0:0:0:
256,192,42242,1,8,0:0:0:0:
256,192,42321,1,8,0:0:0:0:
256,192,42400,1,8,0:0:0:0:
256,192,42558,1,0,0:0:0:0:
256,192,42637,1,0,0:0:0:0:
256,192,42716,1,0,0:0:0:0:
256,192,42874,1,0,0:0:0:0:
256,192,43032,1,8,0:0:0:0:
256,192,43347,1,8,0:0:0:0:
256,192,43505,1,0,0:0:0:0:
256,192,43821,1,8,0:0:0:0:
256,192,43979,1,0,0:0:0:0:
256,192,44137,1,0,0:0:0:0:
256,192,44216,1,0,0:0:0:0:
256,192,44295,1,8,0:0:0:0:
256,192,44453,1,0,0:0:0:0:
256,192,44610,1,8,0:0:0:0:
256,192,44768,1,8,0:0:0:0:
256,192,44847,1,8,0:0:0:0:
256,192,44926,1,8,0:0:0:0:
256,192,45084,1,0,0:0:0:0:
256,192,45163,1,0,0:0:0:0:
256,192,45242,1,0,0:0:0:0:
256,192,45400,1,0,0:0:0:0:
256,192,45558,1,8,0:0:0:0:
256,192,45873,1,8,0:0:0:0:
256,192,46031,1,0,0:0:0:0:
256,192,46347,1,8,0:0:0:0:
256,192,46505,1,0,0:0:0:0:
256,192,46663,1,0,0:0:0:0:
256,192,46742,1,0,0:0:0:0:
256,192,46821,1,8,0:0:0:0:
256,192,46979,1,0,0:0:0:0:
256,192,47136,1,8,0:0:0:0:
256,192,47294,1,8,0:0:0:0:
256,192,47373,1,8,0:0:0:0:
256,192,47452,1,8,0:0:0:0:
256,192,47610,1,0,0:0:0:0:
256,192,47689,1,0,0:0:0:0:
256,192,47768,1,0,0:0:0:0:
256,192,47926,1,0,0:0:0:0:
256,192,48084,1,8,0:0:0:0:
256,192,48400,1,8,0:0:0:0:
256,192,48558,1,0,0:0:0:0:
256,192,48874,1,8,0:0:0:0:
256,192,49032,1,0,0:0:0:0:
256,192,49190,1,0,0:0:0:0:
256,192,49269,1,0,0:0:0:0:
256,192,49348,1,8,0:0:0:0:
256,192,49506,1,0,0:0:0:0:
256,192,49663,1,8,0:0:0:0:
256,192,49821,1,8,0:0:0:0:
256,192,49900,1,8,0:0:0:0:
256,192,49979,1,8,0:0:0:0:
256,192,50137,1,0,0:0:0:0:
256,192,50216,1,0,0:0:0:0:
256,192,50295,1,0,0:0:0:0:
256,192,50453,1,0,0:0:0:0:
256,192,50611,1,6,0:0:0:0:
256,192,51084,1,8,0:0:0:0:
256,192,51163,1,8,0:0:0:0:
256,192,51242,1,0,0:0:0:0:
256,192,51400,1,0,0:0:0:0:
256,192,51557,1,8,0:0:0:0:
256,192,51715,1,0,0:0:0:0:
256,192,51794,1,0,0:0:0:0:
256,192,51873,1,0,0:0:0:0:
256,192,52031,1,0,0:0:0:0:
256,192,52189,1,8,0:0:0:0:
256,192,52268,1,8,0:0:0:0:
256,192,52347,1,0,0:0:0:0:
256,192,52426,1,0,0:0:0:0:
256,192,52505,1,8,0:0:0:0:
256,192,52821,1,0,0:0:0:0:
256,192,52978,1,0,0:0:0:0:
256,192,53057,1,0,0:0:0:0:
256,192,53136,1,8,0:0:0:0:
256,192,53294,1,0,0:0:0:0:
256,192,53452,1,8,0:0:0:0:
256,192,53531,1,0,0:0:0:0:
256,192,53610,1,0,0:0:0:0:
256,192,53689,1,8,0:0:0:0:
256,192,53768,1,0,0:0:0:0:
256,192,53926,1,0,0:0:0:0:
256,192,54005,1,0,0:0:0:0:
256,192,54084,1,0,0:0:0:0:
256,192,54242,1,0,0:0:0:0:
256,192,54400,1,8,0:0:0:0:
256,192,54557,1,0,0:0:0:0:
256,192,54636,1,0,0:0:0:0:
256,192,54715,1,8,0:0:0:0:
256,192,54873,1,0,0:0:0:0:
256,192,55031,1,8,0:0:0:0:
256,192,55110,1,8,0:0:0:0:
256,192,55189,1,0,0:0:0:0:
256,192,55347,1,0,0:0:0:0:
256,192,55663,1,8,0:0:0:0:
256,192,55821,1,0,0:0:0:0:
256,192,55900,1,0,0:0:0:0:
256,192,55978,1,8,0:0:0:0:
256,192,56057,1,8,0:0:0:0:
256,192,56136,1,0,0:0:0:0:
256,192,56294,1,0,0:0:0:0:
256,192,56373,1,0,0:0:0:0:
256,192,56452,1,0,0:0:0:0:
256,192,56610,1,8,0:0:0:0:
256,192,56689,1,8,0:0:0:0:
256,192,56768,1,8,0:0:0:0:
256,192,56926,1,0,0:0:0:0:
256,192,57084,1,0,0:0:0:0:
256,192,57163,1,0,0:0:0:0:
256,192,57242,1,8,0:0:0:0:
256,192,57321,1,8,0:0:0:0:
256,192,57400,1,0,0:0:0:0:
256,192,57557,1,0,0:0:0:0:
256,192,57636,1,0,0:0:0:0:
256,192,57715,1,0,0:0:0:0:
256,192,57873,1,8,0:0:0:0:
256,192,57952,1,8,0:0:0:0:
256,192,58031,1,8,0:0:0:0:
256,192,58189,1,8,0:0:0:0:
256,192,58268,1,0,0:0:0:0:
256,192,58347,1,0,0:0:0:0:
256,192,58426,1,8,0:0:0:0:
256,192,58505,1,0,0:0:0:0:
256,192,58663,1,8,0:0:0:0:
256,192,58821,1,0,0:0:0:0:
256,192,58978,1,8,0:0:0:0:
256,192,59136,1,0,0:0:0:0:
256,192,59215,1,0,0:0:0:0:
256,192,59294,1,0,0:0:0:0:
256,192,59452,1,0,0:0:0:0:
256,192,59610,1,8,0:0:0:0:
256,192,59768,1,8,0:0:0:0:
256,192,59926,1,0,0:0:0:0:
256,192,60005,1,8,0:0:0:0:
256,192,60084,1,8,0:0:0:0:
256,192,60242,1,8,0:0:0:0:
256,192,60400,1,0,0:0:0:0:
256,192,60478,1,8,0:0:0:0:
256,192,60557,1,0,0:0:0:0:
256,192,60715,1,8,0:0:0:0:
256,192,61189,1,8,0:0:0:0:
256,192,61268,1,8,0:0:0:0:
256,192,61347,1,0,0:0:0:0:
256,192,61505,1,0,0:0:0:0:
256,192,61662,1,8,0:0:0:0:
256,192,61820,1,0,0:0:0:0:
256,192,61899,1,0,0:0:0:0:
256,192,61978,1,0,0:0:0:0:
256,192,62136,1,0,0:0:0:0:
256,192,62294,1,8,0:0:0:0:
256,192,62373,1,8,0:0:0:0:
256,192,62452,1,0,0:0:0:0:
256,192,62531,1,0,0:0:0:0:
256,192,62610,1,8,0:0:0:0:
256,192,62926,1,0,0:0:0:0:
256,192,63083,1,0,0:0:0:0:
256,192,63162,1,0,0:0:0:0:
256,192,63241,1,8,0:0:0:0:
256,192,63399,1,0,0:0:0:0:
256,192,63557,1,8,0:0:0:0:
256,192,63636,1,0,0:0:0:0:
256,192,63715,1,0,0:0:0:0:
256,192,63794,1,8,0:0:0:0:
256,192,63873,1,0,0:0:0:0:
256,192,64031,1,0,0:0:0:0:
256,192,64110,1,0,0:0:0:0:
256,192,64189,1,0,0:0:0:0:
256,192,64347,1,0,0:0:0:0:
256,192,64505,1,8,0:0:0:0:
256,192,64662,1,0,0:0:0:0:
256,192,64741,1,0,0:0:0:0:
256,192,64820,1,8,0:0:0:0:
256,192,64978,1,0,0:0:0:0:
256,192,65136,1,8,0:0:0:0:
256,192,65215,1,8,0:0:0:0:
256,192,65294,1,0,0:0:0:0:
256,192,65452,1,0,0:0:0:0:
256,192,65768,1,8,0:0:0:0:
256,192,65926,1,0,0:0:0:0:
256,192,66005,1,0,0:0:0:0:
256,192,66083,1,8,0:0:0:0:
256,192,66162,1,8,0:0:0:0:
256,192,66241,1,0,0:0:0:0:
256,192,66399,1,0,0:0:0:0:
256,192,66478,1,0,0:0:0:0:
256,192,66557,1,0,0:0:0:0:
256,192,66715,1,8,0:0:0:0:
256,192,66794,1,8,0:0:0:0:
256,192,66873,1,8,0:0:0:0:
256,192,67031,1,0,0:0:0:0:
256,192,67189,1,0,0:0:0:0:
256,192,67268,1,0,0:0:0:0:
256,192,67347,1,8,0:0:0:0:
256,192,67426,1,8,0:0:0:0:
256,192,67505,1,0,0:0:0:0:
256,192,67662,1,0,0:0:0:0:
256,192,67741,1,0,0:0:0:0:
256,192,67820,1,0,0:0:0:0:
256,192,67978,1,8,0:0:0:0:
256,192,68057,1,8,0:0:0:0:
256,192,68136,1,8,0:0:0:0:
256,192,68294,1,8,0:0:0:0:
256,192,68373,1,0,0:0:0:0:
256,192,68452,1,0,0:0:0:0:
256,192,68531,1,8,0:0:0:0:
256,192,68610,1,0,0:0:0:0:
256,192,68768,1,8,0:0:0:0:
256,192,68926,1,0,0:0:0:0:
256,192,69083,1,8,0:0:0:0:
256,192,69241,1,0,0:0:0:0:
256,192,69320,1,0,0:0:0:0:
256,192,69399,1,0,0:0:0:0:
256,192,69557,1,0,0:0:0:0:
256,192,69715,1,8,0:0:0:0:
256,192,69873,1,8,0:0:0:0:
256,192,70031,1,0,0:0:0:0:
256,192,70110,1,8,0:0:0:0:
256,192,70189,1,8,0:0:0:0:
256,192,70347,1,8,0:0:0:0:
256,192,70505,1,0,0:0:0:0:
256,192,70583,1,8,0:0:0:0:
256,192,70662,1,0,0:0:0:0:
256,192,72084,1,4,0:0:0:0:
256,192,72557,1,8,0:0:0:0:
256,192,72636,1,8,0:0:0:0:
256,192,72715,1,0,0:0:0:0:
256,192,72873,1,0,0:0:0:0:
256,192,73030,1,8,0:0:0:0:
256,192,73188,1,0,0:0:0:0:
256,192,73267,1,0,0:0:0:0:
256,192,73346,1,0,0:0:0:0:
256,192,73504,1,0,0:0:0:0:
256,192,73662,1,8,0:0:0:0:
256,192,73741,1,8,0:0:0:0:
256,192,73820,1,0,0:0:0:0:
256,192,73899,1,0,0:0:0:0:
256,192,73978,1,8,0:0:0:0:
256,192,74294,1,0,0:0:0:0:
256,192,74451,1,0,0:0:0:0:
256,192,74530,1,0,0:0:0:0:
256,192,74609,1,8,0:0:0:0:
256,192,74767,1,0,0:0:0:0:
256,192,74925,1,8,0:0:0:0:
256,192,75004,1,0,0:0:0:0:
256,192,75083,1,0,0:0:0:0:
256,192,75162,1,8,0:0:0:0:
256,192,75241,1,0,0:0:0:0:
256,192,75399,1,0,0:0:0:0:
256,192,75478,1,0,0:0:0:0:
256,192,75557,1,0,0:0:0:0:
256,192,75715,1,0,0:0:0:0:
256,192,75873,1,8,0:0:0:0:
256,192,76030,1,0,0:0:0:0:
256,192,76109,1,0,0:0:0:0:
256,192,76188,1,8,0:0:0:0:
256,192,76346,1,0,0:0:0:0:
256,192,76504,1,8,0:0:0:0:
256,192,76583,1,8,0:0:0:0:
256,192,76662,1,0,0:0:0:0:
256,192,76820,1,0,0:0:0:0:
256,192,77136,1,8,0:0:0:0:
256,192,77294,1,0,0:0:0:0:
256,192,77373,1,0,0:0:0:0:
256,192,77451,1,8,0:0:0:0:
256,192,77530,1,8,0:0:0:0:
256,192,77609,1,0,0:0:0:0:
256,192,77767,1,0,0:0:0:0:
256,192,77846,1,0,0:0:0:0:
256,192,77925,1,0,0:0:0:0:
256,192,78083,1,8,0:0:0:0:
256,192,78162,1,8,0:0:0:0:
256,192,78241,1,8,0:0:0:0:
256,192,78399,1,0,0:0:0:0:
256,192,78557,1,0,0:0:0:0:
256,192,78636,1,0,0:0:0:0:
256,192,78715,1,8,0:0:0:0:
256,192,78794,1,8,0:0:0:0:
256,192,78873,1,0,0:0:0:0:
256,192,79030,1,0,0:0:0:0:
256,192,79109,1,0,0:0:0:0:
256,192,79188,1,0,0:0:0:0:
256,192,79346,1,8,0:0:0:0:
256,192,79425,1,8,0:0:0:0:
256,192,79504,1,8,0:0:0:0:
256,192,79662,1,8,0:0:0:0:
256,192,79741,1,0,0:0:0:0:
256,192,79820,1,0,0:0:0:0:
256,192,79899,1,8,0:0:0:0:
256,192,79978,1,0,0:0:0:0:
256,192,80136,1,8,0:0:0:0:
256,192,80294,1,0,0:0:0:0:
256,192,80451,1,8,0:0:0:0:
256,192,80609,1,0,0:0:0:0:
256,192,80688,1,0,0:0:0:0:
256,192,80767,1,0,0:0:0:0:
256,192,80925,1,0,0:0:0:0:
256,192,81083,1,8,0:0:0:0:
256,192,81241,1,8,0:0:0:0:
256,192,81399,1,0,0:0:0:0:
256,192,81478,1,8,0:0:0:0:
256,192,81557,1,8,0:0:0:0:
256,192,81715,1,8,0:0:0:0:
256,192,81873,1,0,0:0:0:0:
256,192,81951,1,8,0:0:0:0:
256,192,82030,1,0,0:0:0:0:
256,192,82188,1,8,0:0:0:0:
256,192,82663,1,8,0:0:0:0:
256,192,82742,1,8,0:0:0:0:
256,192,82821,1,0,0:0:0:0:
256,192,82979,1,0,0:0:0:0:
256,192,83136,1,8,0:0:0:0:
256,192,83294,1,0,0:0:0:0:
256,192,83373,1,0,0:0:0:0:
256,192,83452,1,0,0:0:0:0:
256,192,83610,1,0,0:0:0:0:
256,192,83768,1,8,0:0:0:0:
256,192,83847,1,8,0:0:0:0:
256,192,83926,1,0,0:0:0:0:
256,192,84005,1,0,0:0:0:0:
256,192,84084,1,8,0:0:0:0:
256,192,84400,1,0,0:0:0:0:
256,192,84557,1,0,0:0:0:0:
256,192,84636,1,0,0:0:0:0:
256,192,84715,1,8,0:0:0:0:
256,192,84873,1,0,0:0:0:0:
256,192,85031,1,8,0:0:0:0:
256,192,85110,1,0,0:0:0:0:
256,192,85189,1,0,0:0:0:0:
256,192,85268,1,8,0:0:0:0:
256,192,85347,1,0,0:0:0:0:
256,192,85505,1,0,0:0:0:0:
256,192,85584,1,0,0:0:0:0:
256,192,85663,1,0,0:0:0:0:
256,192,85821,1,0,0:0:0:0:
256,192,85979,1,8,0:0:0:0:
256,192,86136,1,0,0:0:0:0:
256,192,86215,1,0,0:0:0:0:
256,192,86294,1,8,0:0:0:0:
256,192,86452,1,0,0:0:0:0:
256,192,86610,1,8,0:0:0:0:
256,192,86689,1,8,0:0:0:0:
256,192,86768,1,0,0:0:0:0:
256,192,86926,1,0,0:0:0:0:
256,192,87242,1,8,0:0:0:0:
256,192,87400,1,0,0:0:0:0:
256,192,87479,1,0,0:0:0:0:
256,192,87557,1,8,0:0:0:0:
256,192,87636,1,8,0:0:0:0:
256,192,87715,1,0,0:0:0:0:
256,192,87873,1,0,0:0:0:0:
256,192,87952,1,0,0:0:0:0:
256,192,88031,1,0,0:0:0:0:
256,192,88189,1,8,0:0:0:0:
256,192,88268,1,8,0:0:0:0:
256,192,88347,1,8,0:0:0:0:
256,192,88505,1,0,0:0:0:0:
256,192,88663,1,0,0:0:0:0:
256,192,88742,1,0,0:0:0:0:
256,192,88821,1,8,0:0:0:0:
256,192,88900,1,8,0:0:0:0:
256,192,88979,1,0,0:0:0:0:
256,192,89136,1,0,0:0:0:0:
256,192,89215,1,0,0:0:0:0:
256,192,89294,1,0,0:0:0:0:
256,192,89452,1,8,0:0:0:0:
256,192,89531,1,8,0:0:0:0:
256,192,89610,1,8,0:0:0:0:
256,192,89768,1,8,0:0:0:0:
256,192,89847,1,0,0:0:0:0:
256,192,89926,1,0,0:0:0:0:
256,192,90005,1,8,0:0:0:0:
256,192,90084,1,0,0:0:0:0:
256,192,90242,1,8,0:0:0:0:
256,192,90400,1,0,0:0:0:0:
256,192,90557,1,8,0:0:0:0:
256,192,90715,1,0,0:0:0:0:
256,192,90794,1,0,0:0:0:0:
256,192,90873,1,0,0:0:0:0:
256,192,91031,1,0,0:0:0:0:
256,192,91189,1,8,0:0:0:0:
256,192,91347,1,8,0:0:0:0:
256,192,91505,1,0,0:0:0:0:
256,192,91584,1,8,0:0:0:0:
256,192,91663,1,8,0:0:0:0:
256,192,91821,1,8,0:0:0:0:
256,192,91979,1,0,0:0:0:0:
256,192,92057,1,8,0:0:0:0:
256,192,92136,1,0,0:0:0:0:
256,192,92294,1,6,0:0:0:0:
256,192,92610,1,8,0:0:0:0:
256,192,92768,1,0,0:0:0:0:
256,192,93084,1,8,0:0:0:0:
256,192,93242,1,0,0:0:0:0:
256,192,93400,1,0,0:0:0:0:
256,192,93479,1,0,0:0:0:0:
256,192,93558,1,8,0:0:0:0:
256,192,93716,1,0,0:0:0:0:
256,192,93873,1,8,0:0:0:0:
256,192,94031,1,8,0:0:0:0:
256,192,94110,1,8,0:0:0:0:
256,192,94189,1,8,0:0:0:0:
256,192,94347,1,0,0:0:0:0:
256,192,94426,1,0,0:0:0:0:
256,192,94505,1,0,0:0:0:0:
256,192,94663,1,0,0:0:0:0:
256,192,94821,1,8,0:0:0:0:
256,192,95137,1,8,0:0:0:0:
256,192,95295,1,0,0:0:0:0:
256,192,95611,1,8,0:0:0:0:
256,192,95769,1,0,0:0:0:0:
256,192,95927,1,0,0:0:0:0:
256,192,96006,1,0,0:0:0:0:
256,192,96085,1,8,0:0:0:0:
256,192,96243,1,0,0:0:0:0:
256,192,96400,1,8,0:0:0:0:
256,192,96715,1,4,0:0:0:0:
256,192,96952,1,4,0:0:0:0:
256,192,97190,1,4,0:0:0:0:
256,192,97348,1,12,0:0:0:0:
256,192,97663,1,8,0:0:0:0:
256,192,97821,1,0,0:0:0:0:
256,192,98137,1,8,0:0:0:0:
256,192,98295,1,0,0:0:0:0:
256,192,98453,1,0,0:0:0:0:
256,192,98532,1,0,0:0:0:0:
256,192,98611,1,8,0:0:0:0:
256,192,98769,1,0,0:0:0:0:
256,192,98926,1,8,0:0:0:0:
256,192,99084,1,8,0:0:0:0:
256,192,99163,1,8,0:0:0:0:
256,192,99242,1,8,0:0:0:0:
256,192,99400,1,0,0:0:0:0:
256,192,99479,1,0,0:0:0:0:
256,192,99558,1,0,0:0:0:0:
256,192,99716,1,0,0:0:0:0:
256,192,99874,1,8,0:0:0:0:
256,192,100189,1,8,0:0:0:0:
256,192,100347,1,0,0:0:0:0:
256,192,100663,1,8,0:0:0:0:
256,192,100821,1,0,0:0:0:0:
256,192,100979,1,0,0:0:0:0:
256,192,101058,1,0,0:0:0:0:
256,192,101137,1,8,0:0:0:0:
256,192,101295,1,0,0:0:0:0:
256,192,101452,1,8,0:0:0:0:
256,192,101768,1,4,0:0:0:0:
256,192,102005,1,4,0:0:0:0:
256,192,102242,1,4,0:0:0:0:
256,192,102400,1,6,0:0:0:0:
256,192,102873,1,8,0:0:0:0:
256,192,102952,1,8,0:0:0:0:
256,192,103031,1,0,0:0:0:0:
256,192,103189,1,0,0:0:0:0:
256,192,103346,1,8,0:0:0:0:
256,192,103504,1,0,0:0:0:0:
256,192,103583,1,0,0:0:0:0:
256,192,103662,1,0,0:0:0:0:
256,192,103820,1,0,0:0:0:0:
256,192,103978,1,8,0:0:0:0:
256,192,104057,1,8,0:0:0:0:
256,192,104136,1,0,0:0:0:0:
256,192,104215,1,0,0:0:0:0:
256,192,104294,1,8,0:0:0:0:
256,192,104610,1,0,0:0:0:0:
256,192,104767,1,0,0:0:0:0:
256,192,104846,1,0,0:0:0:0:
256,192,104925,1,8,0:0:0:0:
256,192,105083,1,0,0:0:0:0:
256,192,105241,1,8,0:0:0:0:
256,192,105320,1,0,0:0:0:0:
256,192,105399,1,0,0:0:0:0:
256,192,105478,1,8,0:0:0:0:
256,192,105557,1,0,0:0:0:0:
256,192,105715,1,0,0:0:0:0:
256,192,105794,1,0,0:0:0:0:
256,192,105873,1,0,0:0:0:0:
256,192,106031,1,0,0:0:0:0:
256,192,106189,1,8,0:0:0:0:
256,192,106346,1,0,0:0:0:0:
256,192,106425,1,0,0:0:0:0:
256,192,106504,1,8,0:0:0:0:
256,192,106662,1,0,0:0:0:0:
256,192,106820,1,8,0:0:0:0:
256,192,106899,1,8,0:0:0:0:
256,192,106978,1,0,0:0:0:0:
256,192,107136,1,0,0:0:0:0:
256,192,107452,1,8,0:0:0:0:
256,192,107610,1,0,0:0:0:0:
256,192,107689,1,0,0:0:0:0:
256,192,107767,1,8,0:0:0:0:
256,192,107846,1,8,0:0:0:0:
256,192,107925,1,0,0:0:0:0:
256,192,108083,1,0,0:0:0:0:
256,192,108162,1,0,0:0:0:0:
256,192,108241,1,0,0:0:0:0:
256,192,108399,1,8,0:0:0:0:
256,192,108478,1,8,0:0:0:0:
256,192,108557,1,8,0:0:0:0:
256,192,108715,1,0,0:0:0:0:
256,192,108873,1,0,0:0:0:0:
256,192,108952,1,0,0:0:0:0:
256,192,109031,1,8,0:0:0:0:
256,192,109110,1,8,0:0:0:0:
256,192,109189,1,0,0:0:0:0:
256,192,109346,1,0,0:0:0:0:
256,192,109425,1,0,0:0:0:0:
256,192,109504,1,0,0:0:0:0:
256,192,109662,1,8,0:0:0:0:
256,192,109741,1,8,0:0:0:0:
256,192,109820,1,8,0:0:0:0:
256,192,109978,1,8,0:0:0:0:
256,192,110057,1,0,0:0:0:0:
256,192,110136,1,0,0:0:0:0:
256,192,110215,1,8,0:0:0:0:
256,192,110294,1,0,0:0:0:0:
256,192,110452,1,8,0:0:0:0:
256,192,110610,1,0,0:0:0:0:
256,192,110767,1,8,0:0:0:0:
256,192,110925,1,0,0:0:0:0:
256,192,111004,1,0,0:0:0:0:
256,192,111083,1,0,0:0:0:0:
256,192,111241,1,0,0:0:0:0:
256,192,111399,1,8,0:0:0:0:
256,192,111557,1,8,0:0:0:0:
256,192,111715,1,0,0:0:0:0:
256,192,111794,1,8,0:0:0:0:
256,192,111873,1,8,0:0:0:0:
256,192,112031,1,8,0:0:0:0:
256,192,112189,1,0,0:0:0:0:
256,192,112267,1,8,0:0:0:0:
256,192,112346,1,0,0:0:0:0:
256,192,112504,1,8,0:0:0:0:
256,192,112978,1,8,0:0:0:0:
256,192,113057,1,8,0:0:0:0:
256,192,113136,1,0,0:0:0:0:
256,192,113294,1,0,0:0:0:0:
256,192,113451,1,8,0:0:0:0:
256,192,113609,1,0,0:0:0:0:
256,192,113688,1,0,0:0:0:0:
256,192,113767,1,0,0:0:0:0:
256,192,113925,1,0,0:0:0:0:
256,192,114083,1,8,0:0:0:0:
256,192,114162,1,8,0:0:0:0:
256,192,114241,1,0,0:0:0:0:
256,192,114320,1,0,0:0:0:0:
256,192,114399,1,8,0:0:0:0:
256,192,114715,1,0,0:0:0:0:
256,192,114872,1,0,0:0:0:0:
256,192,114951,1,0,0:0:0:0:
256,192,115030,1,8,0:0:0:0:
256,192,115188,1,0,0:0:0:0:
256,192,115346,1,8,0:0:0:0:
256,192,115425,1,0,0:0:0:0:
256,192,115504,1,0,0:0:0:0:
256,192,115583,1,8,0:0:0:0:
256,192,115662,1,0,0:0:0:0:
256,192,115820,1,0,0:0:0:0:
256,192,115899,1,0,0:0:0:0:
256,192,115978,1,0,0:0:0:0:
256,192,116136,1,0,0:0:0:0:
256,192,116294,1,8,0:0:0:0:
256,192,116451,1,0,0:0:0:0:
256,192,116530,1,0,0:0:0:0:
256,192,116609,1,8,0:0:0:0:
256,192,116767,1,0,0:0:0:0:
256,192,116925,1,8,0:0:0:0:
256,192,117004,1,8,0:0:0:0:
256,192,117083,1,0,0:0:0:0:
256,192,117241,1,0,0:0:0:0:
256,192,117557,1,8,0:0:0:0:
256,192,117715,1,0,0:0:0:0:
256,192,117794,1,0,0:0:0:0:
256,192,117872,1,8,0:0:0:0:
256,192,117951,1,8,0:0:0:0:
256,192,118030,1,0,0:0:0:0:
256,192,118188,1,0,0:0:0:0:
256,192,118267,1,0,0:0:0:0:
256,192,118346,1,0,0:0:0:0:
256,192,118504,1,8,0:0:0:0:
256,192,118583,1,8,0:0:0:0:
256,192,118662,1,8,0:0:0:0:
256,192,118820,1,0,0:0:0:0:
256,192,118978,1,0,0:0:0:0:
256,192,119057,1,0,0:0:0:0:
256,192,119136,1,8,0:0:0:0:
256,192,119215,1,8,0:0:0:0:
256,192,119294,1,0,0:0:0:0:
256,192,119451,1,0,0:0:0:0:
256,192,119530,1,0,0:0:0:0:
256,192,119609,1,0,0:0:0:0:
256,192,119767,1,8,0:0:0:0:
256,192,119846,1,8,0:0:0:0:
256,192,119925,1,8,0:0:0:0:
256,192,120083,1,8,0:0:0:0:
256,192,120162,1,0,0:0:0:0:
256,192,120241,1,0,0:0:0:0:
256,192,120320,1,8,0:0:0:0:
256,192,120399,1,0,0:0:0:0:
256,192,120557,1,8,0:0:0:0:
256,192,120715,1,0,0:0:0:0:
256,192,120872,1,8,0:0:0:0:
256,192,121030,1,0,0:0:0:0:
256,192,121109,1,0,0:0:0:0:
256,192,121188,1,0,0:0:0:0:
256,192,121346,1,0,0:0:0:0:
256,192,121504,1,8,0:0:0:0:
256,192,121662,1,8,0:0:0:0:
256,192,121820,1,0,0:0:0:0:
256,192,121899,1,8,0:0:0:0:
256,192,121978,1,8,0:0:0:0:
256,192,122136,1,8,0:0:0:0:
256,192,122294,1,0,0:0:0:0:
256,192,122372,1,8,0:0:0:0:
256,192,122451,1,0,0:0:0:0:
256,192,122610,1,4,0:0:0:0:
256,192,122926,1,8,0:0:0:0:
256,192,123084,1,0,0:0:0:0:
256,192,123400,1,0,0:0:0:0:
256,192,123557,1,8,0:0:0:0:
256,192,123873,1,8,0:0:0:0:
256,192,124031,1,8,0:0:0:0:
256,192,124347,1,8,0:0:0:0:
256,192,124505,1,0,0:0:0:0:
256,192,124821,1,0,0:0:0:0:
256,192,124978,1,8,0:0:0:0:
256,192,125768,1,8,0:0:0:0:
256,192,126400,1,0,0:0:0:0:
256,192,126557,1,8,0:0:0:0:
256,192,126715,1,0,0:0:0:0:
256,192,127031,1,8,0:0:0:0:
256,192,127663,1,0,0:0:0:0:
256,192,127978,1,8,0:0:0:0:
256,192,128136,1,0,0:0:0:0:
256,192,128452,1,0,0:0:0:0:
256,192,128610,1,8,0:0:0:0:
256,192,128926,1,8,0:0:0:0:
256,192,129084,1,8,0:0:0:0:
256,192,129400,1,8,0:0:0:0:
256,192,129557,1,0,0:0:0:0:
256,192,129873,1,0,0:0:0:0:
256,192,130031,1,8,0:0:0:0:
256,192,130663,1,8,0:0:0:0:
