osu file format v14

[General]
AudioFilename: seijin no tou An remix.mp3
AudioLeadIn: 0
PreviewTime: 72084
Countdown: 0
SampleSet: None
StackLeniency: 0.7
Mode: 1
LetterboxInBreaks: 0
WidescreenStoryboard: 1

[Editor]
DistanceSpacing: 0.7
BeatDivisor: 4
GridSize: 32
TimelineZoom: 2.06

[Metadata]
Title:Seijin no Tou (An remix)
TitleUnicode:聖人の塔 (An remix)
Artist:Beridzebeth
ArtistUnicode:Beridzebeth
Creator:Kunieda
Version:Inner Oni
Source:
Tags:iidx19 lincle kingdom battle track
BeatmapID:678579
BeatmapSetID:302782

[Difficulty]
HPDrainRate:5
CircleSize:5
OverallDifficulty:5
ApproachRate:5
SliderMultiplier:1.4
SliderTickRate:1

[Events]
//Background and Video events
0,0,"subterranean_city_by_boc0-d7zdnl7.jpg",0,0
//Break Periods
2,143021,151095
//Storyboard Layer 0 (Background)
//Storyboard Layer 1 (Fail)
//Storyboard Layer 2 (Pass)
//Storyboard Layer 3 (Foreground)
//Storyboard Sound Samples

[TimingPoints]
10210,315.789473684211,4,1,0,100,1,0
30400,315.789473684211,4,1,0,100,1,0
72084,-100,4,1,0,100,0,1
92294,-100,4,1,0,100,0,0
122610,-200,4,1,0,100,0,0
152294,-100,4,1,0,100,0,0
152926,-100,4,1,0,100,0,1
173136,-100,4,1,0,100,0,0

[HitObjects]
256,192,29788,5,8,0:0:0:0:
256,192,29867,1,8,0:0:0:0:
256,192,29946,1,8,0:0:0:0:
256,192,30025,1,8,0:0:0:0:
256,192,30104,1,8,0:0:0:0:
256,192,30183,1,8,0:0:0:0:
256,192,30262,1,8,0:0:0:0:
256,192,30400,1,4,0:0:0:0:
256,192,30557,1,8,0:0:0:0:
256,192,30715,1,8,0:0:0:0:
256,192,30794,1,0,0:0:0:0:
256,192,30873,1,8,0:0:0:0:
256,192,30952,1,8,0:0:0:0:
256,192,31031,1,0,0:0:0:0:
256,192,31189,1,8,0:0:0:0:
256,192,31347,1,8,0:0:0:0:
256,192,31426,1,0,0:0:0:0:
256,192,31505,1,8,0:0:0:0:
256,192,31584,1,8,0:0:0:0:
256,192,31663,1,0,0:0:0:0:
256,192,31742,1,0,0:0:0:0:
256,192,31821,1,0,0:0:0:0:
256,192,31900,1,8,0:0:0:0:
256,192,31979,1,8,0:0:0:0:
256,192,32058,1,0,0:0:0:0:
256,192,32137,1,8,0:0:0:0:
256,192,32216,1,0,0:0:0:0:
256,192,32295,1,0,0:0:0:0:
256,192,32374,1,8,0:0:0:0:
256,192,32453,1,8,0:0:0:0:
256,192,32532,1,8,0:0:0:0:
256,192,32611,1,0,0:0:0:0:
256,192,32690,1,8,0:0:0:0:
256,192,32768,1,0,0:0:0:0:
256,192,32847,1,0,0:0:0:0:
256,192,32926,1,0,0:0:0:0:
256,192,33085,1,8,0:0:0:0:
256,192,33242,1,8,0:0:0:0:
256,192,33321,1,0,0:0:0:0:
256,192,33400,1,8,0:0:0:0:
256,192,33479,1,8,0:0:0:0:
256,192,33558,1,0,0:0:0:0:
256,192,33716,1,0,0:0:0:0:
256,192,33873,1,0,0:0:0:0:
256,192,33953,1,0,0:0:0:0:
256,192,34032,1,8,0:0:0:0:
256,192,34111,1,0,0:0:0:0:
256,192,34190,1,0,0:0:0:0:
256,192,34268,1,0,0:0:0:0:
256,192,34347,1,8,0:0:0:0:
256,192,34426,1,8,0:0:0:0:
256,192,34505,1,0,0:0:0:0:
256,192,34584,1,0,0:0:0:0:
256,192,34663,1,8,0:0:0:0:
256,192,34742,1,0,0:0:0:0:
256,192,34821,1,0,0:0:0:0:
256,192,34900,1,8,0:0:0:0:
256,192,34979,1,0,0:0:0:0:
256,192,35058,1,0,0:0:0:0:
256,192,35137,1,8,0:0:0:0:
256,192,35216,1,8,0:0:0:0:
256,192,35295,1,0,0:0:0:0:
256,192,35374,1,0,0:0:0:0:
256,192,35453,1,8,0:0:0:0:
256,192,35611,1,0,0:0:0:0:
256,192,35768,1,8,0:0:0:0:
256,192,35847,1,0,0:0:0:0:
256,192,35926,1,8,0:0:0:0:
256,192,36005,1,8,0:0:0:0:
256,192,36084,1,0,0:0:0:0:
256,192,36242,1,8,0:0:0:0:
256,192,36399,1,0,0:0:0:0:
256,192,36478,1,0,0:0:0:0:
256,192,36557,1,8,0:0:0:0:
256,192,36636,1,8,0:0:0:0:
256,192,36715,1,0,0:0:0:0:
256,192,36794,1,0,0:0:0:0:
256,192,36873,1,8,0:0:0:0:
256,192,36952,1,0,0:0:0:0:
256,192,37031,1,0,0:0:0:0:
256,192,37110,1,8,0:0:0:0:
256,192,37189,1,8,0:0:0:0:
256,192,37267,1,0,0:0:0:0:
256,192,37346,1,8,0:0:0:0:
256,192,37425,1,8,0:0:0:0:
256,192,37504,1,0,0:0:0:0:
256,192,37583,1,0,0:0:0:0:
256,192,37662,1,0,0:0:0:0:
256,192,37741,1,8,0:0:0:0:
256,192,37820,1,0,0:0:0:0:
256,192,37899,1,8,0:0:0:0:
256,192,37978,1,0,0:0:0:0:
256,192,38136,1,0,0:0:0:0:
256,192,38294,1,8,0:0:0:0:
256,192,38373,1,0,0:0:0:0:
256,192,38452,1,8,0:0:0:0:
256,192,38531,1,8,0:0:0:0:
256,192,38610,1,0,0:0:0:0:
256,192,38767,1,8,0:0:0:0:
256,192,38925,1,0,0:0:0:0:
256,192,39004,1,8,0:0:0:0:
256,192,39083,1,8,0:0:0:0:
256,192,39162,1,0,0:0:0:0:
256,192,39241,1,8,0:0:0:0:
256,192,39320,1,8,0:0:0:0:
256,192,39399,1,0,0:0:0:0:
256,192,39478,1,0,0:0:0:0:
256,192,39557,1,8,0:0:0:0:
256,192,39636,1,0,0:0:0:0:
256,192,39715,1,8,0:0:0:0:
256,192,39794,1,0,0:0:0:0:
256,192,39873,1,0,0:0:0:0:
256,192,39952,1,0,0:0:0:0:
256,192,40031,1,0,0:0:0:0:
256,192,40110,1,8,0:0:0:0:
256,192,40189,1,0,0:0:0:0:
256,192,40267,1,8,0:0:0:0:
256,192,40346,1,8,0:0:0:0:
256,192,40425,1,8,0:0:0:0:
256,192,40504,1,0,0:0:0:0:
256,192,40662,1,0,0:0:0:0:
256,192,40820,1,8,0:0:0:0:
256,192,40899,1,0,0:0:0:0:
256,192,40978,1,8,0:0:0:0:
256,192,41057,1,8,0:0:0:0:
256,192,41136,1,0,0:0:0:0:
256,192,41294,1,8,0:0:0:0:
256,192,41452,1,0,0:0:0:0:
256,192,41532,1,0,0:0:0:0:
256,192,41611,1,8,0:0:0:0:
256,192,41690,1,0,0:0:0:0:
256,192,41767,1,0,0:0:0:0:
256,192,41847,1,0,0:0:0:0:
256,192,41926,1,8,0:0:0:0:
256,192,42005,1,8,0:0:0:0:
256,192,42084,1,0,0:0:0:0:
256,192,42163,1,0,0:0:0:0:
256,192,42242,1,8,0:0:0:0:
256,192,42321,1,0,0:0:0:0:
256,192,42400,1,0,0:0:0:0:
256,192,42479,1,8,0:0:0:0:
256,192,42558,1,0,0:0:0:0:
256,192,42637,1,0,0:0:0:0:
256,192,42716,1,8,0:0:0:0:
256,192,42795,1,8,0:0:0:0:
256,192,42874,1,0,0:0:0:0:
256,192,42953,1,0,0:0:0:0:
256,192,43032,1,8,0:0:0:0:
256,192,43190,1,0,0:0:0:0:
256,192,43347,1,8,0:0:0:0:
256,192,43426,1,0,0:0:0:0:
256,192,43505,1,8,0:0:0:0:
256,192,43584,1,8,0:0:0:0:
256,192,43663,1,0,0:0:0:0:
256,192,43821,1,8,0:0:0:0:
256,192,43978,1,8,0:0:0:0:
256,192,44058,1,0,0:0:0:0:
256,192,44137,1,8,0:0:0:0:
256,192,44216,1,8,0:0:0:0:
256,192,44295,1,0,0:0:0:0:
256,192,44373,1,0,0:0:0:0:
256,192,44452,1,8,0:0:0:0:
256,192,44531,1,8,0:0:0:0:
256,192,44610,1,0,0:0:0:0:
256,192,44689,1,0,0:0:0:0:
256,192,44768,1,8,0:0:0:0:
256,192,44847,1,8,0:0:0:0:
256,192,44925,1,8,0:0:0:0:
256,192,45005,1,0,0:0:0:0:
256,192,45084,1,8,0:0:0:0:
256,192,45163,1,0,0:0:0:0:
256,192,45242,1,8,0:0:0:0:
256,192,45321,1,8,0:0:0:0:
256,192,45400,1,0,0:0:0:0:
256,192,45479,1,0,0:0:0:0:
256,192,45558,1,8,0:0:0:0:
256,192,45716,1,0,0:0:0:0:
256,192,45873,1,8,0:0:0:0:
256,192,45952,1,0,0:0:0:0:
256,192,46031,1,8,0:0:0:0:
256,192,46110,1,8,0:0:0:0:
256,192,46189,1,0,0:0:0:0:
256,192,46347,1,0,0:0:0:0:
256,192,46505,1,0,0:0:0:0:
256,192,46584,1,8,0:0:0:0:
256,192,46663,1,8,0:0:0:0:
256,192,46742,1,0,0:0:0:0:
256,192,46821,1,8,0:0:0:0:
256,192,46900,1,8,0:0:0:0:
256,192,46979,1,0,0:0:0:0:
256,192,47058,1,0,0:0:0:0:
256,192,47137,1,8,0:0:0:0:
256,192,47216,1,0,0:0:0:0:
256,192,47295,1,8,0:0:0:0:
256,192,47374,1,0,0:0:0:0:
256,192,47453,1,0,0:0:0:0:
256,192,47532,1,0,0:0:0:0:
256,192,47611,1,0,0:0:0:0:
256,192,47690,1,8,0:0:0:0:
256,192,47769,1,0,0:0:0:0:
256,192,47847,1,8,0:0:0:0:
256,192,47926,1,8,0:0:0:0:
256,192,48005,1,8,0:0:0:0:
256,192,48084,1,0,0:0:0:0:
256,192,48242,1,0,0:0:0:0:
256,192,48400,1,8,0:0:0:0:
256,192,48479,1,0,0:0:0:0:
256,192,48558,1,8,0:0:0:0:
256,192,48637,1,8,0:0:0:0:
256,192,48716,1,0,0:0:0:0:
256,192,48874,1,0,0:0:0:0:
256,192,49032,1,8,0:0:0:0:
256,192,49111,1,0,0:0:0:0:
256,192,49190,1,0,0:0:0:0:
256,192,49347,5,0,0:0:0:0:
256,192,49426,1,0,0:0:0:0:
256,192,49505,1,0,0:0:0:0:
256,192,49584,1,0,0:0:0:0:
256,192,49663,1,8,0:0:0:0:
256,192,49742,1,0,0:0:0:0:
256,192,49821,1,8,0:0:0:0:
256,192,49900,1,8,0:0:0:0:
256,192,49979,1,8,0:0:0:0:
256,192,50058,1,0,0:0:0:0:
256,192,50137,1,0,0:0:0:0:
256,192,50216,1,8,0:0:0:0:
256,192,50295,1,0,0:0:0:0:
256,192,50374,1,8,0:0:0:0:
256,192,50453,1,8,0:0:0:0:
256,192,50532,1,8,0:0:0:0:
256,192,50611,1,0,0:0:0:0:
256,192,50926,1,0,0:0:0:0:
256,192,51084,1,0,0:0:0:0:
256,192,51163,1,0,0:0:0:0:
256,192,51242,1,0,0:0:0:0:
256,192,51400,1,0,0:0:0:0:
256,192,51558,1,8,0:0:0:0:
256,192,51637,1,8,0:0:0:0:
256,192,51716,1,8,0:0:0:0:
256,192,51874,1,0,0:0:0:0:
256,192,52032,1,8,0:0:0:0:
256,192,52190,1,0,0:0:0:0:
256,192,52268,1,0,0:0:0:0:
256,192,52347,1,0,0:0:0:0:
256,192,52426,1,0,0:0:0:0:
256,192,52505,1,8,0:0:0:0:
256,192,52821,1,8,0:0:0:0:
256,192,52900,1,0,0:0:0:0:
256,192,52979,1,8,0:0:0:0:
256,192,53058,1,0,0:0:0:0:
256,192,53137,1,0,0:0:0:0:
256,192,53216,1,0,0:0:0:0:
256,192,53295,1,0,0:0:0:0:
256,192,53374,1,8,0:0:0:0:
256,192,53453,1,8,0:0:0:0:
256,192,53532,1,0,0:0:0:0:
256,192,53611,1,8,0:0:0:0:
256,192,53690,1,8,0:0:0:0:
256,192,53768,1,0,0:0:0:0:
256,192,53847,1,0,0:0:0:0:
256,192,53926,1,8,0:0:0:0:
256,192,54005,1,0,0:0:0:0:
256,192,54084,1,8,0:0:0:0:
256,192,54163,1,0,0:0:0:0:
256,192,54242,1,8,0:0:0:0:
256,192,54321,1,8,0:0:0:0:
256,192,54400,1,0,0:0:0:0:
256,192,54716,1,0,0:0:0:0:
256,192,55032,1,8,0:0:0:0:
256,192,55347,1,8,0:0:0:0:
256,192,55663,1,0,0:0:0:0:
256,192,55821,1,0,0:0:0:0:
256,192,55900,1,0,0:0:0:0:
256,192,55979,1,8,0:0:0:0:
256,192,56058,1,0,0:0:0:0:
256,192,56137,1,0,0:0:0:0:
256,192,56295,1,0,0:0:0:0:
256,192,56374,1,0,0:0:0:0:
256,192,56453,1,8,0:0:0:0:
256,192,56532,1,8,0:0:0:0:
256,192,56611,1,0,0:0:0:0:
256,192,56690,1,8,0:0:0:0:
256,192,56768,1,0,0:0:0:0:
256,192,56926,1,0,0:0:0:0:
256,192,57084,1,0,0:0:0:0:
256,192,57163,1,0,0:0:0:0:
256,192,57242,1,8,0:0:0:0:
256,192,57321,1,0,0:0:0:0:
256,192,57400,1,0,0:0:0:0:
256,192,57558,1,8,0:0:0:0:
256,192,57637,1,0,0:0:0:0:
256,192,57716,1,8,0:0:0:0:
256,192,57795,1,0,0:0:0:0:
256,192,57874,1,0,0:0:0:0:
256,192,57953,1,8,0:0:0:0:
256,192,58031,1,8,0:0:0:0:
256,192,58190,1,8,0:0:0:0:
256,192,58269,1,0,0:0:0:0:
256,192,58348,1,0,0:0:0:0:
256,192,58427,1,8,0:0:0:0:
256,192,58506,1,8,0:0:0:0:
256,192,58585,1,0,0:0:0:0:
256,192,58663,1,8,0:0:0:0:
256,192,58742,1,8,0:0:0:0:
256,192,58821,1,0,0:0:0:0:
256,192,58900,1,0,0:0:0:0:
256,192,58979,1,0,0:0:0:0:
256,192,59137,1,8,0:0:0:0:
256,192,59295,1,8,0:0:0:0:
256,192,59453,1,0,0:0:0:0:
256,192,59611,1,0,0:0:0:0:
256,192,59690,1,0,0:0:0:0:
256,192,59768,1,8,0:0:0:0:
256,192,59926,1,0,0:0:0:0:
256,192,60084,1,8,0:0:0:0:
256,192,60163,1,0,0:0:0:0:
256,192,60242,1,0,0:0:0:0:
256,192,60321,1,8,0:0:0:0:
256,192,60400,1,8,0:0:0:0:
256,192,60479,1,8,0:0:0:0:
256,192,60558,1,8,0:0:0:0:
256,192,60637,1,8,0:0:0:0:
256,192,60716,1,0,0:0:0:0:
256,192,61031,1,0,0:0:0:0:
256,192,61190,1,0,0:0:0:0:
256,192,61268,1,0,0:0:0:0:
256,192,61347,1,0,0:0:0:0:
256,192,61505,1,0,0:0:0:0:
256,192,61664,1,8,0:0:0:0:
256,192,61743,1,8,0:0:0:0:
256,192,61822,1,8,0:0:0:0:
256,192,61978,1,0,0:0:0:0:
256,192,62136,1,8,0:0:0:0:
256,192,62294,1,0,0:0:0:0:
256,192,62372,1,0,0:0:0:0:
256,192,62451,1,0,0:0:0:0:
256,192,62530,1,0,0:0:0:0:
256,192,62609,1,8,0:0:0:0:
256,192,62926,1,8,0:0:0:0:
256,192,63005,1,0,0:0:0:0:
256,192,63084,1,8,0:0:0:0:
256,192,63163,1,0,0:0:0:0:
256,192,63242,1,0,0:0:0:0:
256,192,63321,1,0,0:0:0:0:
256,192,63400,1,0,0:0:0:0:
256,192,63479,1,8,0:0:0:0:
256,192,63558,1,8,0:0:0:0:
256,192,63637,1,0,0:0:0:0:
256,192,63716,1,8,0:0:0:0:
256,192,63795,1,8,0:0:0:0:
256,192,63873,1,0,0:0:0:0:
256,192,63952,1,0,0:0:0:0:
256,192,64031,1,8,0:0:0:0:
256,192,64110,1,0,0:0:0:0:
256,192,64189,1,8,0:0:0:0:
256,192,64268,1,0,0:0:0:0:
256,192,64347,1,8,0:0:0:0:
256,192,64426,1,8,0:0:0:0:
256,192,64505,1,0,0:0:0:0:
256,192,64821,1,0,0:0:0:0:
256,192,65137,1,8,0:0:0:0:
256,192,65452,1,8,0:0:0:0:
256,192,65768,1,0,0:0:0:0:
256,192,65926,1,0,0:0:0:0:
256,192,66005,1,0,0:0:0:0:
256,192,66084,1,8,0:0:0:0:
256,192,66163,1,0,0:0:0:0:
256,192,66242,1,0,0:0:0:0:
256,192,66400,1,0,0:0:0:0:
256,192,66479,1,0,0:0:0:0:
256,192,66558,1,8,0:0:0:0:
256,192,66637,1,8,0:0:0:0:
256,192,66716,1,0,0:0:0:0:
256,192,66795,1,8,0:0:0:0:
256,192,66873,1,0,0:0:0:0:
256,192,67031,1,0,0:0:0:0:
256,192,67189,1,0,0:0:0:0:
256,192,67268,1,0,0:0:0:0:
256,192,67347,1,8,0:0:0:0:
256,192,67426,1,0,0:0:0:0:
256,192,67505,1,0,0:0:0:0:
256,192,67663,1,8,0:0:0:0:
256,192,67742,1,0,0:0:0:0:
256,192,67821,1,8,0:0:0:0:
256,192,67900,1,0,0:0:0:0:
256,192,67979,1,0,0:0:0:0:
256,192,68058,1,8,0:0:0:0:
256,192,68136,1,8,0:0:0:0:
256,192,68295,1,8,0:0:0:0:
256,192,68374,1,0,0:0:0:0:
256,192,68453,1,0,0:0:0:0:
256,192,68532,1,8,0:0:0:0:
256,192,68611,1,8,0:0:0:0:
256,192,68690,1,0,0:0:0:0:
256,192,68768,1,8,0:0:0:0:
256,192,68847,1,8,0:0:0:0:
256,192,68926,1,0,0:0:0:0:
256,192,69005,1,0,0:0:0:0:
256,192,69084,1,0,0:0:0:0:
256,192,69242,1,8,0:0:0:0:
256,192,69400,1,8,0:0:0:0:
256,192,69558,1,0,0:0:0:0:
256,192,69716,1,0,0:0:0:0:
256,192,69795,1,0,0:0:0:0:
256,192,69873,1,8,0:0:0:0:
256,192,70031,1,0,0:0:0:0:
256,192,70189,1,8,0:0:0:0:
256,192,70268,1,0,0:0:0:0:
256,192,70347,1,0,0:0:0:0:
256,192,70426,1,8,0:0:0:0:
256,192,70505,1,8,0:0:0:0:
256,192,70584,1,8,0:0:0:0:
256,192,70663,1,8,0:0:0:0:
256,192,70742,1,0,0:0:0:0:
256,192,72084,1,4,0:0:0:0:
256,192,72399,1,8,0:0:0:0:
256,192,72478,1,8,0:0:0:0:
256,192,72557,1,8,0:0:0:0:
256,192,72636,1,0,0:0:0:0:
256,192,72715,1,0,0:0:0:0:
256,192,72873,1,0,0:0:0:0:
256,192,72952,1,0,0:0:0:0:
256,192,73031,1,8,0:0:0:0:
256,192,73110,1,0,0:0:0:0:
256,192,73189,1,8,0:0:0:0:
256,192,73267,1,8,0:0:0:0:
256,192,73346,1,0,0:0:0:0:
256,192,73504,1,8,0:0:0:0:
256,192,73583,1,8,0:0:0:0:
256,192,73662,1,8,0:0:0:0:
256,192,73741,1,8,0:0:0:0:
256,192,73820,1,0,0:0:0:0:
256,192,73899,1,0,0:0:0:0:
256,192,73978,1,8,0:0:0:0:
256,192,74295,1,8,0:0:0:0:
256,192,74374,1,0,0:0:0:0:
256,192,74453,1,0,0:0:0:0:
256,192,74532,1,0,0:0:0:0:
256,192,74611,1,8,0:0:0:0:
256,192,74690,1,0,0:0:0:0:
256,192,74768,1,0,0:0:0:0:
256,192,74847,1,8,0:0:0:0:
256,192,74926,1,0,0:0:0:0:
256,192,75005,1,0,0:0:0:0:
256,192,75084,1,8,0:0:0:0:
256,192,75163,1,0,0:0:0:0:
256,192,75242,1,8,0:0:0:0:
256,192,75321,1,8,0:0:0:0:
256,192,75400,1,0,0:0:0:0:
256,192,75479,1,8,0:0:0:0:
256,192,75558,1,0,0:0:0:0:
256,192,75637,1,0,0:0:0:0:
256,192,75716,1,0,0:0:0:0:
256,192,75874,1,0,0:0:0:0:
256,192,76032,1,0,0:0:0:0:
256,192,76111,1,0,0:0:0:0:
256,192,76190,1,8,0:0:0:0:
256,192,76347,1,0,0:0:0:0:
256,192,76505,1,8,0:0:0:0:
256,192,76584,1,8,0:0:0:0:
256,192,76663,1,0,0:0:0:0:
256,192,76821,1,8,0:0:0:0:
256,192,77136,1,0,0:0:0:0:
256,192,77294,1,0,0:0:0:0:
256,192,77373,1,0,0:0:0:0:
256,192,77452,1,8,0:0:0:0:
256,192,77531,1,0,0:0:0:0:
256,192,77610,1,0,0:0:0:0:
256,192,77767,1,0,0:0:0:0:
256,192,77846,1,0,0:0:0:0:
256,192,77925,1,8,0:0:0:0:
256,192,78004,1,0,0:0:0:0:
256,192,78083,1,8,0:0:0:0:
256,192,78162,1,8,0:0:0:0:
256,192,78241,1,0,0:0:0:0:
256,192,78399,1,0,0:0:0:0:
256,192,78557,1,0,0:0:0:0:
256,192,78636,1,0,0:0:0:0:
256,192,78715,1,8,0:0:0:0:
256,192,78794,1,0,0:0:0:0:
256,192,78873,1,0,0:0:0:0:
256,192,79031,1,0,0:0:0:0:
256,192,79110,1,0,0:0:0:0:
256,192,79189,1,8,0:0:0:0:
256,192,79267,1,0,0:0:0:0:
256,192,79346,1,8,0:0:0:0:
256,192,79425,1,8,0:0:0:0:
256,192,79504,1,0,0:0:0:0:
256,192,79662,1,8,0:0:0:0:
256,192,79741,1,8,0:0:0:0:
256,192,79820,1,8,0:0:0:0:
256,192,79899,1,8,0:0:0:0:
256,192,79978,1,0,0:0:0:0:
256,192,80057,1,0,0:0:0:0:
256,192,80136,1,0,0:0:0:0:
256,192,80215,1,0,0:0:0:0:
256,192,80294,1,8,0:0:0:0:
256,192,80373,1,8,0:0:0:0:
256,192,80452,1,8,0:0:0:0:
256,192,80531,1,0,0:0:0:0:
256,192,80610,1,0,0:0:0:0:
256,192,80689,1,8,0:0:0:0:
256,192,80767,1,0,0:0:0:0:
256,192,80846,1,8,0:0:0:0:
256,192,80925,1,0,0:0:0:0:
256,192,81004,1,0,0:0:0:0:
256,192,81083,1,8,0:0:0:0:
256,192,81162,1,0,0:0:0:0:
256,192,81241,1,8,0:0:0:0:
256,192,81320,1,8,0:0:0:0:
256,192,81399,1,0,0:0:0:0:
256,192,81478,1,0,0:0:0:0:
256,192,81557,1,8,0:0:0:0:
256,192,81636,1,8,0:0:0:0:
256,192,81715,1,0,0:0:0:0:
256,192,81794,1,0,0:0:0:0:
256,192,81873,1,8,0:0:0:0:
256,192,81952,1,8,0:0:0:0:
256,192,82031,1,0,0:0:0:0:
256,192,82110,1,0,0:0:0:0:
256,192,82189,1,8,0:0:0:0:
256,192,82505,1,0,0:0:0:0:
256,192,82663,1,0,0:0:0:0:
256,192,82742,1,0,0:0:0:0:
256,192,82821,1,0,0:0:0:0:
256,192,82979,1,8,0:0:0:0:
256,192,83137,1,0,0:0:0:0:
256,192,83216,1,8,0:0:0:0:
256,192,83295,1,8,0:0:0:0:
256,192,83374,1,8,0:0:0:0:
256,192,83453,1,0,0:0:0:0:
256,192,83611,1,0,0:0:0:0:
256,192,83768,1,0,0:0:0:0:
256,192,83847,1,0,0:0:0:0:
256,192,83926,1,8,0:0:0:0:
256,192,84084,1,0,0:0:0:0:
256,192,84400,1,0,0:0:0:0:
256,192,84479,1,0,0:0:0:0:
256,192,84558,1,8,0:0:0:0:
256,192,84637,1,0,0:0:0:0:
256,192,84716,1,8,0:0:0:0:
256,192,84795,1,8,0:0:0:0:
256,192,84874,1,0,0:0:0:0:
256,192,84953,1,0,0:0:0:0:
256,192,85032,1,8,0:0:0:0:
256,192,85111,1,0,0:0:0:0:
256,192,85190,1,8,0:0:0:0:
256,192,85268,1,8,0:0:0:0:
256,192,85347,1,0,0:0:0:0:
256,192,85426,1,0,0:0:0:0:
256,192,85505,1,0,0:0:0:0:
256,192,85584,1,0,0:0:0:0:
256,192,85663,1,8,0:0:0:0:
256,192,85742,1,8,0:0:0:0:
256,192,85821,1,0,0:0:0:0:
256,192,85979,1,8,0:0:0:0:
256,192,86137,1,0,0:0:0:0:
256,192,86216,1,0,0:0:0:0:
256,192,86295,1,8,0:0:0:0:
256,192,86453,1,0,0:0:0:0:
256,192,86611,1,8,0:0:0:0:
256,192,86690,1,8,0:0:0:0:
256,192,86768,1,0,0:0:0:0:
256,192,86926,1,0,0:0:0:0:
256,192,87242,1,8,0:0:0:0:
256,192,87400,1,0,0:0:0:0:
256,192,87479,1,0,0:0:0:0:
256,192,87558,1,8,0:0:0:0:
256,192,87637,1,0,0:0:0:0:
256,192,87716,1,0,0:0:0:0:
256,192,87874,1,0,0:0:0:0:
256,192,87953,1,8,0:0:0:0:
256,192,88032,1,0,0:0:0:0:
256,192,88111,1,8,0:0:0:0:
256,192,88190,1,8,0:0:0:0:
256,192,88268,1,0,0:0:0:0:
256,192,88347,1,8,0:0:0:0:
256,192,88505,1,0,0:0:0:0:
256,192,88663,1,0,0:0:0:0:
256,192,88742,1,0,0:0:0:0:
256,192,88821,1,8,0:0:0:0:
256,192,88900,1,0,0:0:0:0:
256,192,88979,1,0,0:0:0:0:
256,192,89137,1,8,0:0:0:0:
256,192,89295,1,0,0:0:0:0:
256,192,89374,1,0,0:0:0:0:
256,192,89453,1,8,0:0:0:0:
256,192,89611,1,0,0:0:0:0:
256,192,89768,1,8,0:0:0:0:
256,192,89847,1,0,0:0:0:0:
256,192,89926,1,0,0:0:0:0:
256,192,90005,1,0,0:0:0:0:
256,192,90084,1,8,0:0:0:0:
256,192,90163,1,8,0:0:0:0:
256,192,90242,1,0,0:0:0:0:
256,192,90321,1,0,0:0:0:0:
256,192,90400,1,8,0:0:0:0:
256,192,90479,1,0,0:0:0:0:
256,192,90558,1,0,0:0:0:0:
256,192,90637,1,8,0:0:0:0:
256,192,90716,1,8,0:0:0:0:
256,192,90795,1,0,0:0:0:0:
256,192,90874,1,8,0:0:0:0:
256,192,90953,1,0,0:0:0:0:
256,192,91032,1,0,0:0:0:0:
256,192,91111,1,0,0:0:0:0:
256,192,91190,1,0,0:0:0:0:
256,192,91268,1,0,0:0:0:0:
256,192,91347,1,8,0:0:0:0:
256,192,91426,1,0,0:0:0:0:
256,192,91505,1,8,0:0:0:0:
256,192,91584,1,8,0:0:0:0:
256,192,91663,1,0,0:0:0:0:
256,192,91742,1,8,0:0:0:0:
256,192,91821,1,0,0:0:0:0:
256,192,91900,1,8,0:0:0:0:
256,192,91979,1,0,0:0:0:0:
256,192,92058,1,0,0:0:0:0:
256,192,92137,1,8,0:0:0:0:
256,192,92295,1,4,0:0:0:0:
256,192,92610,1,8,0:0:0:0:
256,192,92768,1,0,0:0:0:0:
256,192,92847,1,0,0:0:0:0:
256,192,92926,1,8,0:0:0:0:
256,192,93005,1,0,0:0:0:0:
256,192,93084,1,8,0:0:0:0:
256,192,93163,1,8,0:0:0:0:
256,192,93242,1,0,0:0:0:0:
256,192,93321,1,0,0:0:0:0:
256,192,93400,1,8,0:0:0:0:
256,192,93479,1,0,0:0:0:0:
256,192,93558,1,8,0:0:0:0:
256,192,93637,1,0,0:0:0:0:
256,192,93716,1,0,0:0:0:0:
256,192,93795,1,8,0:0:0:0:
256,192,93874,1,0,0:0:0:0:
256,192,94031,1,8,0:0:0:0:
256,192,94109,1,0,0:0:0:0:
256,192,94189,1,8,0:0:0:0:
256,192,94268,1,8,0:0:0:0:
256,192,94347,1,0,0:0:0:0:
256,192,94426,1,0,0:0:0:0:
256,192,94504,1,8,0:0:0:0:
256,192,94583,1,0,0:0:0:0:
256,192,94663,1,0,0:0:0:0:
256,192,94821,1,8,0:0:0:0:
256,192,94900,1,8,0:0:0:0:
256,192,94979,1,8,0:0:0:0:
256,192,95058,1,0,0:0:0:0:
256,192,95137,1,0,0:0:0:0:
256,192,95216,1,0,0:0:0:0:
256,192,95295,1,8,0:0:0:0:
256,192,95374,1,0,0:0:0:0:
256,192,95453,1,8,0:0:0:0:
256,192,95532,1,8,0:0:0:0:
256,192,95611,1,0,0:0:0:0:
256,192,95689,1,0,0:0:0:0:
256,192,95767,1,0,0:0:0:0:
256,192,95846,1,0,0:0:0:0:
256,192,95925,1,8,0:0:0:0:
256,192,96004,1,8,0:0:0:0:
256,192,96083,1,0,0:0:0:0:
256,192,96163,1,0,0:0:0:0:
256,192,96242,1,8,0:0:0:0:
256,192,96321,1,0,0:0:0:0:
256,192,96400,1,8,0:0:0:0:
256,192,96479,1,8,0:0:0:0:
256,192,96558,1,0,0:0:0:0:
256,192,96716,1,4,0:0:0:0:
256,192,96952,1,4,0:0:0:0:
256,192,97189,1,12,0:0:0:0:
256,192,97346,1,4,0:0:0:0:
256,192,97662,1,0,0:0:0:0:
256,192,97821,1,0,0:0:0:0:
256,192,97900,1,0,0:0:0:0:
256,192,97978,1,8,0:0:0:0:
256,192,98136,1,8,0:0:0:0:
256,192,98214,1,0,0:0:0:0:
256,192,98294,1,8,0:0:0:0:
256,192,98373,1,8,0:0:0:0:
256,192,98452,1,8,0:0:0:0:
256,192,98531,1,0,0:0:0:0:
256,192,98609,1,8,0:0:0:0:
256,192,98688,1,8,0:0:0:0:
256,192,98768,1,0,0:0:0:0:
256,192,98847,1,0,0:0:0:0:
256,192,98926,1,0,0:0:0:0:
256,192,99005,1,0,0:0:0:0:
256,192,99084,1,8,0:0:0:0:
256,192,99163,1,0,0:0:0:0:
256,192,99242,1,8,0:0:0:0:
256,192,99321,1,8,0:0:0:0:
256,192,99400,1,8,0:0:0:0:
256,192,99478,1,0,0:0:0:0:
256,192,99557,1,0,0:0:0:0:
256,192,99636,1,0,0:0:0:0:
256,192,99715,1,0,0:0:0:0:
256,192,99874,1,8,0:0:0:0:
256,192,99953,1,8,0:0:0:0:
256,192,100032,1,8,0:0:0:0:
256,192,100111,1,8,0:0:0:0:
256,192,100190,1,0,0:0:0:0:
256,192,100268,1,0,0:0:0:0:
256,192,100347,1,8,0:0:0:0:
256,192,100426,1,0,0:0:0:0:
256,192,100505,1,8,0:0:0:0:
256,192,100584,1,8,0:0:0:0:
256,192,100663,1,0,0:0:0:0:
256,192,100742,1,0,0:0:0:0:
256,192,100821,1,8,0:0:0:0:
256,192,100900,1,0,0:0:0:0:
256,192,100979,1,8,0:0:0:0:
256,192,101058,1,8,0:0:0:0:
256,192,101137,1,8,0:0:0:0:
256,192,101216,1,0,0:0:0:0:
256,192,101295,1,0,0:0:0:0:
256,192,101374,1,8,0:0:0:0:
256,192,101453,1,0,0:0:0:0:
256,192,101532,1,0,0:0:0:0:
256,192,101611,1,0,0:0:0:0:
256,192,101768,1,4,0:0:0:0:
256,192,102005,1,4,0:0:0:0:
256,192,102242,1,12,0:0:0:0:
256,192,102400,1,4,0:0:0:0:
256,192,102873,1,8,0:0:0:0:
256,192,103662,1,0,0:0:0:0:
256,192,104136,1,0,0:0:0:0:
256,192,104925,1,8,0:0:0:0:
256,192,105399,1,0,0:0:0:0:
256,192,106189,1,0,0:0:0:0:
256,192,106662,1,8,0:0:0:0:
256,192,107136,1,0,0:0:0:0:
256,192,107452,1,0,0:0:0:0:
256,192,107925,1,8,0:0:0:0:
256,192,108715,1,0,0:0:0:0:
256,192,109189,1,8,0:0:0:0:
256,192,109978,1,0,0:0:0:0:
256,192,110452,1,8,0:0:0:0:
256,192,111241,1,8,0:0:0:0:
256,192,111715,1,0,0:0:0:0:
256,192,112504,1,4,0:0:0:0:
256,192,112820,1,8,0:0:0:0:
256,192,112899,1,8,0:0:0:0:
256,192,112978,1,8,0:0:0:0:
256,192,113057,1,0,0:0:0:0:
256,192,113136,1,0,0:0:0:0:
256,192,113294,1,0,0:0:0:0:
256,192,113373,1,0,0:0:0:0:
256,192,113452,1,8,0:0:0:0:
256,192,113531,1,0,0:0:0:0:
256,192,113610,1,8,0:0:0:0:
256,192,113688,1,8,0:0:0:0:
256,192,113767,1,0,0:0:0:0:
256,192,113925,1,8,0:0:0:0:
256,192,114004,1,8,0:0:0:0:
256,192,114083,1,8,0:0:0:0:
256,192,114162,1,8,0:0:0:0:
256,192,114241,1,0,0:0:0:0:
256,192,114320,1,0,0:0:0:0:
256,192,114399,1,8,0:0:0:0:
256,192,114715,1,8,0:0:0:0:
256,192,114794,1,0,0:0:0:0:
256,192,114873,1,0,0:0:0:0:
256,192,114952,1,0,0:0:0:0:
256,192,115031,1,8,0:0:0:0:
256,192,115110,1,0,0:0:0:0:
256,192,115188,1,0,0:0:0:0:
256,192,115267,1,8,0:0:0:0:
256,192,115346,1,0,0:0:0:0:
256,192,115425,1,0,0:0:0:0:
256,192,115504,1,8,0:0:0:0:
256,192,115583,1,0,0:0:0:0:
256,192,115662,1,8,0:0:0:0:
256,192,115741,1,8,0:0:0:0:
256,192,115820,1,0,0:0:0:0:
256,192,115899,1,8,0:0:0:0:
256,192,115978,1,0,0:0:0:0:
256,192,116057,1,0,0:0:0:0:
256,192,116136,1,0,0:0:0:0:
256,192,116294,1,0,0:0:0:0:
256,192,116452,1,0,0:0:0:0:
256,192,116531,1,0,0:0:0:0:
256,192,116610,1,8,0:0:0:0:
256,192,116767,1,0,0:0:0:0:
256,192,116925,1,8,0:0:0:0:
256,192,117004,1,8,0:0:0:0:
256,192,117083,1,0,0:0:0:0:
256,192,117241,1,8,0:0:0:0:
256,192,117557,1,0,0:0:0:0:
256,192,117715,1,0,0:0:0:0:
256,192,117794,1,0,0:0:0:0:
256,192,117873,1,8,0:0:0:0:
256,192,117952,1,0,0:0:0:0:
256,192,118031,1,0,0:0:0:0:
256,192,118188,1,0,0:0:0:0:
256,192,118267,1,0,0:0:0:0:
256,192,118346,1,8,0:0:0:0:
256,192,118425,1,0,0:0:0:0:
256,192,118504,1,8,0:0:0:0:
256,192,118583,1,8,0:0:0:0:
256,192,118662,1,0,0:0:0:0:
256,192,118820,1,0,0:0:0:0:
256,192,118978,1,0,0:0:0:0:
256,192,119057,1,0,0:0:0:0:
256,192,119136,1,8,0:0:0:0:
256,192,119215,1,0,0:0:0:0:
256,192,119294,1,0,0:0:0:0:
256,192,119452,1,0,0:0:0:0:
256,192,119531,1,0,0:0:0:0:
256,192,119610,1,8,0:0:0:0:
256,192,119688,1,0,0:0:0:0:
256,192,119767,1,8,0:0:0:0:
256,192,119846,1,8,0:0:0:0:
256,192,119925,1,0,0:0:0:0:
256,192,120083,1,8,0:0:0:0:
256,192,120162,1,8,0:0:0:0:
256,192,120241,1,8,0:0:0:0:
256,192,120320,1,8,0:0:0:0:
256,192,120399,1,0,0:0:0:0:
256,192,120478,1,0,0:0:0:0:
256,192,120557,1,0,0:0:0:0:
256,192,120636,1,0,0:0:0:0:
256,192,120715,1,8,0:0:0:0:
256,192,120794,1,8,0:0:0:0:
256,192,120873,1,8,0:0:0:0:
256,192,120952,1,0,0:0:0:0:
256,192,121031,1,0,0:0:0:0:
256,192,121110,1,8,0:0:0:0:
256,192,121188,1,0,0:0:0:0:
256,192,121267,1,8,0:0:0:0:
256,192,121346,1,0,0:0:0:0:
256,192,121425,1,0,0:0:0:0:
256,192,121504,1,8,0:0:0:0:
256,192,121583,1,0,0:0:0:0:
256,192,121662,1,0,0:0:0:0:
256,192,121741,1,8,0:0:0:0:
256,192,121820,1,0,0:0:0:0:
256,192,121899,1,0,0:0:0:0:
256,192,121978,1,8,0:0:0:0:
256,192,122057,1,0,0:0:0:0:
256,192,122136,1,0,0:0:0:0:
256,192,122215,1,8,0:0:0:0:
256,192,122294,1,0,0:0:0:0:
256,192,122373,1,8,0:0:0:0:
256,192,122452,1,8,0:0:0:0:
256,192,122610,1,4,0:0:0:0:
256,192,122926,1,0,0:0:0:0:
256,192,123084,1,0,0:0:0:0:
256,192,123242,1,8,0:0:0:0:
256,192,123400,1,0,0:0:0:0:
256,192,123558,1,0,0:0:0:0:
256,192,123716,1,8,0:0:0:0:
256,192,123874,1,0,0:0:0:0:
256,192,124032,1,8,0:0:0:0:
256,192,124190,1,0,0:0:0:0:
256,192,124347,1,0,0:0:0:0:
256,192,124505,1,8,0:0:0:0:
256,192,124663,1,0,0:0:0:0:
256,192,124821,1,0,0:0:0:0:
256,192,124979,1,8,0:0:0:0:
256,192,125137,1,0,0:0:0:0:
256,192,125768,1,8,0:0:0:0:
256,192,126400,1,0,0:0:0:0:
256,192,126558,1,8,0:0:0:0:
256,192,126716,1,0,0:0:0:0:
256,192,127032,1,8,0:0:0:0:
256,192,127663,1,0,0:0:0:0:
256,192,127821,1,0,0:0:0:0:
256,192,127979,1,8,0:0:0:0:
256,192,128137,1,0,0:0:0:0:
256,192,128295,1,0,0:0:0:0:
256,192,128453,1,8,0:0:0:0:
256,192,128611,1,0,0:0:0:0:
256,192,128769,1,8,0:0:0:0:
256,192,128927,1,0,0:0:0:0:
256,192,129084,1,0,0:0:0:0:
256,192,129242,1,8,0:0:0:0:
256,192,129400,1,0,0:0:0:0:
256,192,129558,1,0,0:0:0:0:
256,192,129716,1,8,0:0:0:0:
256,192,129874,1,0,0:0:0:0:
256,192,130032,1,8,0:0:0:0:
256,192,130190,1,0,0:0:0:0:
256,192,130821,1,8,0:0:0:0:
256,192,131453,1,0,0:0:0:0:
256,192,131611,1,8,0:0:0:0:
256,192,131768,1,0,0:0:0:0:
256,192,132084,1,8,0:0:0:0:
256,192,132716,1,0,0:0:0:0:
256,192,132874,1,0,0:0:0:0:
256,192,133032,1,8,0:0:0:0:
256,192,133190,1,0,0:0:0:0:
256,192,133348,1,0,0:0:0:0:
256,192,133506,1,8,0:0:0:0:
256,192,133664,1,0,0:0:0:0:
256,192,133822,1,8,0:0:0:0:
256,192,133979,1,0,0:0:0:0:
256,192,134136,1,0,0:0:0:0:
256,192,134294,1,8,0:0:0:0:
256,192,134453,1,0,0:0:0:0:
256,192,134611,1,0,0:0:0:0:
256,192,134769,1,8,0:0:0:0:
256,192,134927,1,0,0:0:0:0:
256,192,135084,1,8,0:0:0:0:
256,192,135242,1,0,0:0:0:0:
256,192,135874,1,8,0:0:0:0:
256,192,136505,1,0,0:0:0:0:
256,192,136663,1,8,0:0:0:0:
256,192,136821,1,0,0:0:0:0:
256,192,137137,1,8,0:0:0:0:
256,192,137768,1,0,0:0:0:0:
256,192,137926,1,0,0:0:0:0:
256,192,138084,1,8,0:0:0:0:
256,192,138242,1,0,0:0:0:0:
256,192,138400,1,0,0:0:0:0:
256,192,138558,1,8,0:0:0:0:
256,192,138716,1,0,0:0:0:0:
256,192,138874,1,8,0:0:0:0:
256,192,139032,1,0,0:0:0:0:
256,192,139189,1,0,0:0:0:0:
256,192,139347,1,8,0:0:0:0:
256,192,139505,1,8,0:0:0:0:
256,192,139663,1,0,0:0:0:0:
256,192,139821,1,8,0:0:0:0:
256,192,139979,1,0,0:0:0:0:
256,192,140137,1,8,0:0:0:0:
256,192,140295,1,8,0:0:0:0:
256,192,140453,1,0,0:0:0:0:
256,192,140611,1,8,0:0:0:0:
256,192,140768,1,0,0:0:0:0:
256,192,140926,1,0,0:0:0:0:
256,192,141084,1,8,0:0:0:0:
256,192,141400,1,0,0:0:0:0:
256,192,141558,1,8,0:0:0:0:
256,192,141874,1,8,0:0:0:0:
256,192,142032,1,0,0:0:0:0:
256,192,142190,1,8,0:0:0:0:
256,192,142347,1,8,0:0:0:0:
256,192,142505,1,0,0:0:0:0:
256,192,142821,1,4,0:0:0:0:
256,192,152295,5,8,0:0:0:0:
256,192,152374,1,8,0:0:0:0:
256,192,152453,1,8,0:0:0:0:
256,192,152532,1,8,0:0:0:0:
256,192,152611,1,0,0:0:0:0:
256,192,152690,1,0,0:0:0:0:
256,192,152768,1,0,0:0:0:0:
256,192,152847,1,0,0:0:0:0:
256,192,152926,1,8,0:0:0:0:
256,192,153005,1,0,0:0:0:0:
256,192,153084,1,8,0:0:0:0:
256,192,153241,1,0,0:0:0:0:
256,192,153320,1,0,0:0:0:0:
256,192,153399,1,0,0:0:0:0:
256,192,153478,1,0,0:0:0:0:
256,192,153557,1,8,0:0:0:0:
256,192,153636,1,8,0:0:0:0:
256,192,153715,1,8,0:0:0:0:
256,192,153794,1,8,0:0:0:0:
256,192,153873,1,0,0:0:0:0:
256,192,153952,1,0,0:0:0:0:
256,192,154031,1,0,0:0:0:0:
256,192,154190,1,8,0:0:0:0:
256,192,154268,1,8,0:0:0:0:
256,192,154347,1,8,0:0:0:0:
256,192,154426,1,0,0:0:0:0:
256,192,154505,1,8,0:0:0:0:
256,192,154584,1,8,0:0:0:0:
256,192,154663,1,8,0:0:0:0:
256,192,154742,1,0,0:0:0:0:
256,192,154821,1,8,0:0:0:0:
256,192,154900,1,0,0:0:0:0:
256,192,154979,1,0,0:0:0:0:
256,192,155058,1,8,0:0:0:0:
256,192,155137,1,8,0:0:0:0:
256,192,155216,1,8,0:0:0:0:
256,192,155295,1,8,0:0:0:0:
256,192,155453,1,8,0:0:0:0:
256,192,155532,1,0,0:0:0:0:
256,192,155611,1,0,0:0:0:0:
256,192,155690,1,0,0:0:0:0:
256,192,155768,1,8,0:0:0:0:
256,192,155847,1,0,0:0:0:0:
256,192,155926,1,8,0:0:0:0:
256,192,156005,1,8,0:0:0:0:
256,192,156084,1,0,0:0:0:0:
256,192,156163,1,8,0:0:0:0:
256,192,156242,1,0,0:0:0:0:
256,192,156321,1,8,0:0:0:0:
256,192,156400,1,8,0:0:0:0:
256,192,156479,1,0,0:0:0:0:
256,192,156558,1,0,0:0:0:0:
256,192,156716,1,0,0:0:0:0:
256,192,156795,1,8,0:0:0:0:
256,192,156874,1,0,0:0:0:0:
256,192,156953,1,0,0:0:0:0:
256,192,157032,1,8,0:0:0:0:
256,192,157111,1,0,0:0:0:0:
256,192,157190,1,8,0:0:0:0:
256,192,157268,1,8,0:0:0:0:
256,192,157347,1,8,0:0:0:0:
256,192,157426,1,0,0:0:0:0:
256,192,157505,1,8,0:0:0:0:
256,192,157584,1,0,0:0:0:0:
256,192,157663,1,0,0:0:0:0:
256,192,157742,1,8,0:0:0:0:
256,192,157821,1,8,0:0:0:0:
256,192,157978,1,0,0:0:0:0:
256,192,158057,1,0,0:0:0:0:
256,192,158136,1,8,0:0:0:0:
256,192,158215,1,0,0:0:0:0:
256,192,158294,1,0,0:0:0:0:
256,192,158373,1,8,0:0:0:0:
256,192,158452,1,8,0:0:0:0:
256,192,158531,1,0,0:0:0:0:
256,192,158610,1,8,0:0:0:0:
256,192,158689,1,8,0:0:0:0:
256,192,158767,1,0,0:0:0:0:
256,192,158846,1,8,0:0:0:0:
256,192,158925,1,0,0:0:0:0:
256,192,159004,1,0,0:0:0:0:
256,192,159083,1,0,0:0:0:0:
256,192,159241,1,8,0:0:0:0:
256,192,159320,1,8,0:0:0:0:
256,192,159399,1,8,0:0:0:0:
256,192,159478,1,0,0:0:0:0:
256,192,159557,1,8,0:0:0:0:
256,192,159636,1,8,0:0:0:0:
256,192,159715,1,0,0:0:0:0:
256,192,159794,1,0,0:0:0:0:
256,192,159873,1,8,0:0:0:0:
256,192,159952,1,8,0:0:0:0:
256,192,160031,1,0,0:0:0:0:
256,192,160110,1,8,0:0:0:0:
256,192,160189,1,8,0:0:0:0:
256,192,160267,1,8,0:0:0:0:
256,192,160346,1,0,0:0:0:0:
256,192,160505,1,0,0:0:0:0:
256,192,160583,1,8,0:0:0:0:
256,192,160662,1,8,0:0:0:0:
256,192,160741,1,8,0:0:0:0:
256,192,160820,1,0,0:0:0:0:
256,192,160899,1,0,0:0:0:0:
256,192,160978,1,8,0:0:0:0:
256,192,161057,1,0,0:0:0:0:
256,192,161136,1,8,0:0:0:0:
256,192,161215,1,0,0:0:0:0:
256,192,161294,1,0,0:0:0:0:
256,192,161373,1,8,0:0:0:0:
256,192,161452,1,0,0:0:0:0:
256,192,161531,1,0,0:0:0:0:
256,192,161610,1,0,0:0:0:0:
256,192,161768,1,8,0:0:0:0:
256,192,161847,1,8,0:0:0:0:
256,192,161926,1,8,0:0:0:0:
256,192,162005,1,8,0:0:0:0:
256,192,162084,1,0,0:0:0:0:
256,192,162163,1,0,0:0:0:0:
256,192,162242,1,0,0:0:0:0:
256,192,162321,1,0,0:0:0:0:
256,192,162400,1,8,0:0:0:0:
256,192,162479,1,0,0:0:0:0:
256,192,162558,1,8,0:0:0:0:
256,192,162637,1,8,0:0:0:0:
256,192,162716,1,0,0:0:0:0:
256,192,162795,1,0,0:0:0:0:
256,192,162874,1,0,0:0:0:0:
256,192,163031,1,8,0:0:0:0:
256,192,163110,1,0,0:0:0:0:
256,192,163189,1,8,0:0:0:0:
256,192,163267,1,0,0:0:0:0:
256,192,163346,1,8,0:0:0:0:
256,192,163425,1,8,0:0:0:0:
256,192,163504,1,0,0:0:0:0:
256,192,163583,1,8,0:0:0:0:
256,192,163662,1,0,0:0:0:0:
256,192,163741,1,0,0:0:0:0:
256,192,163820,1,8,0:0:0:0:
256,192,163899,1,8,0:0:0:0:
256,192,163978,1,8,0:0:0:0:
256,192,164057,1,0,0:0:0:0:
256,192,164136,1,0,0:0:0:0:
256,192,164294,1,8,0:0:0:0:
256,192,164373,1,8,0:0:0:0:
256,192,164452,1,8,0:0:0:0:
256,192,164531,1,8,0:0:0:0:
256,192,164610,1,0,0:0:0:0:
256,192,164689,1,8,0:0:0:0:
256,192,164767,1,8,0:0:0:0:
256,192,164846,1,8,0:0:0:0:
256,192,164925,1,0,0:0:0:0:
256,192,165004,1,8,0:0:0:0:
256,192,165083,1,0,0:0:0:0:
256,192,165162,1,0,0:0:0:0:
256,192,165241,1,0,0:0:0:0:
256,192,165320,1,8,0:0:0:0:
256,192,165399,1,0,0:0:0:0:
256,192,165557,1,8,0:0:0:0:
256,192,165636,1,8,0:0:0:0:
256,192,165715,1,0,0:0:0:0:
256,192,165794,1,0,0:0:0:0:
256,192,165873,1,8,0:0:0:0:
256,192,165952,1,8,0:0:0:0:
256,192,166031,1,0,0:0:0:0:
256,192,166110,1,8,0:0:0:0:
256,192,166189,1,0,0:0:0:0:
256,192,166267,1,8,0:0:0:0:
256,192,166346,1,0,0:0:0:0:
256,192,166425,1,8,0:0:0:0:
256,192,166504,1,8,0:0:0:0:
256,192,166583,1,0,0:0:0:0:
256,192,166662,1,0,0:0:0:0:
256,192,166820,1,0,0:0:0:0:
256,192,166899,1,0,0:0:0:0:
256,192,166978,1,0,0:0:0:0:
256,192,167057,1,8,0:0:0:0:
256,192,167136,1,0,0:0:0:0:
256,192,167215,1,8,0:0:0:0:
256,192,167294,1,8,0:0:0:0:
256,192,167373,1,0,0:0:0:0:
256,192,167452,1,0,0:0:0:0:
256,192,167531,1,8,0:0:0:0:
256,192,167610,1,0,0:0:0:0:
256,192,167689,1,0,0:0:0:0:
256,192,167767,1,8,0:0:0:0:
256,192,167846,1,8,0:0:0:0:
256,192,167925,1,8,0:0:0:0:
256,192,168083,1,0,0:0:0:0:
256,192,168162,1,8,0:0:0:0:
256,192,168241,1,0,0:0:0:0:
256,192,168320,1,0,0:0:0:0:
256,192,168399,1,8,0:0:0:0:
256,192,168478,1,8,0:0:0:0:
256,192,168557,1,0,0:0:0:0:
256,192,168636,1,0,0:0:0:0:
256,192,168715,1,8,0:0:0:0:
256,192,168794,1,8,0:0:0:0:
256,192,168873,1,8,0:0:0:0:
256,192,168952,1,8,0:0:0:0:
256,192,169031,1,0,0:0:0:0:
256,192,169110,1,0,0:0:0:0:
256,192,169189,1,0,0:0:0:0:
256,192,169346,1,8,0:0:0:0:
256,192,169425,1,0,0:0:0:0:
256,192,169504,1,8,0:0:0:0:
256,192,169583,1,0,0:0:0:0:
256,192,169662,1,0,0:0:0:0:
256,192,169741,1,0,0:0:0:0:
256,192,169820,1,8,0:0:0:0:
256,192,169899,1,8,0:0:0:0:
256,192,169978,1,0,0:0:0:0:
256,192,170057,1,0,0:0:0:0:
256,192,170136,1,8,0:0:0:0:
256,192,170215,1,8,0:0:0:0:
256,192,170294,1,0,0:0:0:0:
256,192,170373,1,8,0:0:0:0:
256,192,170452,1,8,0:0:0:0:
256,192,170610,1,8,0:0:0:0:
256,192,170689,1,8,0:0:0:0:
256,192,170767,1,8,0:0:0:0:
256,192,170846,1,8,0:0:0:0:
256,192,170925,1,0,0:0:0:0:
256,192,171004,1,0,0:0:0:0:
256,192,171083,1,0,0:0:0:0:
256,192,171162,1,0,0:0:0:0:
256,192,171241,1,0,0:0:0:0:
256,192,171320,1,8,0:0:0:0:
256,192,171399,1,0,0:0:0:0:
256,192,171478,1,8,0:0:0:0:
256,192,171557,1,8,0:0:0:0:
256,192,171636,1,0,0:0:0:0:
256,192,171715,1,8,0:0:0:0:
256,192,171873,1,0,0:0:0:0:
256,192,171952,1,8,0:0:0:0:
256,192,172031,1,8,0:0:0:0:
256,192,172110,1,8,0:0:0:0:
256,192,172189,1,0,0:0:0:0:
256,192,172267,1,0,0:0:0:0:
256,192,172346,1,8,0:0:0:0:
256,192,172425,1,0,0:0:0:0:
256,192,172504,1,8,0:0:0:0:
256,192,172583,1,0,0:0:0:0:
256,192,172662,1,8,0:0:0:0:
256,192,172741,1,8,0:0:0:0:
256,192,172820,1,0,0:0:0:0:
256,192,172899,1,0,0:0:0:0:
256,192,172978,1,0,0:0:0:0:
256,192,173136,1,6,0:0:0:0:
256,192,173611,1,0,0:0:0:0:
256,192,174084,1,0,0:0:0:0:
256,192,174558,1,0,0:0:0:0:
256,192,175032,1,0,0:0:0:0:
256,192,175505,1,0,0:0:0:0:
256,192,175979,1,0,0:0:0:0:
256,192,176453,1,0,0:0:0:0:
256,192,176926,1,0,0:0:0:0:
256,192,177400,1,0,0:0:0:0:
256,192,177874,1,0,0:0:0:0:
256,192,178190,1,0,0:0:0:0:
256,192,178347,1,8,0:0:0:0:
256,192,178663,1,0,0:0:0:0:
256,192,178821,1,8,0:0:0:0:
256,192,179137,1,0,0:0:0:0:
256,192,179295,1,8,0:0:0:0:
256,192,179611,1,0,0:0:0:0:
256,192,179768,1,8,0:0:0:0:
256,192,180084,1,0,0:0:0:0:
256,192,180242,1,8,0:0:0:0:
256,192,180558,1,0,0:0:0:0:
256,192,180716,1,8,0:0:0:0:
256,192,181032,1,0,0:0:0:0:
256,192,181190,1,8,0:0:0:0:
256,192,181505,1,0,0:0:0:0:
256,192,181663,1,8,0:0:0:0:
256,192,181979,1,0,0:0:0:0:
256,192,182137,1,8,0:0:0:0:
256,192,182453,1,0,0:0:0:0:
256,192,182611,1,8,0:0:0:0:
256,192,182927,1,0,0:0:0:0:
256,192,183084,1,8,0:0:0:0:
256,192,183242,1,4,0:0:0:0:
