osu file format v14

[General]
AudioFilename: Cinema (Skrillex remix).mp3
AudioLeadIn: 0
PreviewTime: -1
Countdown: 0
SampleSet: Soft
StackLeniency: 0.7
Mode: 0
LetterboxInBreaks: 1
WidescreenStoryboard: 0

[Editor]
DistanceSpacing: 1.4
BeatDivisor: 4
GridSize: 8
TimelineZoom: 2.899999

[Metadata]
Title:Cinema (Skrillex Remix)
TitleUnicode:Cinema (Skrillex Remix)
Artist:Benny Benassi Feat. Gary Go
ArtistUnicode:Benny Benassi Feat. Gary Go
Creator:DaToye
Version:Insane
Source:Dubstep
Tags:drop the base
BeatmapID:704328
BeatmapSetID:316035

[Difficulty]
HPDrainRate:7
CircleSize:4.7
OverallDifficulty:8
ApproachRate:9
SliderMultiplier:1.6
SliderTickRate:2

[Events]
//Background and Video events
0,0,"drop the bass.jpg",0,0
//Break Periods
//Storyboard Layer 0 (Background)
//Storyboard Layer 1 (Fail)
//Storyboard Layer 2 (Pass)
//Storyboard Layer 3 (Foreground)
//Storyboard Sound Samples

[TimingPoints]
0,413.793103448276,4,2,0,100,1,0

[HitObjects]
256,192,11689,12,4,14275,0:0:0:0:
112,88,14482,5,4,0:0:0:0:
144,216,14689,1,12,0:0:0:0:
304,56,15103,5,0,0:0:0:0:
384,136,15310,1,0,0:0:0:0:
288,312,15517,2,4,L|376:320,1,80
208,160,16137,1,4,0:0:0:0:
144,248,17586,5,4,0:0:0:0:
256,240,17793,1,4,0:0:0:0:
192,144,18000,2,4,B|240:96|272:80|304:88,1,120
352,184,18620,1,6,0:0:0:0:
88,272,19034,1,6,0:0:0:0:
344,208,19448,1,6,0:0:0:0:
112,104,21103,5,2,0:0:0:0:
216,64,21310,2,4,B|256:72|296:96|336:128|352:160,1,160
152,256,22137,1,2,0:0:0:0:
368,184,22551,1,2,0:0:0:0:
128,176,24206,6,4,P|144:128|176:96,2,80
344,112,25034,1,0,0:0:0:0:
248,176,25241,1,0,0:0:0:0:
168,80,25655,1,2,0:0:0:0:
320,240,26068,1,2,0:0:0:0:
176,112,27310,5,12,0:0:0:0:
272,168,27517,1,4,0:0:0:0:
248,56,27724,1,4,0:0:0:0:
152,112,27931,1,4,0:0:0:0:
304,280,28344,1,12,0:0:0:0:
80,256,28758,2,4,B|96:184|128:152|176:136,1,160
176,128,31034,5,2,0:0:0:0:
248,40,31241,2,4,P|312:56|344:104,2,120
280,152,32068,1,0,0:0:0:0:
200,232,32275,1,0,0:0:0:0:
408,144,32689,1,2,0:0:0:0:
136,120,33931,5,0,0:0:0:0:
216,200,34137,1,0,0:0:0:0:
424,288,34551,1,4,0:0:0:0:
328,88,34965,1,0,0:0:0:0:
104,64,35379,2,4,B|104:128|120:168|144:192|168:208,1,160
152,144,37034,5,0,0:0:0:0:
240,72,37241,1,0,0:0:0:0:
336,136,37448,1,0,0:0:0:0:
168,288,37862,2,4,L|400:200,1,240
320,288,38689,1,0,0:0:0:0:
248,200,38896,2,4,B|296:144|304:144|352:168|368:208,2,160
96,144,40551,6,4,B|152:168|176:216|168:248|208:288,1,160
144,64,42000,5,8,0:0:0:0:
200,160,42206,1,0,0:0:0:0:
88,168,42413,1,0,0:0:0:0:
144,72,42620,1,12,0:0:0:0:
256,272,43448,5,0,0:0:0:0:
272,160,43655,1,0,0:0:0:0:
288,48,43862,1,8,0:0:0:0:
392,88,44068,1,0,0:0:0:0:
440,192,44275,1,0,0:0:0:0:
328,176,44482,2,4,B|288:128|288:80|240:72|192:72|200:64,1,160
120,136,45103,5,4,0:0:0:0:
304,264,45517,1,8,0:0:0:0:
216,56,45931,1,4,0:0:0:0:
152,272,46344,1,0,0:0:0:0:
184,152,47172,6,4,B|216:192|264:208|280:248|264:304,1,160
400,88,48827,2,4,B|328:64|288:40|232:56,1,160
176,88,50068,5,0,0:0:0:0:
248,176,50275,1,0,0:0:0:0:
360,184,50482,1,8,0:0:0:0:
304,280,50689,1,0,0:0:0:0:
192,272,50896,2,4,B|144:224|136:208|128:176,1,80
256,224,51413,1,4,0:0:0:0:
304,128,51724,1,4,0:0:0:0:
88,88,52137,5,14,0:0:0:0:
264,152,52344,1,4,0:0:0:0:
328,248,52551,1,6,0:0:0:0:
264,160,52758,1,0,0:0:0:0:
168,104,52965,1,2,0:0:0:0:
104,144,53793,5,0,0:0:0:0:
328,176,54206,1,0,0:0:0:0:
240,88,55241,5,0,0:0:0:0:
280,192,55448,1,4,0:0:0:0:
168,168,55655,1,0,0:0:0:0:
208,272,55862,1,8,0:0:0:0:
216,96,56896,5,0,0:0:0:0:
256,200,57103,2,4,P|304:216|344:216,1,80
344,104,57517,1,0,0:0:0:0:
368,216,57724,2,4,B|312:248|256:248|208:224,1,160
112,88,58344,5,4,0:0:0:0:
336,56,58758,1,2,0:0:0:0:
248,264,59172,1,4,0:0:0:0:
200,48,59586,1,0,0:0:0:0:
136,88,60413,6,4,B|192:128|224:152|272:168|280:176,1,160
304,112,61655,1,0,0:0:0:0:
200,152,61862,1,0,0:0:0:0:
240,256,62068,2,4,B|288:240|296:224|296:200,1,80
192,200,62482,2,12,B|256:184|288:168|336:128|344:120,1,160
296,128,63517,5,0,0:0:0:0:
312,240,63724,2,4,P|376:256|416:256,1,80
408,144,64137,1,0,0:0:0:0:
200,120,64448,6,6,L|248:96,1,40
144,72,65172,5,0,0:0:0:0:
136,184,65379,2,4,P|96:160|64:120,1,80
144,224,65793,1,4,0:0:0:0:
112,176,66206,5,2,0:0:0:0:
248,272,66517,1,12,0:0:0:0:
248,272,66620,1,12,0:0:0:0:
192,112,66931,6,4,L|144:128,1,40
248,184,67241,1,0,0:0:0:0:
360,184,67448,1,12,0:0:0:0:
200,160,67655,1,4,0:0:0:0:
192,272,67862,1,4,0:0:0:0:
368,200,68275,5,12,0:0:0:0:
280,128,68482,2,4,P|240:112|232:112,2,40
392,144,68896,1,4,0:0:0:0:
336,240,69103,1,12,0:0:0:0:
232,280,69310,2,4,P|280:304|288:336,1,80
128,96,69931,5,12,0:0:0:0:
296,88,70241,2,4,L|344:88,1,40
312,200,70551,1,4,0:0:0:0:
208,240,70758,1,12,0:0:0:0:
240,128,70965,1,4,0:0:0:0:
136,96,71172,1,4,0:0:0:0:
120,280,71586,5,12,0:0:0:0:
136,168,71793,1,4,0:0:0:0:
136,168,71896,1,6,0:0:0:0:
136,168,72000,1,4,0:0:0:0:
240,160,72206,1,4,0:0:0:0:
344,208,72413,1,12,0:0:0:0:
408,120,72620,1,4,0:0:0:0:
496,192,72827,5,4,0:0:0:0:
320,56,73241,5,4,0:0:0:0:
256,272,73655,5,4,0:0:0:0:
48,192,74068,5,4,0:0:0:0:
272,184,74482,5,4,0:0:0:0:
96,48,74896,5,4,0:0:0:0:
64,272,75310,5,4,0:0:0:0:
224,112,75724,5,4,0:0:0:0:
136,312,76137,5,4,0:0:0:0:
248,296,76344,1,4,0:0:0:0:
256,184,76551,1,12,0:0:0:0:
144,160,76758,1,4,0:0:0:0:
32,176,76965,5,4,0:0:0:0:
120,264,77172,1,4,0:0:0:0:
232,272,77379,1,4,0:0:0:0:
288,256,77482,1,4,0:0:0:0:
328,216,77586,1,4,0:0:0:0:
352,168,77689,1,4,0:0:0:0:
336,112,77793,5,6,0:0:0:0:
296,72,77896,1,6,0:0:0:0:
240,64,78000,1,6,0:0:0:0:
184,72,78103,1,6,0:0:0:0:
136,96,78206,1,6,0:0:0:0:
112,144,78310,1,6,0:0:0:0:
120,200,78413,1,6,0:0:0:0:
160,240,78517,1,6,0:0:0:0:
216,248,78620,1,6,0:0:0:0:
384,224,78931,6,6,L|416:192,1,40
200,128,79448,5,10,0:0:0:0:
352,288,79862,1,10,0:0:0:0:
144,208,80275,5,6,0:0:0:0:
240,264,80482,1,6,0:0:0:0:
248,152,80689,1,6,0:0:0:0:
152,208,80896,1,6,0:0:0:0:
240,272,81103,5,6,0:0:0:0:
152,200,81310,1,6,0:0:0:0:
256,160,81517,1,6,0:0:0:0:
240,272,81724,1,6,0:0:0:0:
256,160,81931,6,4,B|272:112|312:80|376:80|392:88,1,160
336,280,82758,5,10,0:0:0:0:
112,272,83172,1,10,0:0:0:0:
328,208,83586,5,4,0:0:0:0:
272,224,83689,1,4,0:0:0:0:
216,208,83793,1,4,0:0:0:0:
176,168,83896,1,4,0:0:0:0:
192,112,84000,1,4,0:0:0:0:
232,80,84103,1,4,0:0:0:0:
288,80,84206,1,4,0:0:0:0:
336,112,84310,1,4,0:0:0:0:
360,160,84413,1,4,0:0:0:0:
320,200,84517,5,6,0:0:0:0:
296,168,84620,1,4,0:0:0:0:
256,128,84724,1,4,0:0:0:0:
208,96,84827,1,4,0:0:0:0:
152,104,84931,1,4,0:0:0:0:
112,136,85034,1,4,0:0:0:0:
88,184,85137,1,4,0:0:0:0:
120,232,85241,6,0,B|168:272|200:288|224:304,1,120
272,280,85655,5,0,0:0:0:0:
208,184,85862,1,0,0:0:0:0:
168,80,86068,5,0,0:0:0:0:
272,280,86482,1,0,0:0:0:0:
232,128,86896,5,0,0:0:0:0:
224,240,87103,1,0,0:0:0:0:
328,184,87310,1,0,0:0:0:0:
232,128,87517,1,0,0:0:0:0:
328,184,87724,5,0,0:0:0:0:
224,240,87931,1,0,0:0:0:0:
232,128,88137,1,0,0:0:0:0:
328,184,88344,1,0,0:0:0:0:
248,104,88551,6,0,B|152:64|112:80|96:120|80:152|88:208,1,240
136,88,89379,5,0,0:0:0:0:
256,280,89793,6,0,L|256:224|256:184,1,80
328,112,90206,5,0,0:0:0:0:
256,328,90620,6,0,L|256:240,1,80
168,184,91034,5,0,0:0:0:0:
376,264,91448,6,0,B|424:208|408:176|400:136,1,120
368,112,91862,1,0,0:0:0:0:
144,88,92275,5,0,0:0:0:0:
344,192,92689,5,0,0:0:0:0:
120,192,93103,1,0,0:0:0:0:
312,80,93517,5,0,0:0:0:0:
232,160,93724,1,0,0:0:0:0:
344,192,93931,1,0,0:0:0:0:
312,80,94137,1,0,0:0:0:0:
344,192,94344,5,0,0:0:0:0:
232,160,94551,1,0,0:0:0:0:
312,80,94758,1,0,0:0:0:0:
344,192,94965,1,0,0:0:0:0:
288,96,95172,6,0,B|200:48|160:72|136:88,1,160
344,192,96000,5,0,0:0:0:0:
120,192,96413,1,0,0:0:0:0:
320,80,96827,5,0,0:0:0:0:
360,120,96931,1,0,0:0:0:0:
392,168,97034,2,0,L|448:168,2,40
376,224,97344,1,0,0:0:0:0:
336,264,97448,1,0,0:0:0:0:
288,288,97551,1,0,0:0:0:0:
232,280,97655,5,0,0:0:0:0:
184,256,97758,1,0,0:0:0:0:
144,216,97862,2,0,L|96:256,2,40
136,160,98172,1,0,0:0:0:0:
144,112,98275,1,0,0:0:0:0:
176,64,98379,1,0,0:0:0:0:
232,48,98482,2,0,B|272:72|296:112|312:168,1,120
336,184,98896,5,0,0:0:0:0:
224,192,99103,1,0,0:0:0:0:
112,192,99310,2,0,B|144:128|184:120|232:112|272:128,1,160
242,120,100137,6,0,B|320:128|368:152|408:184,1,160
248,344,100965,2,0,B|192:264|184:232|200:192,1,160
304,240,101586,1,0,0:0:0:0:
392,168,101793,2,0,B|368:96|320:88|288:104|272:144,1,160
256,32,102620,5,0,0:0:0:0:
256,144,102827,5,0,0:0:0:0:
152,192,103034,2,0,P|200:240|232:256,1,80
320,248,103448,1,0,0:0:0:0:
392,160,103655,2,0,P|352:112|320:96,1,80
232,64,104068,1,0,0:0:0:0:
152,144,104275,1,0,0:0:0:0:
