osu file format v9

[General]
AudioFilename: Benny_Benassi - Satisfaction.mp3
AudioLeadIn: 0
PreviewTime: -1
Countdown: 1
SampleSet: Normal
StackLeniency: 0.7
Mode: 0
LetterboxInBreaks: 1
SkinPreference:Default

[Editor]
DistanceSpacing: 0.8
BeatDivisor: 4
GridSize: 8

[Metadata]
Title:Satisfaction
Artist:Benny Benassi
Creator:selymsivad
Version:Noobish Normal
Source:
Tags:

[Difficulty]
HPDrainRate:4
CircleSize:4
OverallDifficulty:2
ApproachRate:3
SliderMultiplier:1
SliderTickRate:1

[Events]
//Background and Video events
0,0,"BG.jpg"
//Break Periods
2,34342,48626
2,94573,100318
//Storyboard Layer 0 (Background)
//Storyboard Layer 1 (Fail)
//Storyboard Layer 2 (Pass)
//Storyboard Layer 3 (Foreground)
//Storyboard Sound Samples
//Background Colour Transformations
3,100,64,0,64

[TimingPoints]
219.86755716456,461.538461538462,4,1,0,100,1,0
189026,-100,4,2,0,5,0,0

[Colours]
Combo1 : 0,0,255
Combo2 : 255,255,255
Combo3 : 255,255,0
Combo4 : 0,255,64

[HitObjects]
256,192,1604,12,0,2989
168,104,3912,5,0
256,104,4373,1,0
336,104,4835,1,2
336,184,5296,1,0
264,224,5758,5,0
184,224,6219,1,0
184,224,6681,1,2
256,224,7142,1,0
336,224,7604,5,0
336,152,8066,1,0
288,96,8527,1,4
112,192,8989,2,0,B|168:192,1,50
208,192,9450,1,0
272,192,9796,1,0
432,192,10835,6,0,B|376:192,1,50
328,192,11296,1,0
248,192,11758,2,0,B|254:96|160:96|120:208,7,200
120,96,18681,6,0,B|200:96|216:120,1,100
304,192,19604,1,8
424,192,20066,1,10
424,328,20527,2,0,B|344:304|336:256,1,100
253,182,21450,1,8
256,112,21681,1,10
256,32,21912,1,10
120,32,22373,6,0,B|120:152,1,100
120,224,23296,2,4,B|120:336,1,100
224,328,24219,1,2
336,328,24681,1,2
336,200,25142,1,0
408,200,25373,1,8
480,200,25604,1,2
480,96,26066,6,0,B|352:96,1,100
288,96,26989,1,0
216,96,27219,1,8
144,96,27450,1,10
144,176,27912,2,4,B|144:288,1,100
232,304,28835,1,0
232,232,29066,1,8
232,160,29296,1,10
432,160,29758,2,0,B|288:160,1,100
232,160,30681,1,0
168,160,30912,1,8
96,160,31142,1,10
64,256,31604,5,0
136,256,31835,2,0,B|192:256,1,50
256,256,32296,1,0
328,256,32527,1,8
392,256,32758,1,8
456,256,32989,1,8
464,176,33450,6,0,B|304:176,1,150
208,184,50066,6,2,B|288:120|264:88,1,100
272,112,50989,1,2
312,192,51450,2,2,B|200:192,1,100
216,192,52373,1,2
368,336,52835,2,2,B|296:336,1,50
192,336,53296,2,2,B|128:336,1,50
256,336,53758,2,6,B|256:232,1,100
256,72,54681,1,2
256,72,55142,2,2,B|152:128|192:152,1,100,2|2
256,152,56066,1,2
256,72,56527,2,6,B|344:128|328:144,1,100,4|0
64,56,57450,5,0
64,56,57681,2,0,B|64:120,1,50
64,106,58142,1,0
64,192,58604,2,0,B|136:192,1,50
184,192,59066,1,0
184,192,59296,6,0,B|336:192,1,150
424,192,60450,1,0
424,272,60681,1,0
424,192,60912,1,0
424,272,61142,2,0,B|272:272,1,150
256,216,62296,1,0
256,144,62527,1,0
256,216,62758,1,0
336,296,62989,6,0,B|184:296,1,150
184,296,63912,2,0,B|134:248,1,50
152,264,64373,2,0,B|192:232,1,50
288,224,64835,5,0
224,160,65296,1,0
288,224,65758,1,0
224,160,66219,1,0
288,160,66681,5,0
224,224,67142,1,0
288,160,67604,1,0
224,224,68066,1,0
304,192,68527,5,0
216,192,68989,1,0
304,192,69450,1,0
216,192,69912,1,0
256,192,70373,12,4,71758
256,152,72219,6,0,B|256:272,1,100
288,232,73142,2,0,B|216:152,1,100
224,224,74066,2,0,B|288:144,1,100
224,152,74989,2,0,B|288:232,1,100
256,152,75912,2,0,B|256:256,1,100
256,192,76719,12,12,79142
288,232,79604,6,0,B|336:304|368:216,1,100,0|8
280,136,80527,2,0,B|240:80|200:136,1,100,0|8
352,200,81450,1,8
376,128,81681,2,8,B|328:128,1,50
328,264,82373,2,8,B|384:264,1,50
280,200,82835,1,8
88,96,83296,2,8,B|88:208,1,100
88,192,84219,2,0,B|192:192,1,100
256,192,85142,5,8
256,192,85373,1,0
256,192,85604,1,8
288,128,86066,2,8,B|328:128,4,25
256,336,86989,5,0
80,336,87450,1,0
256,336,87912,1,0
416,336,88373,1,0
256,336,88835,6,0,B|256:264,1,50,8|0
256,286,89296,2,0,B|256:216,1,50,8|0
256,236,89758,2,0,B|256:176,1,50,8|0
256,112,90219,1,6
144,48,90681,2,0,B|152:72|152:72|144:72|144:72|152:80|152:80|144:80|144:80|144:88|144:88|144:120|144:120|144:128|144:128|144:128|144:128|152:120|152:120|144:136|144:136|152:136|152:136|152:168,1,150
176,192,92066,6,0,B|136:192,2,25
336,192,92527,2,0,B|376:192,2,25
256,280,92989,2,0,B|256:240,2,25
256,112,93450,2,0,B|256:80,2,25
248,192,93912,2,0,B|288:192,3,25
248,192,94373,1,4
224,160,101758,5,0
288,224,102219,1,0
288,160,102681,1,0
216,224,103142,1,0
288,192,103604,5,0
256,232,104066,1,0
224,192,104527,1,0
256,152,104989,1,0
256,200,105450,2,0,B|256:176|312:184|312:240|240:272|168:208|216:144|288:128|304:152,1,200
464,40,106835,2,0,B|392:40,1,50
392,128,107296,2,0,B|288:128,1,100
392,312,108681,2,0,B|368:312,4,25
392,312,109604,2,0,B|472:232|384:72|160:80,1,400,0|8
104,160,112373,6,0,B|144:160,4,25
104,160,113296,6,0,B|264:120|392:208|168:360,1,400,0|8
256,72,116066,2,0,B|256:112,4,25
256,72,116989,2,0,B|432:176|64:320,1,400,0|8
432,192,119758,2,0,B|400:192,4,25
432,192,120681,2,0,B|16:192,1,400,0|8
256,192,123450,5,0
256,192,123681,1,0
304,192,123912,2,0,B|344:192,2,25
288,136,124373,2,0,B|312:112,2,25
240,136,124835,2,0,B|232:104,2,25
216,176,125296,2,0,B|176:176,2,25
240,224,125758,2,0,B|216:264,2,25
288,224,126219,2,0,B|304:248,2,25
320,168,126681,2,0,B|352:168,2,25
192,168,127142,2,0,B|160:168,2,25
256,96,127604,6,0,B|256:56,3,25
296,136,128066,2,0,B|328:168,3,25
216,136,128527,2,0,B|192:160,3,25
248,192,128989,6,0,B|280:192,19,25
256,120,131296,1,4
