osu file format v5

[General]
AudioFilename: benny benassi - push me(2).mp3
AudioLeadIn: 0
PreviewTime: -1
Countdown: 0
SampleSet: Normal
StackLeniency: 0.7
Mode: 0
LetterboxInBreaks: 1

[Editor]
DistanceSpacing: 0.800000011920929
BeatDivisor: 8
GridSize: 8

[Metadata]
Title:Push Me
Artist:Benny Benassi
Creator:psmatrixman
Version:EaZy
Source:
Tags:

[Difficulty]
HPDrainRate:2
CircleSize:3
OverallDifficulty:4
SliderMultiplier:1.4
SliderTickRate:2

[Events]
//Background and Video events
0,0,"button_PushMe.png"
//Break Periods
2,21033,35713
2,81054,87346
2,103398,109117
//Storyboard Layer 0 (Background)
//Storyboard Layer 1 (Fail)
//Storyboard Layer 2 (Pass)
//Storyboard Layer 3 (Foreground)
//Storyboard Sound Samples
//Background Colour Transformations
3,100,163,162,255

[TimingPoints]
1936,459.538461538461,4,1,0,100,1,0
37026,459.538461538461,4,1,0,100,1,0
49670,-100,4,1,0,10,0,0
50130,-100,4,1,0,40,0,0
50130,-100,4,1,0,40,0,0
50491,-100,4,1,0,58,0,0
50819,-100,4,1,0,69,0,0
51164,-100,4,1,0,79,0,0
51508,-100,4,1,0,90,0,0
51681,-100,4,1,0,100,0,0

[HitObjects]
96,96,1936,1,0
128,184,2395,1,0
200,88,3084,2,0,B|256:192|184:304,1,210,4|0
304,224,4233,1,0
384,168,4923,2,0,B|304:72|184:96,1,210,4|0
112,136,6071,1,0
88,224,6990,2,0,B|152:248|240:224,3,140,0|0|8|0
312,208,8829,1,8
312,96,9346,5,0
224,96,9748,1,8
128,96,10437,2,0,B|128:312,1,210
216,304,11643,1,8
296,304,12333,2,0,B|296:216|296:216|160:216,1,210
216,128,13481,1,8
304,136,14400,2,0,B|368:136|368:136|416:208,1,140,8|0
416,264,15320,1,8
328,264,16239,5,8
240,264,16698,1,0
152,264,17158,1,8
80,208,18134,6,0,B|64:136|64:136|112:72,1,140,8|4
152,152,19053,1,0
224,152,19915,5,8
296,224,20374,2,2,B|296:80,1,140,0|2
48,200,37033,6,0,B|48:56,2,140
56,272,38411,1,4
136,272,38871,1,0
200,216,39330,1,4
152,144,39790,2,0,B|232:120|280:192,2,140,0|4|0
152,64,41169,5,4
232,64,41628,2,0,B|384:64,1,140,0|4
376,136,42547,1,0
376,208,43007,1,4
360,280,43466,2,0,B|272:280|280:184,2,140,0|4|0
280,272,44845,5,12
216,224,45304,1,0
160,272,45764,1,12
104,224,46224,1,0
104,152,46683,2,0,B|168:112|240:160,3,140,12|0|12|0
320,104,48521,5,12
320,184,48981,2,14,B|320:328,1,140,12|4
216,336,49900,6,4,B|280:216|280:8|40:8|112:352,1,560,6|4
200,256,52198,6,12,B|264:280|352:248,1,140,12|0
328,168,53117,1,12
328,80,53634,2,0,B|176:80,2,140,0|12|0
400,120,55012,2,0,B|400:272,1,140,12|0
312,248,55816,2,0,B|264:248,1,35,12|12
232,248,56161,1,0
88,216,56850,6,0,B|104:112|152:88,1,140,12|0
232,88,57769,1,12
232,88,58229,1,0
304,120,58688,2,0,B|312:168|312:168|288:176|288:176|328:232,1,140,12|0
264,264,59608,1,12
224,264,59837,1,0
160,264,60527,2,12,B|160:160,1,87.5,12|0
168,104,61446,2,0,B|216:144|280:120|280:56,1,140,12|0
296,176,62365,1,12
360,200,62824,2,0,B|344:264|280:320,3,140,0|12|0|12
208,320,64713,5,0
136,320,65172,2,0,B|96:256|88:176,3,140,12|0|12|2
176,136,67010,5,8
264,104,67700,2,2,B|264:320,1,210
336,280,68849,1,8
408,248,69538,2,2,B|384:152|256:104,1,210
176,136,70687,1,8
328,136,71606,2,0,B|336:216|264:272,4,140,8|0|8|0|0
120,144,73903,5,4
208,136,74363,1,0
264,176,75052,2,4,B|312:128|312:128|352:152|352:152|296:216|296:216|200:216,1,280
216,216,76201,1,0
80,224,76948,2,0,B|80:296|160:328|160:328|232:304,1,210,4|0
312,312,78097,1,0
376,240,79016,6,0,B|320:192|240:240,1,140
176,240,79935,2,8,B|120:192|136:96|336:80,1,280
72,72,88666,6,2,B|40:128|48:152,1,70,2|0
120,176,89126,1,2
48,208,89585,2,0,B|64:264|88:280,1,70,0|2
120,344,90045,1,2
152,264,90504,2,2,B|224:264,1,70
264,200,90964,1,0
304,264,91423,2,6,B|360:208|352:120,2,140
256,192,93319,6,0,B|256:112,11,70,4|0|4|0|4|0|4|0|4|0|4|0
184,120,96076,6,0,B|184:208,31,70,2|0|2|0|2|0|2|0|2|0|2|0|2|0|2|0|2|0|2|0|2|0|2|0|2|0|2|0|2|0|2|0
256,56,110437,5,0
256,56,110667,1,0
256,56,110897,1,4
144,72,111298,2,0,B|88:136,1,70
96,200,111758,1,4
104,288,112217,2,4,B|256:288,2,140
224,192,113596,1,0
304,152,114056,1,4
424,136,114573,5,4
424,136,114802,1,4
424,136,115032,1,4
408,232,115492,2,2,B|264:232,1,140
176,248,116411,1,0
112,184,116870,1,0
176,128,117330,1,2
256,184,117789,1,6
336,88,118191,6,2,B|392:144|368:304,1,210
256,272,119628,1,4
176,296,120087,2,6,B|176:72,1,210
256,120,121006,2,4,B|400:120,2,140,2|4|2
256,200,122385,1,0
256,200,122615,1,0
160,96,123304,6,2,B|136:104|136:136,2,35
136,192,123763,1,0
144,272,124223,2,2,B|192:272,2,35
240,280,124682,1,0
288,192,125199,1,8
288,192,125429,1,8
288,192,125659,1,12
