osu file format v13

[General]
AudioFilename: .mp3
AudioLeadIn: 0
PreviewTime: 39359
Countdown: 0
SampleSet: Normal
StackLeniency: 0.7
Mode: 1
LetterboxInBreaks: 1
WidescreenStoryboard: 0

[Editor]
DistanceSpacing: 0.8
BeatDivisor: 4
GridSize: 32
TimelineZoom: 2.5

[Metadata]
Title:Rin to shite sakuhana no gotoku
TitleUnicode:凛として咲く花の如く
Artist:Beniiro Litmus
ArtistUnicode:紅色リトマス
Creator:yikao
Version:Taiko
Source:
Tags:
BeatmapID:473057
BeatmapSetID:199449

[Difficulty]
HPDrainRate:5
CircleSize:5
OverallDifficulty:5
ApproachRate:5
SliderMultiplier:1.6
SliderTickRate:1

[Events]
//Background and Video events
0,0,"bg.png",0,0
//Break Periods
//Storyboard Layer 0 (Background)
//Storyboard Layer 1 (Fail)
//Storyboard Layer 2 (Pass)
//Storyboard Layer 3 (Foreground)
//Storyboard Sound Samples
//Background Colour Transformations
3,100,163,162,255

[TimingPoints]
341,368.098159509202,4,1,0,75,1,0
341,-100,4,1,0,75,0,1
2549,-66.6666666666667,4,1,0,75,0,1
3469,-200,4,1,0,75,0,0
4758,-100,4,1,0,75,0,1
15801,-100,4,1,0,75,0,0
16169,-66.6666666666667,4,1,0,75,0,0
16721,-133.333333333333,4,1,0,50,0,0
27764,-133.333333333333,4,1,0,75,0,0
28316,-100,4,1,0,75,0,0
35310,-66.6666666666667,4,1,0,75,0,0
35678,-100,4,1,0,75,0,0
36782,-66.6666666666667,4,1,0,75,0,0
37150,-100,4,1,0,75,0,0
39175,-133.333333333333,4,1,0,50,0,0
39911,-133.333333333333,4,1,0,75,0,0
40095,-50,4,1,0,75,0,1
40279,-100,4,1,0,75,0,1
53899,-66.6666666666667,4,1,0,75,0,1
54175,-100,4,1,0,75,0,1
55371,-66.6666666666667,4,1,0,75,0,1
55647,-100,4,1,0,75,0,1
58500,-50,4,1,0,75,0,1
58868,-50,4,1,0,75,0,0
59236,-100,4,1,0,75,0,0
60709,-100,4,1,0,75,0,1
66230,184.049079754601,4,1,0,75,1,1
66230,-50,4,1,0,75,0,1
66414,-200,4,1,0,75,0,1
66598,368.098159509202,4,1,0,75,1,1
72488,-100,4,1,0,75,0,0
72672,-133.333333333333,4,1,0,50,0,0
78009,-100,4,1,0,50,0,0
84266,-66.6666666666667,4,1,0,50,0,0
84450,-133.333333333333,4,1,0,50,0,0
85739,-66.6666666666667,4,1,0,50,0,0
85923,-133.333333333333,4,1,0,50,0,0
87212,-100,4,1,0,50,0,0
94941,-50,4,1,0,50,0,0
95309,-133.333333333333,4,1,0,50,0,0
95862,-100,4,1,0,75,0,0
96046,-50,4,1,0,75,0,1
96229,-100,4,1,0,75,0,1
120708,184.049079754601,4,1,0,75,1,1
120708,-66.6666666666667,4,1,0,75,0,1

[HitObjects]
256,192,341,5,6,0:0:0:0:
256,192,525,1,0,0:0:0:0:
256,192,617,1,2,0:0:0:0:
256,192,709,1,4,0:0:0:0:
256,192,893,1,2,0:0:0:0:
256,192,1077,1,4,0:0:0:0:
256,192,1261,1,2,0:0:0:0:
256,192,1353,1,2,0:0:0:0:
256,192,1445,1,4,0:0:0:0:
256,192,1629,1,0,0:0:0:0:
256,192,1813,1,4,0:0:0:0:
256,192,1905,1,2,0:0:0:0:
256,192,1997,1,0,0:0:0:0:
256,192,2089,1,2,0:0:0:0:
256,192,2181,1,0,0:0:0:0:
256,192,2273,1,0,0:0:0:0:
256,192,2365,1,0,0:0:0:0:
256,192,2457,1,2,0:0:0:0:
256,192,2549,1,4,0:0:0:0:
256,192,2733,1,4,0:0:0:0:
256,192,2917,1,6,0:0:0:0:
256,192,3469,1,0,0:0:0:0:
256,192,3561,1,0,0:0:0:0:
256,192,3653,1,0,0:0:0:0:
256,192,3837,1,2,0:0:0:0:
256,192,4206,1,0,0:0:0:0:
256,192,4298,1,0,0:0:0:0:
256,192,4390,1,2,0:0:0:0:
256,192,4482,1,2,0:0:0:0:
256,192,4574,1,2,0:0:0:0:
256,192,4666,1,2,0:0:0:0:
256,192,4758,1,4,0:0:0:0:
256,192,4942,1,2,0:0:0:0:
256,192,5126,1,4,0:0:0:0:
256,192,5310,1,2,0:0:0:0:
256,192,5494,1,4,0:0:0:0:
256,192,5678,1,2,0:0:0:0:
256,192,5770,1,2,0:0:0:0:
256,192,5862,1,4,0:0:0:0:
256,192,6046,1,2,0:0:0:0:
256,192,6230,1,6,0:0:0:0:
256,192,6414,1,2,0:0:0:0:
256,192,6506,1,2,0:0:0:0:
256,192,6598,1,4,0:0:0:0:
256,192,6782,1,0,0:0:0:0:
256,192,6966,1,6,0:0:0:0:
256,192,7150,1,2,0:0:0:0:
256,192,7334,1,4,0:0:0:0:
256,192,7518,1,0,0:0:0:0:
256,192,7702,1,4,0:0:0:0:
256,192,7887,1,2,0:0:0:0:
256,192,8071,1,4,0:0:0:0:
256,192,8255,1,2,0:0:0:0:
256,192,8439,1,4,0:0:0:0:
256,192,8623,1,2,0:0:0:0:
256,192,8715,1,2,0:0:0:0:
256,192,8807,1,4,0:0:0:0:
256,192,8991,1,2,0:0:0:0:
256,192,9175,1,6,0:0:0:0:
256,192,9359,1,2,0:0:0:0:
256,192,9451,1,0,0:0:0:0:
256,192,9543,1,4,0:0:0:0:
256,192,9727,1,2,0:0:0:0:
256,192,9911,1,4,0:0:0:0:
256,192,10003,1,0,0:0:0:0:
256,192,10095,1,2,0:0:0:0:
256,192,10279,1,4,0:0:0:0:
256,192,10647,1,4,0:0:0:0:
256,192,10831,1,2,0:0:0:0:
256,192,11015,1,4,0:0:0:0:
256,192,11199,1,2,0:0:0:0:
256,192,11383,1,4,0:0:0:0:
256,192,11567,1,2,0:0:0:0:
256,192,11660,1,2,0:0:0:0:
256,192,11752,1,4,0:0:0:0:
256,192,11936,1,0,0:0:0:0:
256,192,12120,1,6,0:0:0:0:
256,192,12212,1,2,0:0:0:0:
256,192,12304,1,2,0:0:0:0:
256,192,12396,1,2,0:0:0:0:
256,192,12488,1,4,0:0:0:0:
256,192,12580,1,0,0:0:0:0:
256,192,12672,1,0,0:0:0:0:
256,192,12764,1,0,0:0:0:0:
256,192,12856,1,6,0:0:0:0:
256,192,13040,1,2,0:0:0:0:
256,192,13224,1,4,0:0:0:0:
256,192,13408,1,0,0:0:0:0:
256,192,13592,1,4,0:0:0:0:
256,192,13776,1,2,0:0:0:0:
256,192,13960,1,4,0:0:0:0:
256,192,14144,1,2,0:0:0:0:
256,192,14328,1,4,0:0:0:0:
256,192,14512,1,2,0:0:0:0:
256,192,14604,1,2,0:0:0:0:
256,192,14696,1,4,0:0:0:0:
256,192,14880,1,0,0:0:0:0:
256,192,15064,1,6,0:0:0:0:
256,192,15156,1,2,0:0:0:0:
256,192,15248,1,2,0:0:0:0:
256,192,15340,1,2,0:0:0:0:
256,192,15433,1,4,0:0:0:0:
256,192,15525,1,2,0:0:0:0:
256,192,15617,1,0,0:0:0:0:
256,192,15709,1,2,0:0:0:0:
256,192,15801,1,4,0:0:0:0:
256,192,16169,1,2,0:0:0:0:
256,192,16261,1,2,0:0:0:0:
256,192,16353,1,2,0:0:0:0:
256,192,16445,1,2,0:0:0:0:
256,192,16537,1,4,0:0:0:0:
256,192,16905,1,2,0:0:0:0:
256,192,17089,1,0,0:0:0:0:
256,192,17273,1,0,0:0:0:0:
256,192,17457,1,0,0:0:0:0:
256,192,17641,1,2,0:0:0:0:
256,192,18009,1,6,0:0:0:0:
256,192,18377,1,0,0:0:0:0:
256,192,18561,1,0,0:0:0:0:
256,192,18745,1,2,0:0:0:0:
256,192,19113,1,2,0:0:0:0:
256,192,19298,1,2,0:0:0:0:
256,192,19482,1,4,0:0:0:0:
256,192,19666,1,0,0:0:0:0:
256,192,19850,1,0,0:0:0:0:
256,192,20034,1,0,0:0:0:0:
256,192,20218,1,6,0:0:0:0:
256,192,20402,1,2,0:0:0:0:
256,192,20586,1,0,0:0:0:0:
256,192,20770,1,0,0:0:0:0:
256,192,20954,1,6,0:0:0:0:
256,192,21138,1,0,0:0:0:0:
256,192,21322,1,2,0:0:0:0:
256,192,21506,1,0,0:0:0:0:
256,192,21690,1,6,0:0:0:0:
256,192,21874,1,0,0:0:0:0:
256,192,22058,1,0,0:0:0:0:
256,192,22242,1,0,0:0:0:0:
256,192,22426,1,6,0:0:0:0:
256,192,22794,1,2,0:0:0:0:
256,192,22979,1,0,0:0:0:0:
256,192,23162,1,2,0:0:0:0:
256,192,23347,1,0,0:0:0:0:
256,192,23530,1,2,0:0:0:0:
256,192,23715,1,2,0:0:0:0:
256,192,23898,1,6,0:0:0:0:
256,192,24266,1,2,0:0:0:0:
256,192,24451,1,2,0:0:0:0:
256,192,24634,1,0,0:0:0:0:
256,192,25002,1,2,0:0:0:0:
256,192,25370,1,6,0:0:0:0:
256,192,25555,1,2,0:0:0:0:
256,192,25739,1,0,0:0:0:0:
256,192,25923,1,0,0:0:0:0:
256,192,26107,1,6,0:0:0:0:
256,192,26291,1,2,0:0:0:0:
256,192,26475,1,0,0:0:0:0:
256,192,26660,1,0,0:0:0:0:
256,192,26843,1,4,0:0:0:0:
256,192,27028,1,0,0:0:0:0:
256,192,27211,1,0,0:0:0:0:
256,192,27396,1,0,0:0:0:0:
256,192,27579,1,2,0:0:0:0:
256,192,27947,1,2,0:0:0:0:
256,192,28132,1,2,0:0:0:0:
256,192,28224,1,2,0:0:0:0:
256,192,28315,1,0,0:0:0:0:
256,192,28500,1,2,0:0:0:0:
256,192,28592,1,0,0:0:0:0:
256,192,28684,1,4,0:0:0:0:
256,192,28868,1,2,0:0:0:0:
256,192,29052,1,4,0:0:0:0:
256,192,29328,1,2,0:0:0:0:
256,192,29420,1,6,0:0:0:0:
256,192,29604,1,0,0:0:0:0:
256,192,29788,1,4,0:0:0:0:
256,192,29972,1,2,0:0:0:0:
256,192,30064,1,0,0:0:0:0:
256,192,30156,1,4,0:0:0:0:
256,192,30340,1,0,0:0:0:0:
256,192,30525,1,6,0:0:0:0:
256,192,30709,1,0,0:0:0:0:
256,192,30801,1,0,0:0:0:0:
256,192,30893,1,6,0:0:0:0:
256,192,31077,1,0,0:0:0:0:
256,192,31261,1,4,0:0:0:0:
256,224,31445,1,0,0:0:0:0:
256,192,31629,1,6,0:0:0:0:
256,192,31813,1,0,0:0:0:0:
256,192,31905,1,0,0:0:0:0:
256,192,31997,1,6,0:0:0:0:
256,192,32181,1,0,0:0:0:0:
256,192,32365,1,6,0:0:0:0:
256,192,32549,1,0,0:0:0:0:
256,192,32733,1,6,0:0:0:0:
256,192,32917,1,0,0:0:0:0:
256,192,33009,1,0,0:0:0:0:
256,192,33101,1,6,0:0:0:0:
256,192,33285,1,0,0:0:0:0:
256,192,33377,1,0,0:0:0:0:
256,192,33469,1,6,0:0:0:0:
256,192,33653,1,0,0:0:0:0:
256,192,33745,1,2,0:0:0:0:
256,192,33837,1,2,0:0:0:0:
256,192,33929,1,2,0:0:0:0:
256,192,34021,1,0,0:0:0:0:
256,192,34206,1,4,0:0:0:0:
256,192,34390,1,2,0:0:0:0:
256,192,34574,1,4,0:0:0:0:
256,192,34758,1,0,0:0:0:0:
256,192,34942,1,6,0:0:0:0:
256,192,35310,1,6,0:0:0:0:
256,192,35678,1,4,0:0:0:0:
256,192,35862,1,0,0:0:0:0:
256,192,36046,1,6,0:0:0:0:
256,192,36230,1,2,0:0:0:0:
256,192,36414,1,4,0:0:0:0:
256,192,36782,1,4,0:0:0:0:
256,192,37150,1,4,0:0:0:0:
256,192,37334,1,0,0:0:0:0:
256,192,37426,1,0,0:0:0:0:
256,192,37518,1,6,0:0:0:0:
256,192,37702,1,0,0:0:0:0:
256,192,37887,1,6,0:0:0:0:
256,192,38071,1,0,0:0:0:0:
256,192,38163,1,0,0:0:0:0:
256,192,38255,1,2,0:0:0:0:
256,192,38347,1,2,0:0:0:0:
256,192,38439,1,0,0:0:0:0:
256,192,38531,1,0,0:0:0:0:
256,192,38623,1,6,0:0:0:0:
256,192,39359,1,0,0:0:0:0:
256,192,39727,1,0,0:0:0:0:
256,192,40095,1,6,0:0:0:0:
256,192,40279,1,0,0:0:0:0:
256,192,40463,1,2,0:0:0:0:
256,192,40555,1,2,0:0:0:0:
256,192,40647,1,0,0:0:0:0:
256,192,40831,1,2,0:0:0:0:
256,192,41015,1,0,0:0:0:0:
256,192,41199,1,2,0:0:0:0:
256,192,41291,1,2,0:0:0:0:
256,192,41383,1,2,0:0:0:0:
256,192,41567,1,4,0:0:0:0:
256,192,41752,1,2,0:0:0:0:
256,192,41936,1,6,0:0:0:0:
256,192,42120,1,2,0:0:0:0:
256,192,42304,1,4,0:0:0:0:
256,192,42488,1,0,0:0:0:0:
256,192,42580,1,0,0:0:0:0:
256,192,42672,1,2,0:0:0:0:
256,192,42856,1,2,0:0:0:0:
256,192,42948,1,2,0:0:0:0:
256,192,43040,1,0,0:0:0:0:
224,192,43224,1,0,0:0:0:0:
224,192,43316,1,0,0:0:0:0:
224,192,43408,1,2,0:0:0:0:
224,192,43500,1,0,0:0:0:0:
224,192,43592,1,2,0:0:0:0:
224,192,43684,1,0,0:0:0:0:
224,192,43776,1,2,0:0:0:0:
256,192,43960,1,2,0:0:0:0:
256,192,44052,1,2,0:0:0:0:
256,192,44144,1,0,0:0:0:0:
256,192,44328,1,0,0:0:0:0:
256,192,44420,1,0,0:0:0:0:
256,192,44512,1,6,0:0:0:0:
256,192,44696,1,2,0:0:0:0:
256,192,44880,1,4,0:0:0:0:
256,192,45064,1,0,0:0:0:0:
256,192,45248,1,6,0:0:0:0:
256,192,45433,1,0,0:0:0:0:
256,192,45617,1,0,0:0:0:0:
256,192,45709,1,0,0:0:0:0:
256,192,45801,1,0,0:0:0:0:
256,192,45893,1,0,0:0:0:0:
256,192,45985,1,6,0:0:0:0:
256,192,46169,1,0,0:0:0:0:
256,192,46353,1,0,0:0:0:0:
256,192,46445,1,0,0:0:0:0:
256,192,46537,1,0,0:0:0:0:
256,192,46629,1,0,0:0:0:0:
256,192,46721,1,6,0:0:0:0:
256,192,46905,1,0,0:0:0:0:
256,192,46997,1,0,0:0:0:0:
256,192,47089,1,2,0:0:0:0:
256,192,47181,1,2,0:0:0:0:
256,192,47273,1,2,0:0:0:0:
256,192,47365,1,2,0:0:0:0:
256,192,47457,1,4,0:0:0:0:
256,192,47641,1,0,0:0:0:0:
256,192,47733,1,0,0:0:0:0:
256,192,47825,1,6,0:0:0:0:
256,192,48009,1,6,0:0:0:0:
256,192,48193,1,4,0:0:0:0:
256,192,48561,1,2,0:0:0:0:
288,192,48745,1,0,0:0:0:0:
288,192,48929,1,6,0:0:0:0:
288,192,49114,1,0,0:0:0:0:
288,192,49206,1,0,0:0:0:0:
288,192,49298,1,2,0:0:0:0:
288,192,49482,1,2,0:0:0:0:
288,192,49666,1,0,0:0:0:0:
288,192,49850,1,0,0:0:0:0:
288,192,49942,1,0,0:0:0:0:
288,192,50034,1,0,0:0:0:0:
288,192,50218,1,0,0:0:0:0:
256,192,50402,1,2,0:0:0:0:
256,192,50494,1,0,0:0:0:0:
256,192,50586,1,2,0:0:0:0:
288,192,50770,1,2,0:0:0:0:
288,192,50862,1,0,0:0:0:0:
288,192,50954,1,2,0:0:0:0:
288,192,51138,1,2,0:0:0:0:
288,192,51230,1,0,0:0:0:0:
288,192,51322,1,2,0:0:0:0:
288,192,51506,1,2,0:0:0:0:
256,192,51598,1,2,0:0:0:0:
256,192,51690,1,2,0:0:0:0:
256,192,51782,1,2,0:0:0:0:
256,192,51874,1,4,0:0:0:0:
256,192,52058,1,2,0:0:0:0:
256,192,52242,1,6,0:0:0:0:
256,192,52334,1,2,0:0:0:0:
256,192,52426,1,2,0:0:0:0:
256,192,52518,1,2,0:0:0:0:
256,192,52610,1,2,0:0:0:0:
256,192,52702,1,2,0:0:0:0:
256,192,52794,1,2,0:0:0:0:
256,192,52887,1,2,0:0:0:0:
256,192,52979,1,0,0:0:0:0:
256,192,53071,1,2,0:0:0:0:
256,192,53163,1,2,0:0:0:0:
256,192,53255,1,2,0:0:0:0:
256,192,53347,1,0,0:0:0:0:
256,192,53439,1,0,0:0:0:0:
256,192,53531,1,2,0:0:0:0:
256,192,53623,1,2,0:0:0:0:
256,192,53715,1,4,0:0:0:0:
256,192,53899,1,0,0:0:0:0:
256,192,53991,1,6,0:0:0:0:
256,192,54175,1,2,0:0:0:0:
256,192,54267,1,0,0:0:0:0:
256,192,54359,1,0,0:0:0:0:
256,192,54451,1,2,0:0:0:0:
256,192,54543,1,2,0:0:0:0:
256,192,54635,1,2,0:0:0:0:
256,192,54727,1,2,0:0:0:0:
256,192,54819,1,0,0:0:0:0:
256,192,54911,1,2,0:0:0:0:
256,192,55003,1,2,0:0:0:0:
256,192,55095,1,2,0:0:0:0:
256,192,55187,1,4,0:0:0:0:
256,192,55371,1,0,0:0:0:0:
256,192,55463,1,6,0:0:0:0:
256,192,55647,1,2,0:0:0:0:
256,192,55739,1,2,0:0:0:0:
256,192,55831,1,2,0:0:0:0:
256,192,55923,1,0,0:0:0:0:
256,192,56015,1,0,0:0:0:0:
256,192,56107,1,0,0:0:0:0:
256,192,56199,1,0,0:0:0:0:
256,192,56291,1,4,0:0:0:0:
256,192,56475,1,0,0:0:0:0:
256,192,56660,1,4,0:0:0:0:
256,192,56844,1,0,0:0:0:0:
256,192,57028,1,6,0:0:0:0:
256,192,57212,1,2,0:0:0:0:
256,192,57304,1,2,0:0:0:0:
256,192,57396,1,4,0:0:0:0:
256,192,57580,1,2,0:0:0:0:
256,192,57764,1,4,0:0:0:0:
256,192,57948,1,2,0:0:0:0:
256,192,58040,1,2,0:0:0:0:
256,192,58132,1,0,0:0:0:0:
256,192,58224,1,0,0:0:0:0:
256,192,58316,1,0,0:0:0:0:
256,192,58408,1,0,0:0:0:0:
256,192,58500,1,6,0:0:0:0:
256,192,58684,1,4,0:0:0:0:
256,192,58868,1,6,0:0:0:0:
256,192,59236,1,0,0:0:0:0:
256,192,59604,1,2,0:0:0:0:
256,192,59972,1,2,0:0:0:0:
256,192,60064,1,2,0:0:0:0:
256,192,60156,1,2,0:0:0:0:
256,192,60248,1,2,0:0:0:0:
256,192,60340,1,2,0:0:0:0:
256,192,60525,1,0,0:0:0:0:
256,192,60709,1,4,0:0:0:0:
256,192,60893,1,2,0:0:0:0:
256,192,61077,1,4,0:0:0:0:
256,192,61261,1,2,0:0:0:0:
256,192,61445,1,4,0:0:0:0:
256,192,61629,1,2,0:0:0:0:
256,192,61721,1,2,0:0:0:0:
256,192,61813,1,4,0:0:0:0:
256,192,61997,1,2,0:0:0:0:
256,192,62181,1,6,0:0:0:0:
256,192,62273,1,2,0:0:0:0:
256,192,62365,1,2,0:0:0:0:
256,192,62457,1,2,0:0:0:0:
256,192,62549,1,4,0:0:0:0:
256,192,62641,1,2,0:0:0:0:
256,192,62733,1,0,0:0:0:0:
256,192,62825,1,0,0:0:0:0:
256,192,62917,1,6,0:0:0:0:
256,192,63101,1,2,0:0:0:0:
256,192,63285,1,4,0:0:0:0:
256,192,63469,1,0,0:0:0:0:
256,192,63653,1,4,0:0:0:0:
256,192,63838,1,2,0:0:0:0:
256,192,64022,1,4,0:0:0:0:
256,192,64206,1,2,0:0:0:0:
256,192,64390,1,4,0:0:0:0:
256,192,64574,1,2,0:0:0:0:
256,192,64666,1,2,0:0:0:0:
256,192,64758,1,4,0:0:0:0:
256,192,64942,1,2,0:0:0:0:
256,192,65126,1,6,0:0:0:0:
256,192,65218,1,2,0:0:0:0:
256,192,65310,1,2,0:0:0:0:
256,192,65402,1,2,0:0:0:0:
256,192,65494,1,4,0:0:0:0:
256,192,65586,1,0,0:0:0:0:
256,192,65678,1,2,0:0:0:0:
256,192,65770,1,2,0:0:0:0:
256,192,65862,1,4,0:0:0:0:
256,192,66046,1,0,0:0:0:0:
256,192,66138,1,0,0:0:0:0:
256,192,66230,1,6,0:0:0:0:
256,192,66414,1,2,0:0:0:0:
256,192,66506,1,2,0:0:0:0:
256,192,66598,1,4,0:0:0:0:
256,192,66782,1,2,0:0:0:0:
256,192,66966,1,4,0:0:0:0:
256,192,67150,1,2,0:0:0:0:
256,192,67334,1,4,0:0:0:0:
256,192,67518,1,0,0:0:0:0:
256,192,67610,1,0,0:0:0:0:
256,192,67703,1,6,0:0:0:0:
256,192,67887,1,0,0:0:0:0:
256,192,68071,1,6,0:0:0:0:
256,192,68163,1,2,0:0:0:0:
256,192,68255,1,2,0:0:0:0:
256,192,68347,1,2,0:0:0:0:
256,192,68439,1,4,0:0:0:0:
256,192,68531,1,2,0:0:0:0:
256,192,68623,1,0,0:0:0:0:
256,192,68715,1,0,0:0:0:0:
256,192,68807,1,6,0:0:0:0:
256,192,68991,1,2,0:0:0:0:
256,192,69175,1,4,0:0:0:0:
256,192,69359,1,0,0:0:0:0:
256,192,69543,1,4,0:0:0:0:
256,192,69727,1,2,0:0:0:0:
256,192,69911,1,4,0:0:0:0:
256,192,70095,1,2,0:0:0:0:
256,192,70279,1,4,0:0:0:0:
256,192,70463,1,2,0:0:0:0:
256,192,70555,1,2,0:0:0:0:
256,192,70647,1,4,0:0:0:0:
256,192,70831,1,0,0:0:0:0:
256,192,71015,1,6,0:0:0:0:
256,192,71107,1,2,0:0:0:0:
256,192,71199,1,2,0:0:0:0:
256,192,71291,1,2,0:0:0:0:
256,192,71384,1,4,0:0:0:0:
256,192,71476,1,2,0:0:0:0:
256,192,71568,1,0,0:0:0:0:
256,192,71660,1,2,0:0:0:0:
256,192,71752,1,4,0:0:0:0:
256,192,71936,1,0,0:0:0:0:
256,192,72028,1,0,0:0:0:0:
256,192,72120,1,2,0:0:0:0:
256,192,72212,1,2,0:0:0:0:
256,192,72304,1,2,0:0:0:0:
256,192,72396,1,2,0:0:0:0:
256,192,72488,1,4,0:0:0:0:
256,192,72856,1,0,0:0:0:0:
256,192,73224,1,0,0:0:0:0:
256,192,73592,1,2,0:0:0:0:
256,192,73960,1,0,0:0:0:0:
256,192,74328,1,0,0:0:0:0:
256,192,74512,1,0,0:0:0:0:
256,192,74696,1,6,0:0:0:0:
256,192,74880,1,2,0:0:0:0:
256,192,75064,1,0,0:0:0:0:
256,192,75248,1,0,0:0:0:0:
256,192,75433,1,0,0:0:0:0:
256,192,75801,1,0,0:0:0:0:
256,192,76169,1,0,0:0:0:0:
256,192,76537,1,2,0:0:0:0:
256,192,76905,1,0,0:0:0:0:
256,192,77273,1,2,0:0:0:0:
256,192,77457,1,0,0:0:0:0:
256,192,77641,1,6,0:0:0:0:
256,192,78009,1,2,0:0:0:0:
256,192,78193,1,2,0:0:0:0:
256,192,78377,1,0,0:0:0:0:
256,192,78561,1,0,0:0:0:0:
256,192,78653,1,0,0:0:0:0:
256,192,78745,1,0,0:0:0:0:
256,192,78929,1,0,0:0:0:0:
256,192,79114,1,2,0:0:0:0:
256,192,79298,1,0,0:0:0:0:
256,192,79390,1,0,0:0:0:0:
256,192,79482,1,2,0:0:0:0:
256,192,79666,1,2,0:0:0:0:
256,192,79758,1,2,0:0:0:0:
256,192,79850,1,0,0:0:0:0:
256,192,80126,1,0,0:0:0:0:
256,192,80402,1,0,0:0:0:0:
256,192,80586,1,2,0:0:0:0:
256,192,80770,1,2,0:0:0:0:
256,192,80862,1,2,0:0:0:0:
256,192,80954,1,0,0:0:0:0:
256,192,81046,1,0,0:0:0:0:
256,192,81138,1,0,0:0:0:0:
256,192,81230,1,0,0:0:0:0:
256,192,81322,1,2,0:0:0:0:
256,192,81414,1,0,0:0:0:0:
256,192,81506,1,0,0:0:0:0:
256,192,81598,1,0,0:0:0:0:
256,192,81690,1,2,0:0:0:0:
256,192,81782,1,0,0:0:0:0:
256,192,81874,1,0,0:0:0:0:
256,192,81966,1,0,0:0:0:0:
256,192,82058,1,2,0:0:0:0:
256,192,82150,1,2,0:0:0:0:
256,192,82242,1,0,0:0:0:0:
256,192,82334,1,0,0:0:0:0:
256,192,82426,1,0,0:0:0:0:
256,192,82518,1,0,0:0:0:0:
256,192,82610,1,2,0:0:0:0:
256,192,82702,1,2,0:0:0:0:
256,192,82794,1,2,0:0:0:0:
256,192,82887,1,0,0:0:0:0:
256,192,82979,1,0,0:0:0:0:
256,192,83071,1,0,0:0:0:0:
256,192,83163,1,2,0:0:0:0:
256,192,83255,1,0,0:0:0:0:
256,192,83347,1,0,0:0:0:0:
256,192,83439,1,2,0:0:0:0:
256,192,83531,1,4,0:0:0:0:
256,192,83899,1,0,0:0:0:0:
256,192,84083,1,0,0:0:0:0:
256,192,84267,1,6,0:0:0:0:
256,192,84450,1,2,0:0:0:0:
256,192,84542,1,0,0:0:0:0:
256,192,84635,1,0,0:0:0:0:
256,192,84819,1,2,0:0:0:0:
256,192,85003,1,0,0:0:0:0:
256,192,85186,1,0,0:0:0:0:
256,192,85278,1,0,0:0:0:0:
256,192,85371,1,2,0:0:0:0:
256,192,85555,1,0,0:0:0:0:
256,192,85739,1,6,0:0:0:0:
256,192,85923,1,2,0:0:0:0:
256,192,86015,1,2,0:0:0:0:
256,192,86107,1,0,0:0:0:0:
256,192,86291,1,0,0:0:0:0:
256,192,86475,1,2,0:0:0:0:
256,192,86660,1,2,0:0:0:0:
256,192,86752,1,2,0:0:0:0:
256,192,86844,1,2,0:0:0:0:
256,192,86936,1,2,0:0:0:0:
256,192,87028,1,0,0:0:0:0:
256,192,87120,1,0,0:0:0:0:
256,192,87212,1,4,0:0:0:0:
256,192,87396,1,0,0:0:0:0:
256,192,87580,1,4,0:0:0:0:
256,192,87764,1,0,0:0:0:0:
256,192,87948,1,4,0:0:0:0:
256,192,88132,1,0,0:0:0:0:
256,192,88316,1,6,0:0:0:0:
256,192,88500,1,2,0:0:0:0:
256,192,88684,1,4,0:0:0:0:
256,192,88868,1,0,0:0:0:0:
256,192,89052,1,4,0:0:0:0:
256,192,89236,1,0,0:0:0:0:
256,192,89420,1,6,0:0:0:0:
256,192,89604,1,0,0:0:0:0:
256,192,89696,1,2,0:0:0:0:
256,192,89788,1,2,0:0:0:0:
256,192,89880,1,2,0:0:0:0:
256,192,89972,1,0,0:0:0:0:
256,192,90156,1,4,0:0:0:0:
256,192,90340,1,0,0:0:0:0:
256,192,90433,1,0,0:0:0:0:
256,192,90525,1,4,0:0:0:0:
256,192,90709,1,0,0:0:0:0:
256,192,90801,1,0,0:0:0:0:
256,192,90893,1,6,0:0:0:0:
256,192,91077,1,0,0:0:0:0:
256,192,91261,1,6,0:0:0:0:
256,192,91445,1,2,0:0:0:0:
256,192,91537,1,2,0:0:0:0:
256,192,91629,1,4,0:0:0:0:
256,192,91813,1,0,0:0:0:0:
256,192,91997,1,6,0:0:0:0:
256,192,92181,1,2,0:0:0:0:
256,192,92273,1,2,0:0:0:0:
256,192,92365,1,4,0:0:0:0:
256,192,92549,1,0,0:0:0:0:
256,192,92733,1,6,0:0:0:0:
256,192,93101,1,4,0:0:0:0:
256,192,93285,1,0,0:0:0:0:
256,192,93377,1,0,0:0:0:0:
256,192,93469,1,0,0:0:0:0:
256,192,93653,1,0,0:0:0:0:
256,192,93837,1,6,0:0:0:0:
256,192,94021,1,0,0:0:0:0:
256,192,94114,1,0,0:0:0:0:
256,192,94206,1,0,0:0:0:0:
256,192,94391,1,0,0:0:0:0:
256,192,94483,1,0,0:0:0:0:
256,192,94574,1,6,0:0:0:0:
256,192,94942,1,6,0:0:0:0:
256,192,95310,1,0,0:0:0:0:
256,192,95678,1,0,0:0:0:0:
256,192,96046,1,6,0:0:0:0:
256,192,96230,1,0,0:0:0:0:
256,192,96322,1,0,0:0:0:0:
256,192,96414,1,2,0:0:0:0:
256,192,96598,1,0,0:0:0:0:
256,192,96782,1,2,0:0:0:0:
256,192,96966,1,0,0:0:0:0:
256,192,97058,1,0,0:0:0:0:
256,192,97150,1,2,0:0:0:0:
256,192,97334,1,2,0:0:0:0:
256,192,97518,1,4,0:0:0:0:
256,192,97702,1,2,0:0:0:0:
256,192,97794,1,2,0:0:0:0:
256,192,97887,1,6,0:0:0:0:
256,192,98071,1,2,0:0:0:0:
256,192,98163,1,2,0:0:0:0:
256,192,98255,1,4,0:0:0:0:
256,192,98439,1,0,0:0:0:0:
256,192,98531,1,0,0:0:0:0:
256,192,98623,1,2,0:0:0:0:
256,192,98807,1,0,0:0:0:0:
256,192,98991,1,2,0:0:0:0:
256,192,99175,1,0,0:0:0:0:
256,192,99267,1,0,0:0:0:0:
256,192,99359,1,2,0:0:0:0:
256,192,99543,1,0,0:0:0:0:
256,192,99635,1,0,0:0:0:0:
256,192,99727,1,2,0:0:0:0:
256,192,99819,1,0,0:0:0:0:
256,192,99911,1,2,0:0:0:0:
256,192,100003,1,2,0:0:0:0:
256,192,100095,1,0,0:0:0:0:
256,192,100279,1,0,0:0:0:0:
256,192,100371,1,0,0:0:0:0:
256,192,100463,1,2,0:0:0:0:
256,192,100555,1,2,0:0:0:0:
256,192,100647,1,0,0:0:0:0:
256,192,100739,1,0,0:0:0:0:
256,192,100831,1,6,0:0:0:0:
256,192,101015,1,6,0:0:0:0:
256,192,101199,1,6,0:0:0:0:
256,192,101383,1,0,0:0:0:0:
256,192,101475,1,0,0:0:0:0:
256,192,101567,1,0,0:0:0:0:
256,192,101752,1,0,0:0:0:0:
256,192,101844,1,0,0:0:0:0:
256,192,101936,1,2,0:0:0:0:
256,192,102120,1,0,0:0:0:0:
256,192,102304,1,2,0:0:0:0:
256,192,102488,1,0,0:0:0:0:
256,192,102580,1,0,0:0:0:0:
256,192,102672,1,2,0:0:0:0:
256,192,102856,1,0,0:0:0:0:
256,192,102948,1,0,0:0:0:0:
256,192,103040,1,2,0:0:0:0:
256,192,103224,1,2,0:0:0:0:
256,192,103316,1,2,0:0:0:0:
256,192,103408,1,4,0:0:0:0:
256,192,103592,1,4,0:0:0:0:
256,192,103776,1,6,0:0:0:0:
256,192,103960,1,6,0:0:0:0:
256,192,104144,1,6,0:0:0:0:
256,192,104328,1,0,0:0:0:0:
256,192,104512,1,2,0:0:0:0:
256,192,104696,1,2,0:0:0:0:
256,192,104788,1,2,0:0:0:0:
256,192,104880,1,0,0:0:0:0:
256,192,105064,1,0,0:0:0:0:
256,192,105156,1,0,0:0:0:0:
256,192,105248,1,2,0:0:0:0:
256,192,105340,1,2,0:0:0:0:
256,192,105433,1,0,0:0:0:0:
256,192,105617,1,0,0:0:0:0:
256,192,105801,1,0,0:0:0:0:
256,192,105893,1,0,0:0:0:0:
256,192,105985,1,2,0:0:0:0:
256,192,106077,1,2,0:0:0:0:
256,192,106169,1,0,0:0:0:0:
256,192,106353,1,0,0:0:0:0:
256,192,106445,1,0,0:0:0:0:
256,192,106537,1,2,0:0:0:0:
256,192,106629,1,0,0:0:0:0:
256,192,106721,1,0,0:0:0:0:
256,192,106813,1,0,0:0:0:0:
256,192,106905,1,2,0:0:0:0:
256,192,106997,1,0,0:0:0:0:
256,192,107089,1,0,0:0:0:0:
256,192,107181,1,0,0:0:0:0:
256,192,107273,1,2,0:0:0:0:
256,192,107365,1,0,0:0:0:0:
256,192,107457,1,0,0:0:0:0:
256,192,107549,1,0,0:0:0:0:
256,192,107641,1,2,0:0:0:0:
256,192,107733,1,0,0:0:0:0:
256,192,107825,1,4,0:0:0:0:
256,192,108009,1,2,0:0:0:0:
256,192,108193,1,4,0:0:0:0:
256,192,108377,1,2,0:0:0:0:
256,192,108469,1,2,0:0:0:0:
256,192,108561,1,4,0:0:0:0:
256,192,108745,1,2,0:0:0:0:
256,192,108929,1,4,0:0:0:0:
256,192,109114,1,2,0:0:0:0:
256,192,109206,1,2,0:0:0:0:
256,192,109298,1,4,0:0:0:0:
256,192,109482,1,2,0:0:0:0:
256,192,109666,1,4,0:0:0:0:
256,192,109850,1,6,0:0:0:0:
256,192,110034,1,4,0:0:0:0:
256,192,110218,1,0,0:0:0:0:
256,192,110310,1,0,0:0:0:0:
256,192,110402,1,4,0:0:0:0:
256,192,110586,1,2,0:0:0:0:
256,192,110770,1,4,0:0:0:0:
256,192,110954,1,0,0:0:0:0:
256,192,111046,1,0,0:0:0:0:
256,192,111138,1,6,0:0:0:0:
256,192,111230,1,2,0:0:0:0:
256,192,111322,1,0,0:0:0:0:
256,192,111414,1,0,0:0:0:0:
256,192,111506,1,6,0:0:0:0:
256,192,111690,1,0,0:0:0:0:
256,192,111782,1,0,0:0:0:0:
256,192,111874,1,6,0:0:0:0:
256,192,111966,1,2,0:0:0:0:
256,192,112058,1,0,0:0:0:0:
256,192,112150,1,0,0:0:0:0:
256,192,112242,1,6,0:0:0:0:
256,192,112426,1,2,0:0:0:0:
256,192,112518,1,2,0:0:0:0:
256,192,112610,1,4,0:0:0:0:
256,192,112794,1,4,0:0:0:0:
256,192,112979,1,6,0:0:0:0:
256,192,113071,1,0,0:0:0:0:
256,192,113163,1,0,0:0:0:0:
256,192,113255,1,0,0:0:0:0:
256,192,113347,1,2,0:0:0:0:
256,192,113531,1,2,0:0:0:0:
256,192,113715,1,6,0:0:0:0:
256,192,113899,1,0,0:0:0:0:
256,192,113991,1,0,0:0:0:0:
256,192,114083,1,2,0:0:0:0:
256,192,114175,1,2,0:0:0:0:
256,192,114267,1,0,0:0:0:0:
256,192,114359,1,0,0:0:0:0:
256,192,114451,1,6,0:0:0:0:
256,192,114635,1,0,0:0:0:0:
256,192,114727,1,2,0:0:0:0:
256,192,114819,1,2,0:0:0:0:
256,192,114911,1,2,0:0:0:0:
256,192,115003,1,2,0:0:0:0:
256,192,115095,1,2,0:0:0:0:
256,192,115187,1,4,0:0:0:0:
256,192,115371,1,4,0:0:0:0:
256,192,115555,1,6,0:0:0:0:
256,192,115739,1,6,0:0:0:0:
256,192,115923,1,4,0:0:0:0:
256,192,116107,1,0,0:0:0:0:
256,192,116199,1,0,0:0:0:0:
256,192,116291,1,2,0:0:0:0:
256,192,116383,1,2,0:0:0:0:
256,192,116475,1,2,0:0:0:0:
256,192,116567,1,2,0:0:0:0:
256,192,116660,1,4,0:0:0:0:
256,192,116844,1,0,0:0:0:0:
256,192,116936,1,0,0:0:0:0:
256,192,117028,1,2,0:0:0:0:
256,192,117212,1,2,0:0:0:0:
256,192,117304,1,2,0:0:0:0:
256,192,117396,1,0,0:0:0:0:
256,192,117580,1,0,0:0:0:0:
256,192,117672,1,0,0:0:0:0:
256,192,117764,1,0,0:0:0:0:
256,192,117856,1,0,0:0:0:0:
256,192,117948,1,0,0:0:0:0:
256,192,118040,1,0,0:0:0:0:
256,192,118132,1,0,0:0:0:0:
256,192,118224,1,0,0:0:0:0:
256,192,118316,1,2,0:0:0:0:
256,192,118408,1,0,0:0:0:0:
256,192,118500,1,0,0:0:0:0:
256,192,118592,1,0,0:0:0:0:
256,192,118684,1,2,0:0:0:0:
256,192,118776,1,0,0:0:0:0:
256,192,118868,1,0,0:0:0:0:
256,192,118960,1,0,0:0:0:0:
256,192,119052,1,2,0:0:0:0:
256,192,119144,1,0,0:0:0:0:
256,192,119236,1,0,0:0:0:0:
256,192,119328,1,0,0:0:0:0:
256,192,119420,1,2,0:0:0:0:
256,192,119512,1,0,0:0:0:0:
256,192,119604,1,0,0:0:0:0:
256,192,119696,1,0,0:0:0:0:
256,192,119788,1,2,0:0:0:0:
256,192,119880,1,2,0:0:0:0:
256,192,119972,1,0,0:0:0:0:
256,192,120064,1,0,0:0:0:0:
256,192,120156,1,2,0:0:0:0:
256,192,120248,1,2,0:0:0:0:
256,192,120340,1,0,0:0:0:0:
256,192,120433,1,0,0:0:0:0:
256,192,120525,1,2,0:0:0:0:
256,192,120617,1,2,0:0:0:0:
256,192,120708,1,4,0:0:0:0:
256,192,120770,1,0,0:0:0:0:
256,192,120831,1,0,0:0:0:0:
256,192,120893,1,4,0:0:0:0:
256,192,120954,1,0,0:0:0:0:
256,192,121015,1,0,0:0:0:0:
256,192,121077,1,6,0:0:0:0:
