osu file format v14

[General]
AudioFilename: ben-prunty-engi-battle.mp3
AudioLeadIn: 2000
PreviewTime: 96002
Countdown: 0
SampleSet: Soft
StackLeniency: 0.7
Mode: 0
LetterboxInBreaks: 1
WidescreenStoryboard: 0

[Editor]
Bookmarks: 16002,32004,48002,64002,66377,80002,96002,112002,128002,144002,160002
DistanceSpacing: 1.4
BeatDivisor: 4
GridSize: 4
TimelineZoom: 1

[Metadata]
Title:Engi (battle)
TitleUnicode:Engi (battle)
Artist:Ben Prunty
ArtistUnicode:Ben Prunty
Creator:-PC
Version:Normal
Source:FTL: Faster Than Light
Tags:
BeatmapID:657379
BeatmapSetID:291998

[Difficulty]
HPDrainRate:4
CircleSize:3
OverallDifficulty:3
ApproachRate:4
SliderMultiplier:1.3
SliderTickRate:2

[Events]
//Background and Video events
0,0,"bg.png",0,0
//Break Periods
2,64202,70182
2,72202,77682
//Storyboard Layer 0 (Background)
//Storyboard Layer 1 (Fail)
//Storyboard Layer 2 (Pass)
//Storyboard Layer 3 (Foreground)
//Storyboard Sound Samples

[TimingPoints]
2,500,4,2,0,25,1,0
16002,-100,4,2,0,35,0,0
35502,-100,4,2,0,25,0,0
35752,-100,4,2,0,35,0,0
43502,-100,4,2,0,25,0,0
43752,-100,4,2,0,35,0,0
45502,-100,4,2,0,25,0,0
45752,-100,4,2,0,35,0,0
79002,-100,4,2,0,25,0,0
79752,-100,4,2,0,35,0,0
80002,-100,4,2,0,45,0,1
88002,-100,4,2,0,45,0,0
90002,-100,4,2,0,45,0,1
96002,-100,4,2,0,35,0,0
102752,-100,4,2,0,25,0,0
103752,-100,4,2,0,35,0,0
110502,-100,4,2,0,25,0,0
110877,-100,4,2,0,35,0,0
127502,-100,4,2,0,25,0,0
127752,-100,4,2,0,35,0,0
128502,-100,4,2,0,25,0,0
160502,-100,4,2,0,20,0,0
162002,-100,4,2,0,15,0,0
162502,-100,4,2,0,10,0,0
163002,-100,4,2,0,8,0,0
163502,-100,4,2,0,5,0,0

[Colours]
Combo1 : 0,196,217
Combo2 : 252,154,7
Combo3 : 240,7,65

[HitObjects]
60,140,2,6,0,L|192:120,1,130
232,40,752,2,0,P|274:88|269:160,1,130
320,232,1502,1,2,0:0:0:0:
412,220,1752,1,2,0:0:0:0:
452,136,2002,6,0,B|384:124|384:124|332:84,1,130
260,40,2752,2,0,L|240:168,1,130
226,258,3502,1,0,0:0:0:0:
84,136,4002,6,0,B|148:112|148:112|193:63,1,130
276,96,4752,2,0,L|256:224,1,130
176,180,5502,1,2,0:0:0:0:
84,180,5752,1,2,0:0:0:0:
128,260,6002,6,0,B|188:288|188:288|232:344,1,130
284,268,6752,2,0,L|428:248,1,130
460,172,7502,1,0,0:0:0:0:
319,57,8002,6,0,P|251:77|191:61,1,130
119,117,8752,2,0,L|143:253,1,130
72,292,9502,1,2,0:0:0:0:
56,204,9752,1,2,0:0:0:0:
44,112,10002,6,0,B|88:65|88:65|164:48,1,130
148,140,10752,2,0,L|276:120,1,130
272,212,11502,1,0,0:0:0:0:
444,60,12002,6,0,P|460:124|448:188,1,130
368,228,12752,2,0,P|352:292|364:356,1,130
268,328,13502,1,2,0:0:0:0:
184,296,13752,1,2,0:0:0:0:
100,260,14002,6,0,B|92:188|92:188|64:136,1,130
156,120,14752,2,0,L|296:104,1,130
375,92,15502,1,0,0:0:0:0:
356,180,15752,1,0,0:0:0:0:
356,180,16002,6,0,B|348:227|348:227|352:284,3,97.5,4|0|0|0,1:3|0:0|0:0|0:0,0:0:0:0:
224,224,17502,1,0,0:0:0:0:
152,280,17752,1,2,0:0:0:0:
80,336,18002,6,0,P|60:288|70:239,3,97.5
116,116,19502,1,2,0:0:0:0:
208,104,19752,1,2,0:0:0:0:
172,188,20002,6,0,B|172:236|172:236|148:288,3,97.5
284,304,21502,1,0,0:0:0:0:
312,216,21752,1,2,0:0:0:0:
344,132,22002,6,0,P|300:116|236:104,3,97.5
104,68,23502,1,2,0:0:0:0:
100,160,23752,1,2,0:0:0:0:
96,252,24002,6,0,P|148:256|200:268,1,97.5
296,328,24752,2,0,P|348:336|416:336,1,97.5
280,240,25502,1,0,0:0:0:0:
264,152,25752,1,2,0:0:0:0:
248,64,26002,6,0,L|152:52,1,97.5
60,156,26752,2,0,L|156:144,1,97.5
320,136,27502,1,2,0:0:0:0:
348,48,27752,1,2,0:0:0:0:
440,48,28002,6,0,P|444:112|436:152,1,97.5
372,264,28752,2,0,P|329:312|295:334,1,97.5
352,176,29502,1,0,0:0:0:0:
264,160,29752,1,2,0:0:0:0:
176,144,30002,6,0,P|152:84|148:52,1,97.5
92,176,30752,2,0,P|83:223|63:268,1,97.5
192,312,31502,1,2,0:0:0:0:
224,228,31752,1,2,0:0:0:0:
264,144,32002,6,0,L|364:136,2,97.5,4|4|4,1:3|0:3|0:3,0:0:0:0:
172,140,33002,1,0,0:0:0:0:
80,148,33252,1,0,0:0:0:0:
132,220,33502,1,0,0:0:0:0:
224,228,33752,1,0,0:0:0:0:
172,304,34002,6,0,L|40:320,1,130,4|0,1:3|0:0,0:0:0:0:
76,232,34752,2,0,B|112:176|112:176|116:104,1,130,4|2,1:3|0:0,0:0:0:0:
204,144,35502,1,0,1:0:0:0:
292,116,35752,1,0,1:0:0:0:
376,144,36002,6,0,L|348:276,1,130,4|0,1:3|0:0,0:0:0:0:
276,328,36752,1,4,0:3:0:0:
264,239,37002,1,2,0:0:0:0:
256,148,37252,2,0,P|288:117|297:84,1,65,0|4,0:0|0:3,0:0:0:0:
212,72,37752,1,0,0:0:0:0:
124,96,38002,6,0,B|135:132|163:149|163:149|157:218,1,130,4|0,1:3|1:0,0:0:0:0:
144,301,38752,1,4,0:3:0:0:
232,316,39002,2,0,L|304:300,1,65,2|0,0:0|0:0,0:0:0:0:
360,236,39502,2,0,L|288:220,1,65,0|2,0:0|0:0,0:0:0:0:
208,202,40002,6,0,B|132:182|132:182|138:145|124:118,1,130
47,158,40752,2,0,B|36:203|58:230|58:230|40:260|39:294,1,130
132,288,41502,1,2,0:0:0:0:
220,308,41752,1,2,0:0:0:0:
304,268,42002,6,0,L|328:172,2,97.5,4|4|4,1:3|0:3|0:3,0:0:0:0:
380,320,43002,1,0,2:0:0:0:
402,228,43252,1,0,2:0:0:0:
424,139,43502,2,0,B|436:104|436:104|432:72,1,65,0|0,1:0|1:0,2:0:0:0:
344,96,44002,6,0,L|204:80,1,130,4|0,1:3|0:0,0:0:0:0:
136,124,44752,2,0,B|144:168|144:168|136:212|136:212|144:252,1,130,4|0,1:3|0:0,0:0:0:0:
52,260,45502,1,0,1:0:0:0:
56,168,45752,1,2,1:2:0:0:
60,76,46002,6,0,P|113:35|185:49,1,130,4|0,1:3|0:0,0:0:0:0:
223,117,46752,2,0,P|288:119|334:78,1,130
424,64,47502,1,2,0:0:0:0:
456,148,47752,2,0,P|468:188|464:228,2,65,2|4|0,0:0|1:3|0:0,0:0:0:0:
368,168,48502,2,0,P|376:224|364:264,1,97.5,0|2,0:0|0:0,0:0:0:0:
104,320,49752,6,0,P|108:284|124:248,2,65,0|4|0,0:0|1:3|0:0,0:0:0:0:
196,308,50502,2,0,P|248:316|296:288,1,97.5,2|0,0:0|0:0,0:0:0:0:
80,64,51752,5,0,0:0:0:0:
164,96,52002,2,0,P|164:136|168:164,1,65,4|0,1:3|0:0,0:0:0:0:
256,140,52502,2,0,P|256:192|216:240,2,97.5,0|2|0,0:0|0:0|0:0,0:0:0:0:
314,69,53502,1,2,0:0:0:0:
398,102,53752,1,2,1:2:0:0:
393,192,54002,6,0,P|388:236|392:260,1,65,4|0,1:3|0:0,0:0:0:0:
324,308,54502,2,0,P|306:263|305:214,2,97.5
244,352,55502,1,0,1:0:0:0:
156,328,55752,1,0,1:0:0:0:
68,300,56002,6,0,P|72:260|60:228,1,65,4|0,1:3|0:0,0:0:0:0:
48,148,56502,2,0,P|40:112|60:52,1,97.5,2|0,0:0|0:0,0:0:0:0:
376,48,57752,6,0,P|340:60|304:64,1,65,0|4,0:0|1:3,0:0:0:0:
300,152,58252,1,0,0:0:0:0:
228,100,58502,2,0,P|156:112|124:108,1,97.5,0|2,0:0|0:0,0:0:0:0:
69,331,59502,6,0,P|72:299|88:270,2,65,0|0|4,0:0|0:0|1:3,0:0:0:0:
160,328,60252,1,0,0:0:0:0:
248,356,60502,2,0,P|312:340|348:344,1,97.5,0|2,0:0|0:0,0:0:0:0:
400,220,61252,2,0,P|372:240|340:252,1,65,0|2,0:0|0:0,0:0:0:0:
328,160,61752,1,2,1:2:0:0:
256,100,62002,6,0,P|226:112|199:131,1,65,4|0,1:3|0:0,0:0:0:0:
124,180,62502,2,0,P|164:212|188:252,2,97.5,0|2|0,0:0|0:0|0:0,0:0:0:0:
60,116,63502,1,0,1:0:0:0:
148,88,63752,1,2,1:2:0:0:
220,36,64002,1,4,1:3:0:0:
296,128,71502,5,0,1:0:0:0:
216,256,72002,1,4,1:3:0:0:
116,112,79002,6,0,L|188:104,1,65,0|2,0:0|0:0,0:0:0:0:
264,64,79502,2,0,L|328:71,1,65,0|0,1:0|1:2,0:0:0:0:
420,52,80002,6,0,P|424:80|388:140,1,97.5,4|4,1:3|0:3,0:0:0:0:
388,184,80502,2,0,L|396:252,2,65,0|4|0,1:0|0:3|0:0,0:0:0:0:
300,200,81252,1,0,1:0:0:0:
212,216,81502,2,0,B|176:219|176:219|144:228,1,65
124,140,82002,6,0,P|96:76|76:56,1,97.5,0|4,1:3|0:3,0:0:0:0:
124,56,82502,2,0,L|192:64,1,65,0|4,0:0|0:3,0:0:0:0:
268,108,83002,2,0,L|332:100,1,65,0|0,0:0|1:0,0:0:0:0:
416,136,83502,2,0,P|423:190|440:240,1,97.5,4|0,0:3|0:0,0:0:0:0:
456,272,84002,6,0,L|344:280,1,97.5,4|4,1:3|0:3,0:0:0:0:
316,260,84502,2,0,L|244:264,1,65,0|4,0:0|0:3,0:0:0:0:
172,308,85002,2,0,P|160:264|172:228,1,65,0|0,0:0|1:0,0:0:0:0:
224,180,85502,2,0,P|236:136|224:100,1,65,4|0,0:3|0:0,0:0:0:0:
144,140,86002,6,0,P|84:128|48:108,1,97.5,4|4,1:3|0:3,0:0:0:0:
56,156,86502,2,0,L|60:224,1,65,0|4,1:0|0:3,0:0:0:0:
152,232,87002,2,0,L|156:300,1,65,0|4,1:0|0:3,0:0:0:0:
248,308,87502,2,0,P|296:320|348:320,1,97.5,0|0,1:0|0:0,0:0:0:0:
388,316,88002,6,0,P|392:268|396:244,1,65
392,160,88502,1,0,1:0:0:0:
300,168,88752,1,0,0:0:0:0:
220,208,89002,1,0,0:0:0:0:
128,216,89252,1,0,1:0:0:0:
92,132,89502,2,0,B|71:106|71:106|60:71,1,65,4|0,0:3|0:0,0:0:0:0:
152,64,90002,6,0,L|256:52,1,97.5,4|4,1:3|0:3,0:0:0:0:
292,60,90502,2,0,P|331:57|356:60,1,65,0|4,0:0|0:3,0:0:0:0:
444,88,91002,2,0,P|440:128|444:160,1,65,2|0,0:0|0:0,0:0:0:0:
440,244,91502,2,0,P|390:227|356:178,1,97.5,4|0,0:3|0:0,0:0:0:0:
324,220,92002,6,0,L|348:316,1,97.5,4|4,1:3|0:3,0:0:0:0:
308,336,92502,2,0,P|276:324|244:320,1,65,4|0,0:3|0:0,0:0:0:0:
156,324,93002,2,0,B|156:280|132:252|132:252|140:224|136:192,1,130
48,224,93752,2,0,P|42:263|52:288,2,65,0|4|0,0:0|1:3|0:0,0:0:0:0:
68,136,94502,5,0,1:0:0:0:
88,48,94752,2,0,P|124:56|156:52,1,65,4|0,0:3|0:0,0:0:0:0:
236,92,95252,2,0,P|268:94|300:108,1,65,4|0,0:3|0:0,0:0:0:0:
368,168,95752,1,2,0:0:0:0:
364,260,96002,6,0,P|320:264|288:272,1,65,4|0,1:3|0:0,0:0:0:0:
208,284,96502,1,2,0:0:0:0:
120,256,96752,1,0,0:0:0:0:
32,280,97002,2,0,L|48:148,1,130
140,148,97752,2,0,P|134:117|114:87,2,65,0|4|0,1:0|1:3|0:0,0:0:0:0:
228,120,98502,5,0,0:0:0:0:
316,92,98752,1,0,0:0:0:0:
404,64,99002,2,0,B|416:96|400:132|400:132|384:168|396:196,1,130,0|2,0:0|0:0,0:0:0:0:
484,172,99752,1,2,0:0:0:0:
472,264,100002,6,0,L|404:272,1,65,4|0,1:3|0:0,0:0:0:0:
324,312,100502,1,0,0:0:0:0:
232,324,100752,1,0,0:0:0:0:
220,232,101002,1,0,0:0:0:0:
312,220,101252,1,0,0:0:0:0:
392,180,101502,2,0,B|424:175|424:175|452:160,1,65,2|0,0:0|0:0,0:0:0:0:
392,92,102002,6,0,B|359:96|359:96|332:112,1,65,4|0,1:3|0:0,0:0:0:0:
240,112,102502,1,0,0:0:0:0:
220,200,102752,1,0,1:0:0:0:
152,136,103002,2,0,P|128:184|153:263,1,130,0|0,1:0|1:0,0:0:0:0:
208,324,103752,1,0,1:0:0:0:
116,336,104002,6,0,P|91:322|67:291,1,65,4|0,1:3|0:0,0:0:0:0:
48,204,104502,2,0,P|46:171|57:141,1,65,0|4,0:0|0:3,0:0:0:0:
100,60,105002,2,0,P|159:65|204:52,1,97.5
240,44,105502,1,0,0:0:0:0:
396,140,106002,6,0,B|402:179|402:179|420:208,1,65,4|0,1:3|0:0,0:0:0:0:
400,292,106502,1,0,0:0:0:0:
328,236,106752,1,0,0:0:0:0:
304,148,107002,2,0,L|208:136,1,97.5,0|2,0:0|0:0,0:0:0:0:
162,130,107502,2,0,P|129:127|94:130,1,65,0|4,0:0|0:3,0:0:0:0:
40,204,108002,6,0,B|52:240|52:240|56:280,1,65,4|0,1:3|0:0,0:0:0:0:
60,360,108502,1,0,0:0:0:0:
137,308,108752,1,2,0:0:0:0:
224,332,109002,2,0,P|284:324|336:332,1,97.5
364,336,109502,2,0,L|428:344,1,65,0|4,0:0|0:3,0:0:0:0:
424,252,110002,6,0,P|426:215|436:185,1,65,4|0,1:3|0:0,0:0:0:0:
468,104,110502,1,0,1:0:0:0:
396,52,110752,2,0,L|329:68,1,65,0|0,2:0|2:0,2:0:0:0:
258,119,111252,2,0,L|191:102,1,65,0|4,0:0|0:3,0:0:0:0:
107,126,111752,2,0,L|40:142,1,65,4|4,0:3|1:3,0:0:0:0:
60,232,112252,5,0,0:0:0:0:
44,320,112502,2,0,P|105:308|131:282,1,97.5,0|2,0:0|0:0,0:0:0:0:
456,228,114002,6,0,B|420:244|420:244|384:244,1,65
392,152,114502,2,0,P|364:116|312:84,1,97.5,2|0,0:0|0:0,0:0:0:0:
288,304,116002,6,0,B|252:288|252:288|212:288,1,65
136,300,116502,2,0,L|160:196,2,97.5,0|2|0,0:0|0:0|0:0,0:0:0:0:
52,332,117502,1,2,0:0:0:0:
64,152,118002,6,0,L|68:84,1,65
152,56,118502,2,0,P|200:72|248:72,1,97.5,0|2,0:0|0:0,0:0:0:0:
344,168,119252,2,0,P|290:156|262:155,2,65,0|4|0,0:0|0:3|0:0,0:0:0:0:
428,204,120002,6,0,B|429:241|429:241|440:272,1,65,4|0,1:3|0:0,0:0:0:0:
356,300,120502,2,0,P|305:314|252:316,1,97.5,2|0,0:0|0:0,0:0:0:0:
64,128,121752,6,0,P|65:94|82:59,2,65,0|2|0,0:0|0:0|0:0,0:0:0:0:
152,112,122502,2,0,P|200:108|252:92,1,97.5,0|2,0:0|0:0,0:0:0:0:
440,56,123502,1,2,0:0:0:0:
416,236,124002,6,0,L|396:168,1,65,4|0,1:3|0:0,0:0:0:0:
384,132,124377,2,0,P|344:156|292:172,1,97.5,4|4,0:3|0:3,0:0:0:0:
124,228,125252,2,0,B|160:232|160:232|192:244,2,65,0|2|0,0:0|0:0|0:0,0:0:0:0:
48,176,126002,6,0,P|60:136|64:104,1,65,4|0,1:3|0:0,0:0:0:0:
72,68,126377,2,0,L|168:84,1,97.5,4|4,0:3|0:3,0:0:0:0:
252,124,127002,2,0,L|323:111,1,65,4|0,0:3|0:0,0:0:0:0:
392,60,127502,2,0,P|408:92|406:126,1,65,0|0,1:0|1:0,0:0:0:0:
380,208,128002,5,4,0:3:0:0:
336,332,128502,1,0,0:0:0:0:
212,288,129002,1,0,0:0:0:0:
256,164,129502,1,0,0:0:0:0:
380,208,130002,5,0,0:0:0:0:
336,84,130502,1,0,0:0:0:0:
212,128,131002,1,0,0:0:0:0:
88,84,131502,1,0,0:0:0:0:
92,216,132002,6,0,B|96:248|83:275|83:275|95:314|95:314|91:354,1,130,2|0,0:0|0:0,0:0:0:0:
224,348,133002,2,0,B|252:345|252:345|288:325|288:325|316:332|348:321,1,130
443,226,134002,5,0,0:0:0:0:
313,240,134502,1,0,0:0:0:0:
299,110,135002,2,0,L|166:124,1,130,2|2,0:0|0:0,0:0:0:0:
64,48,136002,6,0,P|113:35|169:31,2,97.5,4|4|4,1:3|0:3|0:3,0:0:0:0:
44,136,137002,2,0,B|48:188|48:188|64:228|64:228|64:268,1,130,2|0,0:0|0:0,0:0:0:0:
194,217,138002,6,0,B|174:169|174:169|171:124,2,97.5,4|4|4,1:3|0:3|0:3,0:0:0:0:
228,301,139002,1,0,0:0:0:0:
104,340,139502,1,0,0:0:0:0:
36,228,140002,6,0,L|48:128,2,97.5,4|4|4,1:3|0:3|0:3,0:0:0:0:
124,216,141002,2,0,L|260:204,1,130,2|0,0:0|0:0,0:0:0:0:
344,196,141752,1,4,0:3:0:0:
288,124,142002,6,0,B|272:124|256:116|256:116|220:92|220:92|204:84|188:84,2,97.5,4|4|4,1:3|0:3|0:3,0:0:0:0:
292,32,143002,1,0,1:0:0:0:
165,166,143502,1,0,0:0:0:0:
344,196,144002,6,0,P|412:204|449:256,1,130,4|0,0:3|0:0,0:0:0:0:
289,340,145002,2,0,P|325:329|367:281,1,97.5,2|0,0:0|0:0,0:0:0:0:
388,244,145502,2,0,P|412:200|428:184,1,65
420,100,146002,6,0,P|356:84|300:48,1,130,2|0,0:0|0:0,0:0:0:0:
272,176,147002,2,0,P|239:233|190:278,1,130,0|2,0:0|0:0,0:0:0:0:
72,324,148002,6,0,B|72:256|72:256|56:192,1,130,2|0,0:0|0:0,0:0:0:0:
108,76,149002,1,0,0:0:0:0:
160,196,149502,1,0,0:0:0:0:
237,90,150002,6,0,L|368:76,1,130,2|0,0:0|0:0,0:0:0:0:
428,192,151002,1,0,0:0:0:0:
380,312,151502,2,0,L|315:318,1,65,0|2,0:0|0:0,0:0:0:0:
224,328,152002,6,0,P|156:328|108:320,1,97.5,4|4,1:3|0:3,0:0:0:0:
84,312,152502,2,0,L|72:244,1,65,2|4,0:0|0:3,0:0:0:0:
40,164,153002,2,0,B|52:84|52:84|59:55|81:35,1,130,2|0,0:0|0:0,0:0:0:0:
140,104,153752,1,0,0:0:0:0:
206,167,154002,6,0,P|204:204|184:268,1,97.5,4|4,1:3|0:3,0:0:0:0:
168,304,154502,2,0,L|240:312,1,65,0|4,0:0|0:3,0:0:0:0:
324,324,155002,1,0,0:0:0:0:
428,244,155502,1,4,0:3:0:0:
356,136,156002,6,0,L|336:36,2,97.5,4|4|4,1:3|0:3|0:3,0:0:0:0:
308,212,157002,2,0,L|240:208,1,65
176,268,157502,1,2,0:0:0:0:
84,264,157752,1,4,0:3:0:0:
44,180,158002,6,0,B|104:160|104:160|160:116,1,130,4|0,1:3|0:0,0:0:0:0:
224,56,158752,2,0,B|274:99,1,65,4|4,0:3|1:3,0:0:0:0:
412,216,159502,1,4,0:3:0:0:
240,276,160002,1,4,0:3:0:0:
256,192,160502,12,0,164002,0:0:0:0:
