osu file format v5

[General]
AudioFilename: 06 Army.wma.MP3
AudioLeadIn: 0
PreviewTime: -1
Countdown: 1
SampleSet: Normal
StackLeniency: 0.7
Mode: 0
LetterboxInBreaks: 1

[Metadata]
Title:Army
Artist:Ben Folds Five
Creator:Zeek
Version:Normal
Source:
Tags:

[Difficulty]
HPDrainRate:6
CircleSize:5
OverallDifficulty:5
SliderMultiplier:0.7
SliderTickRate:1

[Events]
//Background and Video events
0,0,"resize.png"
//Break Periods
2,23677,32137
2,56126,59313
2,167352,174253
//Storyboard Layer 0 (Background)
//Storyboard Layer 1 (Failing)
//Storyboard Layer 2 (Passing)
//Storyboard Layer 3 (Foreground)
//Storyboard Sound Samples
//Background Colour Transformations
3,100,163,162,255

[TimingPoints]
762,352.941176470588,4,1,0,60,1,0
6408,347.624565469293,4,1,0,60,1,0
11969,333.333333333333,4,1,0,60,1,0
13300,344.768143423548,4,1,0,60,1,0
22991,346.820809248555,4,1,0,60,1,0
32651,346.820809248555,4,1,0,60,1,0
36840,347.826086956522,4,1,0,60,1,0
39576,342.857142857143,4,1,0,60,1,0
56070,345.821325648415,4,1,0,60,1,0
60219,340.909090909091,4,1,0,60,1,0
71054,326.975476839237,4,1,0,60,1,0
72352,334.261838440111,4,1,0,60,1,0
77713,334.261838440111,4,1,0,60,1,0
79547,334.261838440111,4,1,0,60,1,0
91929,338.861838440112,4,1,0,60,1,0
109566,336.395530726257,4,1,0,60,1,0
144673,336.395530726257,4,1,0,60,1,0
186472,336.395530726257,4,1,0,60,1,0

[Colours]
Combo1 : 0,0,0
Combo2 : 231,204,14
Combo3 : 245,245,245
Combo4 : 199,41,41

[HitObjects]
256,192,6452,1,0
256,192,7139,1,0
256,192,7827,1,2
256,192,8515,1,2
256,192,9203,1,2
256,192,9891,1,2
256,192,10579,1,2
256,192,11278,1,0
256,192,11622,2,2,B|320:192,1,60
224,128,12238,5,0
272,208,12582,1,0
352,320,13156,2,2,B|416:256,1,63.3333333333333
352,224,14073,2,0,B|336:190|256:192,1,105
192,192,14990,1,0
128,192,15334,2,2,B|128:128,1,58.3333333333333
128,64,15908,2,0,B|136:2|208:32,1,93.3333333333333
256,128,16710,5,0
256,128,16940,1,0
336,128,17264,2,0,B|400:128|432:192,1,116.666666666667
429,184,18126,1,0
288,288,19118,1,0
288,288,19348,2,0,B|224:288|192:256,1,93.3333333333333
256,64,20137,6,0,B|208:64|160:80|128:128|96:192|128:288|240:320|304:192|240:128,1,431.666666666667
256,128,22558,2,4,B|256:320,1,186.666666666667
256,192,33337,5,0
256,192,33566,1,0
176,192,33910,2,2,B|200:288|255:297|277:288|293:272,1,163.333333333333
352,224,35078,2,6,B|313:226|413:235|409:160,1,95
336,288,36089,6,4,B|401:307|400:320,2,70
416,272,37121,1,4
464,192,37465,1,4
448,112,37809,2,4,B|432:80|384:64,1,70
256,32,38841,5,0
192,32,39070,1,0
32,32,39988,2,0,B|96:32|24:101|118:147|128:160,1,163.333333333333
144,160,40905,2,0,B|208:160|255:121|160:32,1,186.666666666667
96,96,42052,5,0
96,128,42204,2,0,B|96:224,1,95
96,320,42969,1,0
192,320,43313,2,0,B|256:320,1,63.3333333333333
256,192,44345,5,0
336,192,44689,1,0
400,240,45033,2,0,B|320:240,1,70
320,192,45721,2,0,B|96:192,1,221.666666666667
48,144,47290,6,4,B|48:112,3,23.3333333333333
144,192,48129,1,4
224,192,48473,1,4
272,192,48702,1,4
352,192,49046,1,4
256,192,49734,12,0,55926
160,192,60513,5,0
224,192,60787,2,0,B|288:192|352:224|320:320|288:336|240:352,1,245
240,352,62118,1,0
256,288,65902,5,0
256,224,66246,2,0,B|224:224|192:192|192:160|224:128|272:112|288:128|320:160|320:192|224:144,1,256.666666666667
224,144,67622,1,0
352,64,70947,6,0,B|352:160|320:160|288:192|256:192|224:192|176:192,1,245
256,192,72323,12,0,73699
256,208,77713,6,4,B|256:176,13,23.3333333333333
96,96,79547,1,4
224,96,80121,1,4
352,96,80809,1,4
480,96,81497,1,4
256,192,81841,6,4,B|288:192,10,23.3333333333333
256,192,83217,12,4,84478
96,96,89073,6,0,B|208:240,1,175
64,96,91931,5,0
160,96,92275,1,0
256,96,92619,2,0,B|352:96|416:160|416:288,1,280
416,96,94339,5,0
336,96,94683,1,0
304,48,94912,1,0
176,128,95486,5,0
240,96,95830,1,0
176,64,96174,1,0
176,64,96403,1,0
128,96,96747,2,0,B|352:384,1,348.333333333333
352,256,98811,1,0
384,288,98926,1,4
448,288,99553,2,0,B|480:224|448:128|320:64,1,253.333333333333
288,160,101678,5,0
224,192,101907,1,0
224,192,102264,2,0,B|128:272,1,116.666666666667
96,352,103398,5,0
192,320,103627,1,0
256,192,104086,5,4
256,192,105462,1,4
192,128,106494,5,0
224,128,106723,1,0
256,96,106838,1,0
320,128,107067,1,0
352,96,107182,1,0
416,192,107526,2,0,B|64:192,1,348.333333333333
64,64,109819,5,0
64,64,109934,1,0
128,64,110163,1,0
224,64,110507,5,0
224,64,110622,1,0
288,64,110851,1,0
384,64,111195,5,0
384,64,111310,1,0
448,64,111539,1,0
432,176,111768,2,0,B|400:144|400:144|368:208,1,95,0|0
288,208,112571,2,0,B|192:208|192:208|144:176,1,151.666666666667
128,176,113374,2,0,B|64:272|64:272|192:336|192:336|352:336,1,411.666666666667
256,192,116240,12,0,125881
96,112,126331,5,0
112,160,126560,1,0
176,208,126904,2,0,B|320:208,1,140
336,240,127707,5,0
336,304,127936,1,0
256,304,128235,2,0,B|112:304,1,140
64,160,129083,5,0
96,112,129312,1,0
176,96,129656,2,0,B|224:96,1,46.6666666666667
240,96,129973,2,0,B|304:96|336:128|336:160|336:192|304:224,1,186.666666666667
192,224,131032,5,0
112,256,131376,1,0
112,336,131720,1,0
192,320,132064,1,0
288,288,132440,1,0
288,288,132777,2,0,B|384:288,1,95
416,160,133784,5,0
352,112,134128,1,0
272,64,134472,1,0
208,128,134816,1,0
128,128,135160,2,0,B|96:96|64:96|160:96|128:64,1,95
256,192,135733,12,0,137224
64,96,138027,6,0,B|416:96,1,348.333333333333
96,128,139976,5,8
128,96,140091,1,8
224,96,140320,1,8
288,128,140549,2,2,B|352:128,1,63.3333333333333,0|0
416,128,141018,2,2,B|448:128|480:160|480:192|448:256|416:256,1,175
320,192,142040,5,2
256,128,142384,1,2
192,192,142728,1,2
128,160,143072,2,2,B|48:112,1,81.6666666666667
96,320,143710,6,2,B|368:320,1,268.333333333333
400,320,145136,5,2
400,240,145480,1,2
256,192,145824,5,4
160,160,146282,5,4
144,144,146397,1,4
160,112,146512,2,4,B|192:176|192:176|256:48,1,190
96,64,148232,5,0
96,64,148461,1,0
96,144,148805,2,0,B|160:144|224:112|256:80|288:48|352:48|416:48|448:48|480:80|480:112|480:160,1,466.666666666667
432,160,151213,5,0
352,112,151557,2,0,B|297:71|265:71|169:39|73:71|41:103|41:135|73:199|169:199,1,455
176,144,153965,5,0
240,96,154309,1,0
336,160,154768,1,0
368,240,155112,1,0
336,320,155456,1,0
336,320,155685,2,0,B|304:320,3,23.3333333333333
96,288,156603,5,4
48,240,156832,2,4,B|16:179|48:128,1,116.666666666667
96,112,157635,1,4
176,96,157979,2,4,B|208:96,3,23.3333333333333
256,96,158552,1,4
336,96,158896,1,4
256,192,159306,12,4,161599
192,192,162336,5,0
128,192,162726,2,0,B|128:112,1,70
128,32,163511,1,4
256,192,163712,12,4,164515
320,192,165024,5,0
384,192,165414,2,0,B|384:272,1,70
384,352,166199,1,4
256,192,166464,12,4,167152
385,224,175453,6,0,B|431:189|444:142|422:112|364:85|308:69|230:91|145:135|128:208,1,443.333333333333
416,134,181026,5,0
415,134,181256,2,0,B|416:160|384:256|352:320|288:288|288:272,1,221.666666666667
272,240,182517,1,0
32,64,186472,5,0
96,64,186760,2,0,B|128:64,1,31.6666666666667
176,64,187088,2,0,B|224:176,1,116.666666666667
256,176,187792,2,4,B|288:176,3,23.3333333333333
176,192,192149,6,0,B|240:192,1,63.3333333333333
272,192,192608,5,0
336,192,192837,6,4,B|368:192|400:224|400:256|368:288|304:288|272:288|112:240,1,350
192,192,195704,5,4
224,160,195891,2,4,B|254:120|341:120|368:96,1,151.666666666667
