osu file format v5

[General]
AudioFilename: 06 Army.wma.MP3
AudioLeadIn: 0
PreviewTime: -1
Countdown: 1
SampleSet: Normal
StackLeniency: 0.7
Mode: 0
LetterboxInBreaks: 1

[Metadata]
Title:Army
Artist:Ben Folds Five
Creator:Zeek
Version:Hard
Source:
Tags:

[Difficulty]
HPDrainRate:7
CircleSize:5
OverallDifficulty:7
SliderMultiplier:1.1
SliderTickRate:1

[Events]
//Background and Video events
0,0,"resize.png"
//Break Periods
2,23430,32144
2,56127,59335
//Storyboard Layer 0 (Background)
//Storyboard Layer 1 (Failing)
//Storyboard Layer 2 (Passing)
//Storyboard Layer 3 (Foreground)
//Storyboard Sound Samples
//Background Colour Transformations
3,100,213,21,0

[TimingPoints]
762,352.941176470588,4,1,0,60,1,0
6408,347.624565469293,4,1,0,60,1,0
11969,333.333333333333,4,1,0,60,1,0
13300,344.768143423548,4,1,0,60,1,0
22991,346.820809248555,4,1,0,60,1,0
32651,346.820809248555,4,1,0,60,1,0
36840,347.826086956522,4,1,0,60,1,0
39576,342.857142857143,4,1,0,60,1,0
56070,345.821325648415,4,1,0,60,1,0
60219,340.909090909091,4,1,0,60,1,0
71054,326.975476839237,4,1,0,60,1,0
72352,334.261838440111,4,1,0,60,1,0
109566,336.395530726257,4,1,0,60,1,0
186472,336.395530726257,4,1,0,60,1,0

[Colours]
Combo1 : 0,0,0
Combo2 : 231,204,14
Combo3 : 245,245,245
Combo4 : 199,41,41

[HitObjects]
96,96,6408,1,0
208,96,7103,1,0
320,96,7798,1,0
432,96,8493,1,0
432,208,9188,1,0
432,320,9884,1,0
320,288,10579,5,0
272,256,10927,1,0
256,208,11216,1,2
352,192,11622,2,2,B|352:128,1,63.3333333333333,2|2
224,128,12302,5,0
288,224,12635,1,0
352,304,12969,2,2,B|416:240,1,63.3333333333333
464,192,13529,1,0
352,224,14219,6,0,B|344:162|256:192,1,95
192,192,15023,1,0
144,160,15368,1,2
128,128,15598,1,2
128,64,15943,2,0,B|136:2|224:32,1,95
256,128,16747,5,0
256,128,16977,1,0
368,128,17322,2,0,B|432:128|464:224,1,126.666666666667
448,336,18126,1,0
448,336,18471,1,0
384,288,18701,1,0
240,288,19161,1,0
240,288,19390,2,0,B|176:288|144:256,1,95
96,96,20195,5,0
96,176,20425,1,0
96,288,20769,1,0
240,288,21229,1,0
320,288,21459,1,0
464,288,21919,1,0
464,208,22149,1,0
336,128,22608,2,0,B|272:64|208:128|144:224,1,221.666666666667
256,192,33344,5,0
256,192,33575,1,0
256,128,33922,2,4,B|180:199,1,95
192,192,34385,1,2
320,192,34731,1,2
256,128,35078,1,2
256,224,35425,2,2,B|256:320,1,95
384,320,36119,6,4,B|448:353|480:288,2,95
240,320,37187,1,0
128,320,37419,5,0
128,288,37767,2,0,B|128:256,3,31.6666666666667
128,160,38811,5,0
192,128,39100,1,0
288,160,39918,2,0,B|352:160|416:128|384:64|320:32,1,190
256,32,41004,1,4
192,32,41233,1,4
128,32,41518,2,4,B|64:64,1,63.3333333333333
96,128,41976,5,0
96,192,42204,2,0,B|96:288,1,95
96,320,42661,1,0
96,320,43004,1,0
160,320,43347,2,0,B|224:320,1,63.3333333333333
256,192,44376,5,0
256,192,44604,1,0
256,128,44947,2,4,B|256:224,1,95
256,256,45404,1,0
160,192,45747,1,0
352,192,46090,2,4,B|416:192,1,63.3333333333333
480,192,46661,1,4
64,128,47347,6,4,B|64:96,3,31.6666666666667
128,192,48033,1,4
224,192,48376,1,4
288,192,48604,1,4
384,192,48947,1,4
256,192,49747,12,0,52833
256,192,53233,5,0
256,192,53404,1,0
160,192,53747,2,0,B|256:128|256:128|384:192,1,253.333333333333
256,64,55118,2,0,B|256:288,1,221.666666666667
96,192,60559,5,0
192,192,60900,1,0
288,192,61128,1,0
288,192,61241,2,0,B|352:224|352:288|320:320,1,126.666666666667
256,336,61980,1,0
256,336,62150,1,0
384,192,65900,5,0
288,192,66241,1,0
192,192,66468,1,0
192,192,66582,2,0,B|128:224|128:288|160:320,1,126.666666666667
272,320,67378,1,0
272,320,67605,1,0
80,64,71054,6,0,B|176:64,1,91.6666666666667
208,64,71380,2,0,B|304:64,1,91.6666666666667
336,64,71707,2,0,B|432:64,1,91.6666666666667
432,96,72034,2,0,B|432:192,1,91.6666666666667
256,192,72352,12,0,73689
192,192,74023,5,0
240,144,74246,1,0
272,128,74357,1,0
352,80,74691,1,0
384,144,74970,1,4
384,240,75360,2,4,B|160:112,1,253.333333333333
64,320,76808,5,0
160,320,77143,1,0
256,320,77477,1,0
384,320,77700,6,4,B|384:288,13,31.6666666666667
384,224,79538,1,4
384,128,79872,1,4
384,96,80151,1,4
352,64,80374,2,4,B|288:0|256:64|320:128,1,158.333333333333
320,128,81042,2,0,B|192:128,1,126.666666666667
192,224,81822,6,4,B|224:224,10,31.6666666666667
256,192,83271,12,4,84496
160,128,84831,5,0
192,128,85053,2,0,B|224:128,1,31.6666666666667
320,128,85388,2,0,B|352:128|352:160|320:160,1,63.3333333333333
320,224,85833,1,0
224,224,86056,1,0
128,224,86279,2,0,B|96:224|64:256|64:288|128:288,1,126.666666666667
256,288,87115,2,0,B|352:288,1,95
160,192,89176,6,0,B|288:192,1,126.666666666667
352,192,89733,2,4,B|416:192,1,63.3333333333333
192,224,90513,5,0
192,224,90847,5,0
256,288,91182,5,0
320,224,91516,5,0
320,224,91627,1,0
192,192,91962,5,0
256,192,92296,1,0
300,157,92630,1,4
352,192,92964,1,0
416,224,93299,5,0
418,260,93521,1,0
352,320,93856,1,0
160,288,94301,5,0
64,288,94747,1,0
64,288,94970,1,0
64,192,95304,1,0
64,192,95416,1,0
128,160,95750,1,0
64,96,96084,1,0
96,64,96307,1,0
160,36,96641,2,0,B|202:118|234:12|279:76|278:76,1,126.666666666667
320,64,97533,5,0
320,64,97755,1,0
384,160,98090,1,0
416,256,98814,5,0
416,256,98925,1,0
352,256,99204,1,0
278,298,99538,1,0
192,256,99984,5,0
192,256,100318,1,0
192,256,100541,1,0
96,256,100875,1,0
96,256,100987,1,0
96,256,101209,1,0
96,256,101321,1,0
192,160,101655,5,0
224,128,101878,5,0
288,64,102212,2,0,B|389:-45|480:64,1,221.666666666667
512,128,103326,1,0
480,224,103661,5,0
352,224,104106,5,4
224,224,104441,5,0
192,160,104663,1,0
192,160,104998,1,0
288,64,105443,5,4
288,64,105666,5,0
352,96,106056,1,0
416,128,106335,1,0
416,128,106446,1,0
416,128,106725,1,0
480,160,106892,5,4
480,160,107115,5,0
480,160,107226,1,0
416,224,107449,1,0
416,224,107560,1,0
416,224,107728,1,0
96,224,108229,5,4
160,320,108897,5,8
256,320,109232,1,8
256,224,109556,5,0
256,224,109909,1,0
256,224,110217,1,0
279,190,110570,1,0
288,96,110923,1,0
352,64,111232,1,0
416,64,111585,1,0
480,96,111894,1,0
448,192,112247,1,0
416,224,112335,1,0
352,288,112556,1,0
320,320,112688,1,0
224,352,112909,1,0
192,352,112997,1,0
128,288,113262,2,0,B|224:192|224:192|192:160|192:160|64:288|64:288|32:256|32:256|160:128|160:128|128:96|128:96|64:160,1,696.666666666667
256,192,116262,12,0,118936
256,192,120806,5,4
416,192,121467,5,0
416,192,121600,5,0
416,192,121688,5,0
416,192,121820,5,0
416,192,121997,5,0
416,192,122129,5,0
416,192,122262,5,0
416,192,122350,5,0
416,192,122482,5,0
416,192,122570,5,0
416,192,122703,5,0
416,192,122791,5,0
416,192,122923,5,0
416,192,123012,5,0
416,192,123144,5,0
416,192,123232,5,0
416,192,123364,5,0
416,192,123453,5,0
416,192,123585,5,0
416,192,123673,5,0
416,192,123806,5,0
416,192,123894,5,0
416,192,124026,5,0
352,256,124203,5,4
256,288,125041,5,4
256,192,125703,5,4
96,96,126232,5,0
160,32,126453,1,0
192,96,126938,2,0,B|332:142|224:288,1,221.666666666667
96,224,127820,5,0
128,256,128041,1,0
160,288,128350,2,0,B|192:352|352:352|352:320,1,190
352,256,129144,5,0
416,288,129364,1,0
480,256,129717,1,0
480,192,130026,2,0,B|448:192,1,31.6666666666667
352,160,130600,5,0
320,96,130820,1,0
256,96,131173,2,0,B|224:96|192:64|192:32,1,95
192,32,131614,2,0,B|192:64|160:96|128:96,1,95
128,96,132144,2,0,B|128:128|160:160|192:160,1,95
192,224,132585,6,0,B|352:224,1,158.333333333333
384,224,133247,6,0,B|416:224|448:192|448:160,1,95
448,96,133820,2,0,B|448:64|416:32|384:32,1,95
352,32,134394,2,0,B|320:32|288:64|288:96,1,95
256,160,134923,2,0,B|160:160,1,95
96,128,135364,5,4
128,96,135497,5,4
96,64,135629,5,4
64,288,137394,6,0,B|64:32|64:32|224:32|224:32|288:96|288:96|224:160|224:160|64:160|64:160|256:160|256:160|288:224|288:224|224:288|224:288|96:288,1,1235
320,288,142864,6,0,B|320:32|320:32|480:32|480:32|320:32|320:32|320:128|320:128|448:128,1,791.666666666667
224,224,146394,5,4
256,192,146614,5,4
224,160,146659,6,0,B|384:288,2,190,0|0|0
96,96,148423,5,0
96,96,148644,1,0
96,96,148997,1,0
160,160,149438,1,0
224,192,149791,1,0
288,224,150232,2,0,B|320:256|320:320|288:352,1,126.666666666667
298,341,150894,1,0
224,192,151423,5,0
224,192,151909,2,0,B|128:192,1,95
96,192,152350,1,0
128,192,152659,1,0
224,192,153100,2,0,B|256:160|288:192|320:224|320:256,1,126.666666666667
256,320,154247,5,0
352,320,154556,1,0
448,288,154997,1,0
448,192,155350,1,0
448,128,155659,1,0
448,64,155879,2,0,B|416:64,3,31.6666666666667
160,160,156806,5,4
192,128,157026,2,4,B|253:96|320:128,1,126.666666666667
352,160,157864,1,4
288,224,158262,2,4,B|256:224,3,31.6666666666667
224,288,158791,1,4
320,288,159144,1,4
256,192,159585,12,4,161813
192,192,162585,5,0
192,192,162717,1,0
128,192,163026,2,0,B|128:128,1,63.3333333333333
128,128,163379,1,0
128,64,163688,1,0
256,192,163909,12,0,164689
320,192,165144,5,0
320,192,165276,1,0
384,192,165585,2,0,B|384:256,1,63.3333333333333
384,256,166026,1,0
384,320,166379,1,0
256,192,166688,12,0,167356
128,192,168056,5,0
192,128,168364,2,0,B|224:96,1,31.6666666666667
256,64,168585,2,0,B|288:64,1,31.6666666666667
352,64,168938,2,0,B|416:64,1,63.3333333333333
416,128,169379,1,0
384,224,169820,5,2
352,224,170041,1,2
256,224,170394,5,0
192,192,170835,1,0
96,128,171541,2,0,B|0:160|0:256|64:288,1,190
256,192,172688,6,0,B|288:192,5,31.6666666666667
256,32,175820,5,0
256,128,176041,1,0
256,256,176262,1,0
256,256,176394,2,0,B|224:320|160:320|128:288,1,126.666666666667
96,224,177056,1,0
96,224,177276,1,0
128,96,178159,5,0
384,96,178820,1,0
128,288,179482,1,0
256,96,181060,5,0
256,160,181369,1,0
256,256,181589,1,0
256,256,181722,2,0,B|288:320|352:320|384:288,1,126.666666666667
416,256,182383,1,0
416,256,182604,1,0
256,192,184077,5,4
256,192,184750,1,4
96,96,186320,5,0
128,96,186640,2,0,B|160:96,2,31.6666666666667
192,96,187144,2,0,B|320:96,1,126.666666666667
416,96,187817,2,4,B|448:96,3,31.6666666666667
96,288,188826,5,0
192,192,189499,1,0
288,96,190172,2,0,B|320:96|352:128|384:32,1,126.666666666667
160,192,192201,5,0
224,192,192422,5,0
288,192,192643,5,0
352,192,192863,6,0,B|384:192|416:160|416:128|384:96|320:96|288:96|160:128,1,316.666666666667
256,192,194545,5,0
144,192,195747,5,4
160,160,195835,2,4,B|190:120|240:177|224:160,1,63.3333333333333
368,176,196453,1,4
