osu file format v12

[General]
AudioFilename: Lawrence - Bad Day (Nightcore Mix).mp3
AudioLeadIn: 2000
PreviewTime: 43028
Countdown: 0
SampleSet: Soft
StackLeniency: 0.4
Mode: 0
LetterboxInBreaks: 0

[Editor]
DistanceSpacing: 1
BeatDivisor: 4
GridSize: 4

[Metadata]
Title:Bad Day (Nightcore Mix)
TitleUnicode:Bad Day (Nightcore Mix)
Artist:Belle Lawrence
ArtistUnicode:Belle Lawrence
Creator:Andrea
Version:Nice
Source:
Tags:Techno Remix Cover Daniel Powter Darksonic Katty Pie osuplayer111 Sekai-nyan
BeatmapID:254877
BeatmapSetID:94623

[Difficulty]
HPDrainRate:2
CircleSize:3
OverallDifficulty:2
ApproachRate:3
SliderMultiplier:0.8
SliderTickRate:1

[Events]
//Background and Video events
0,0,"BG.jpg",0,0
//Break Periods
//Storyboard Layer 0 (Background)
//Storyboard Layer 1 (Fail)
//Storyboard Layer 2 (Pass)
//Storyboard Layer 3 (Foreground)
//Storyboard Sound Samples
//Background Colour Transformations
3,100,0,128,255

[TimingPoints]
440,342.075256556442,4,2,1,80,1,0
3860,-100,4,2,4,80,0,0
3946,-100,4,2,1,80,0,0
5229,-100,4,2,4,80,0,0
5314,-100,4,2,1,80,0,0
10702,-100,4,2,1,50,0,0
11044,-100,4,2,4,80,0,0
11129,-100,4,2,1,80,0,0
14807,-100,4,2,4,80,0,0
14892,-100,4,2,1,80,0,0
16175,-100,4,2,4,80,0,0
16260,-100,4,2,1,80,0,0
24727,-100,4,2,5,80,0,0
24812,-100,4,2,1,80,0,0
26779,-100,4,2,5,80,0,0
26865,-100,4,2,1,80,0,0
28148,-100,4,2,5,80,0,0
28233,-100,4,2,1,80,0,0
32252,-100,4,2,5,80,0,0
32338,-100,4,2,1,80,0,0
35673,-100,4,2,5,80,0,0
35759,-100,4,2,1,80,0,0
37042,-100,4,2,5,80,0,0
37127,-100,4,2,1,80,0,0
38410,-100,4,2,5,80,0,0
38495,-100,4,2,1,80,0,0
39778,-100,4,2,5,80,0,0
39864,-100,4,2,1,80,0,0
41831,-100,4,2,5,80,0,0
41916,-100,4,2,1,80,0,0
46278,-100,4,2,4,80,0,0
46363,-100,4,2,1,80,0,0
48330,-100,4,2,4,80,0,0
48416,-100,4,2,1,80,0,0
57224,-100,4,2,4,80,0,0
57310,-100,4,2,1,80,0,0
58592,-100,4,2,4,80,0,0
58678,-100,4,2,1,80,0,0
68170,-100,4,2,4,80,0,0
68256,-100,4,2,1,80,0,0
69539,-100,4,2,4,80,0,0
69624,-100,4,2,1,80,0,0
70907,-100,4,2,4,80,0,0
70993,-100,4,2,1,80,0,0
72275,-100,4,2,4,80,0,0
72361,-100,4,2,1,80,0,0
76380,-100,4,2,4,80,0,0
76466,-100,4,2,1,80,0,0
77064,-100,4,1,1,80,0,1
78775,-100,4,1,2,80,0,1
78860,-100,4,1,1,80,0,1
81511,-100,4,1,2,80,0,1
81597,-100,4,1,1,80,0,1
83564,-100,4,1,2,80,0,1
83649,-100,4,1,1,80,0,1
84932,-100,4,1,2,80,0,1
85018,-100,4,1,1,80,0,1
86300,-100,4,1,2,80,0,1
86386,-100,4,1,1,80,0,1
88353,-100,4,1,2,80,0,1
88438,-100,4,1,1,80,0,1
89721,-100,4,1,2,80,0,1
89807,-100,4,1,1,80,0,1
92458,-100,4,1,2,80,0,1
92543,-100,4,1,1,80,0,1
93826,-100,4,1,2,80,0,1
93912,-100,4,1,1,80,0,1
95194,-100,4,1,2,80,0,1
95280,-100,4,1,1,80,0,1
95878,-100,4,1,2,80,0,1
95964,-100,4,1,1,80,0,1
97931,-100,4,1,2,80,0,1
98016,-100,4,1,1,80,0,1
98957,-100,4,2,1,80,0,0
103746,-100,4,2,4,80,0,0
103832,-100,4,2,1,80,0,0

[Colours]
Combo1 : 191,128,255
Combo2 : 128,191,255
Combo3 : 255,128,255
Combo4 : 255,169,128

[HitObjects]
96,312,440,2,0,P|92:236|164:188,1,160,2|2,0:0|0:0,0:0:0:0:
256,64,1808,1,2,0:0:0:0:
412,28,2492,1,2,0:0:0:0:
428,188,3176,6,0,P|472:240|352:276,1,240,2|0,0:0|0:0,0:0:0:0:
292,240,4544,2,0,P|236:224|172:252,2,120,2|0|0,0:0|0:0|0:0,0:0:0:0:
324,164,5913,1,2,0:0:0:0:
224,40,6597,6,0,P|172:32|144:48,1,80,2|0,0:0|0:0,0:0:0:0:
68,44,7281,2,0,P|76:88|180:120,1,160,2|2,0:0|0:0,0:0:0:0:
256,124,8307,1,0,0:0:0:0:
336,124,8649,6,0,B|412:104|412:104|504:132,2,160,2|2|2,0:0|0:0|0:0,0:0:0:0:
300,196,10360,2,0,P|316:260|288:324,2,120,0|0|0,0:0|0:0|0:0,0:0:0:0:
256,40,12070,5,2,0:0:0:0:
176,40,12412,1,0,0:0:0:0:
112,88,12754,2,0,P|72:152|112:220,1,160,2|2,0:0|0:0,0:0:0:0:
184,248,13780,1,0,0:0:0:0:
256,280,14123,6,0,P|304:304|364:284,2,120,2|0|0,0:0|0:0|0:0,0:0:0:0:
312,224,15491,2,0,P|264:200|204:220,2,120,2|0|0,0:0|0:0|0:0,0:0:0:0:
392,216,16859,6,0,P|416:144|384:68,1,160,2|2,0:0|0:0,0:0:0:0:
324,20,17885,1,0,0:0:0:0:
256,64,18227,2,0,L|172:64,1,80,2|0,0:0|0:0,0:0:0:0:
104,28,18912,2,0,P|92:76|116:116,1,80,2|0,0:0|0:0,0:0:0:0:
256,192,19596,12,4,22332,0:0:0:0:
416,44,23016,5,0,0:0:0:0:
336,180,23701,1,0,0:0:0:0:
364,256,24043,1,0,1:0:0:0:
328,328,24385,2,0,P|256:364|192:324,1,160,0|0,0:0|0:0,0:0:0:0:
104,196,25753,5,0,0:0:0:0:
184,60,26437,2,0,P|256:24|320:64,1,160,0|0,0:0|0:0,0:0:0:0:
396,88,27463,1,0,1:0:0:0:
372,164,27806,6,0,P|360:224|392:276,2,120,0|0|0,0:0|0:0|1:0,0:0:0:0:
300,124,29174,1,0,0:0:0:0:
228,156,29516,2,0,P|160:176|116:108,1,160,0|0,1:0|1:0,0:0:0:0:
92,36,30542,6,0,P|48:64|40:104,1,80,0|0,0:0|1:0,0:0:0:0:
28,168,31226,1,0,0:0:0:0:
16,248,31568,1,0,1:0:0:0:
68,308,31910,2,0,B|120:340|120:340|184:300,2,120,4|0|0,0:0|0:0|1:0,0:0:0:0:
16,248,33279,5,4,0:0:0:0:
96,112,33963,1,0,0:0:0:0:
172,252,34647,1,0,0:0:0:0:
212,320,34989,1,0,1:0:0:0:
256,256,35331,2,0,P|328:232|392:284,1,160
444,340,36357,6,0,P|472:288|452:224,2,120,0|0|0,1:0|0:0|0:0,0:0:0:0:
364,340,37726,1,0,1:0:0:0:
312,280,38068,2,0,L|384:136,1,160
376,56,39094,1,0,1:0:0:0:
300,76,39436,6,0,B|244:112|192:64|192:64|160:112,1,160
100,136,40462,1,0,1:0:0:0:
20,144,40804,2,0,P|28:184|68:208,1,80,0|0,0:0|1:0,0:0:0:0:
140,208,41489,6,0,P|128:252|64:288,2,120,0|0|0,0:0|0:0|1:0,0:0:0:0:
100,136,42857,1,4,0:0:0:0:
260,136,43541,1,4,0:0:0:0:
420,136,44225,5,4,0:0:0:0:
344,280,44909,1,2,0:0:0:0:
304,348,45251,1,0,0:0:0:0:
232,308,45593,6,0,P|184:288|116:316,2,120,2|0|0,0:0|0:0|0:0,0:0:0:0:
276,240,46962,2,0,P|288:200|264:152,1,80,2|0,0:0|0:0,0:0:0:0:
316,96,47646,2,0,P|264:84|208:120,2,120,2|0|0,0:0|0:0|0:0,0:0:0:0:
392,76,49014,5,2,0:0:0:0:
504,188,49698,1,2,0:0:0:0:
400,308,50382,1,2,0:0:0:0:
328,344,50725,1,0,0:0:0:0:
252,324,51067,1,2,0:0:0:0:
172,188,51751,6,0,P|144:116|184:44,1,160,2|2,0:0|0:0,0:0:0:0:
256,28,52777,1,0,0:0:0:0:
331,46,53119,2,0,P|368:116|340:188,1,160,2|2,0:0|0:0,0:0:0:0:
260,328,54487,1,2,0:0:0:0:
336,348,54829,1,0,0:0:0:0:
404,304,55172,6,0,P|416:256|448:236,1,80,4|0,0:0|0:0,0:0:0:0:
500,184,55856,2,0,P|472:164|416:164,1,80,2|0,0:0|0:0,0:0:0:0:
356,200,56540,2,0,P|304:216|240:184,2,120,2|0|0,0:0|0:0|0:0,0:0:0:0:
308,136,57908,6,0,P|250:110|198:126,2,120,2|0|0,0:0|0:0|0:0,0:0:0:0:
368,84,59276,1,2,0:0:0:0:
488,188,59961,5,2,0:0:0:0:
372,296,60645,2,0,P|336:320|288:320,1,80,2|0,0:0|0:0,0:0:0:0:
228,360,61329,2,0,P|228:284|304:244,1,160,2|2,0:0|0:0,0:0:0:0:
256,84,62697,5,2,0:0:0:0:
188,44,63039,1,0,0:0:0:0:
120,84,63381,2,0,P|88:152|144:216,1,160,2|2,0:0|0:0,0:0:0:0:
256,192,64579,12,4,66118,0:0:0:0:
368,324,67486,6,0,P|380:252|340:212,2,120,2|0|0,0:0|0:0|0:0,0:0:0:0:
300,280,68855,2,0,P|272:236|288:164,2,120,2|0|0,0:0|0:0|0:0,0:0:0:0:
256,348,70223,2,0,P|204:380|144:356,2,120,2|0|0,0:0|0:0|0:0,0:0:0:0:
196,296,71591,6,0,P|132:284|80:320,2,120,4|0|0,0:0|0:0|0:0,0:0:0:0:
256,244,72959,2,0,P|272:204|264:164,1,80,4|0,0:0|0:0,0:0:0:0:
192,136,73644,2,0,P|220:100|268:88,1,80,2|0,0:0|0:0,0:0:0:0:
328,116,74328,6,0,L|416:116,2,80,4|0|4,0:0|0:0|0:0,0:0:0:0:
312,36,75354,1,0,0:0:0:0:
232,32,75696,2,0,P|172:24|124:76,2,120,4|0|0,0:0|0:0|0:0,0:0:0:0:
198,106,77064,5,4,0:0:0:0:
60,192,77749,1,0,0:0:0:0:
36,268,78091,1,8,0:0:0:0:
88,328,78433,2,0,P|136:344|176:260,1,160
180,180,79459,1,8,0:0:0:0:
256,160,79801,6,0,P|296:148|336:164,1,80,0|8,0:0|0:0,0:0:0:0:
408,132,80485,2,0,P|416:172|392:212,1,80,0|8,0:0|0:0,0:0:0:0:
328,240,81169,2,0,P|320:304|360:348,2,120,0|0|8,0:0|0:0|0:0,0:0:0:0:
256,208,82538,5,0,0:0:0:0:
192,256,82880,1,8,0:0:0:0:
128,208,83222,2,0,P|88:136|132:68,1,160
200,64,84248,5,8,0:0:0:0:
181,141,84590,2,0,B|216:160|256:132|256:132|296:160|331:141,1,160
312,64,85616,1,8,0:0:0:0:
392,80,85958,6,0,B|424:104|424:148|424:148|512:148,1,160
504,228,86985,2,0,L|408:228,1,80,8|0,0:0|0:0,0:0:0:0:
384,296,87669,1,8,0:0:0:0:
328,240,88011,6,0,P|284:224|208:240,2,120,4|0|8,0:0|0:0|0:0,0:0:0:0:
404,216,89379,2,0,P|420:172|404:96,2,120,0|0|8,0:0|0:0|0:0,0:0:0:0:
336,172,90747,1,0,0:0:0:0:
264,136,91089,6,0,P|224:116|208:80,1,80,8|0,0:0|0:0,0:0:0:0:
152,32,91774,1,8,0:0:0:0:
88,80,92116,2,0,P|52:148|96:216,1,160
164,180,93142,5,8,0:0:0:0:
172,260,93484,2,0,P|235:297|304:256,1,160
324,180,94510,1,8,0:0:0:0:
384,128,94852,6,0,P|304:100|252:144,2,160
436,192,96563,1,8,0:0:0:0:
472,264,96905,1,0,0:0:0:0:
424,328,97247,1,8,0:0:0:0:
344,328,97589,2,0,P|256:292|344:248,1,240,2|8,3:0|0:0,0:0:0:0:
396,188,98957,5,4,0:0:0:0:
300,60,99641,1,2,0:0:0:0:
204,188,100325,1,2,0:0:0:0:
160,120,100668,1,0,0:0:0:0:
144,40,101010,2,0,P|96:60|84:96,1,80,2|0,0:0|0:0,0:0:0:0:
16,124,101694,2,0,P|48:160|80:164,1,80,2|0,0:0|0:0,0:0:0:0:
128,228,102378,6,0,L|128:316,1,80,2|0,0:0|0:0,0:0:0:0:
208,292,103062,2,0,L|208:164,2,120,2|0|0,0:0|0:0|0:0,0:0:0:0:
252,356,104430,1,2,0:0:0:0:
412,356,105115,5,2,0:0:0:0:
336,216,105799,2,0,P|328:140|400:104,1,160,2|2,0:0|0:0,0:0:0:0:
436,172,106825,1,0,0:0:0:0:
476,104,107167,6,0,P|464:64|432:32,1,80,2|0,0:0|0:0,0:0:0:0:
360,24,107851,1,2,0:0:0:0:
280,8,108193,1,0,0:0:0:0:
208,40,108535,1,2,0:0:0:0:
148,92,108877,6,0,P|104:136|216:200,1,240,8|4,0:0|0:0,0:0:0:0:
