osu file format v12

[General]
AudioFilename: Lawrence - Bad Day (Nightcore Mix).mp3
AudioLeadIn: 2000
PreviewTime: 43028
Countdown: 0
SampleSet: Soft
StackLeniency: 0.4
Mode: 0
LetterboxInBreaks: 0

[Editor]
DistanceSpacing: 1
BeatDivisor: 4
GridSize: 4

[Metadata]
Title:Bad Day (Nightcore Mix)
TitleUnicode:Bad Day (Nightcore Mix)
Artist:Belle Lawrence
ArtistUnicode:Belle Lawrence
Creator:Andrea
Version:Bad
Source:
Tags:Techno Remix Cover Daniel Powter Darksonic Katty Pie osuplayer111 Sekai-nyan
BeatmapID:254562
BeatmapSetID:94623

[Difficulty]
HPDrainRate:8
CircleSize:4
OverallDifficulty:9
ApproachRate:9
SliderMultiplier:1.8
SliderTickRate:2

[Events]
//Background and Video events
0,0,"BG.jpg",0,0
//Break Periods
//Storyboard Layer 0 (Background)
//Storyboard Layer 1 (Fail)
//Storyboard Layer 2 (Pass)
//Storyboard Layer 3 (Foreground)
//Storyboard Sound Samples
//Background Colour Transformations
3,100,0,0,255

[TimingPoints]
440,342.075256556442,4,2,2,80,1,0
11386,-100,4,2,1,80,0,0
28148,-100,4,1,1,80,0,0
42002,-100,4,1,1,65,0,0
43712,-100,4,2,1,65,0,0
52435,-100,4,2,4,65,0,0
52606,-100,4,2,1,65,0,0
71591,-100,4,1,1,80,0,0
74841,-100,4,1,1,65,0,0
77064,-100,4,1,1,80,0,1
87156,-100,4,1,1,65,0,1
87327,-100,4,1,1,80,0,1
96734,-100,4,1,1,65,0,1
98957,-100,4,1,1,80,0,0
107680,-100,4,1,1,65,0,0

[Colours]
Combo1 : 191,128,255
Combo2 : 128,191,255
Combo3 : 255,128,255
Combo4 : 255,169,128

[HitObjects]
184,80,440,2,0,P|256:34|328:80,2,180,0|2|0,0:0|0:0|0:0,0:0:0:0:
184,168,1295,2,0,P|184:216|160:252,1,90,0|2,0:0|0:0,0:0:0:0:
328,168,1637,2,0,P|328:216|352:252,1,90
340,340,1979,1,0,0:0:0:0:
256,308,2150,1,2,0:0:0:0:
172,340,2321,1,0,0:0:0:0:
84,340,2492,2,0,B|56:304|56:304|56:256,1,90
52,168,2834,1,2,0:0:0:0:
92,88,3005,1,0,0:0:0:0:
180,88,3176,6,0,B|256:40|256:40|332:88,1,180,0|2,0:0|0:0,0:0:0:0:
396,152,3689,2,0,L|368:188,1,45
369,278,3946,2,0,L|341:314,1,45
256,344,4202,2,0,B|192:344|192:344|140:312|140:312|84:312,2,180,2|0|2,0:0|0:0|0:0,0:0:0:0:
220,260,5058,2,0,L|184:224,1,45
108,188,5314,2,0,L|63:188,1,45
96,104,5571,1,2,0:0:0:0:
116,92,5656,1,0,0:0:0:0:
136,80,5742,1,0,0:0:0:0:
216,36,5913,6,0,P|308:36|376:88,1,180,0|2,0:0|0:0,0:0:0:0:
464,88,6426,1,0,0:0:0:0:
424,168,6597,1,0,0:0:0:0:
424,256,6768,1,0,0:0:0:0:
376,332,6939,2,0,P|332:332|296:304,1,90,2|0,0:0|0:0,0:0:0:0:
136,332,7281,2,0,P|180:332|216:304,1,90
256,224,7623,1,2,0:0:0:0:
192,160,7794,2,0,L|128:92,1,90
256,104,8136,2,0,L|256:12,1,90,0|2,0:0|0:0,0:0:0:0:
320,160,8478,2,0,L|384:92,1,90
256,104,8820,1,0,0:0:0:0:
256,224,8991,6,0,L|256:360,2,135,2|0|0,0:0|0:0|0:0,0:0:0:0:
192,160,9676,2,0,P|256:107|320:160,2,180,2|0|2,0:0|0:0|0:0,0:0:0:0:
136,232,10531,2,0,L|108:272,1,45
40,216,10787,2,0,L|68:176,1,45
52,136,10958,2,0,L|80:96,1,45,0|2,0:0|0:0,0:0:0:0:
64,56,11129,2,0,L|92:16,1,45
180,16,11386,2,0,B|268:16|268:16|352:64,1,180,0|2,0:0|0:0,0:0:0:0:
508,168,12070,5,0,0:0:0:0:
460,244,12241,1,0,0:0:0:0:
412,320,12412,1,2,0:0:0:0:
324,320,12583,2,0,P|256:270|188:320,1,180
188,319,13096,1,2,0:0:0:0:
256,372,13267,2,0,L|256:188,1,180
176,148,13780,1,2,0:0:0:0:
256,108,13951,1,0,0:0:0:0:
336,148,14123,6,0,P|428:148|488:88,2,180,0|2|0,0:0|0:0|0:0,0:0:0:0:
256,108,14978,1,0,0:0:0:0:
256,196,15149,1,2,0:0:0:0:
176,148,15320,2,0,P|84:148|24:88,1,180
92,32,15833,1,2,0:0:0:0:
180,32,16004,1,0,0:0:0:0:
256,196,16346,1,0,0:0:0:0:
208,272,16517,1,2,0:0:0:0:
256,348,16688,1,0,0:0:0:0:
304,272,16859,6,0,B|396:272|396:272|472:328,2,180,0|2|0,0:0|0:0|0:0,0:0:0:0:
256,348,17714,1,0,0:0:0:0:
208,272,17885,1,2,0:0:0:0:
120,272,18056,2,0,P|48:216|48:132,1,180
84,52,18569,1,2,0:0:0:0:
164,96,18741,2,0,P|256:96|312:32,1,180
396,64,19254,1,2,0:0:0:0:
476,104,19425,1,0,0:0:0:0:
476,192,19596,5,0,0:0:0:0:
256,348,19938,1,2,0:0:0:0:
36,192,20280,1,0,0:0:0:0:
256,36,20622,1,2,0:0:0:0:
176,220,20964,5,0,1:0:0:0:
256,264,21135,1,0,0:0:0:0:
336,220,21306,1,2,0:0:0:0:
256,176,21477,2,0,L|256:124,2,45,0|0|0,1:0|1:0|1:0,0:0:0:0:
176,132,21819,2,0,L|176:84,2,45,0|0|2,1:0|1:0|0:0,0:0:0:0:
92,104,22161,1,0,0:0:0:0:
32,172,22332,6,0,B|32:264|32:264|88:336,1,180,4|0,1:2|1:0,0:0:0:0:
164,288,22845,1,0,0:0:0:0:
212,364,23016,1,0,1:0:0:0:
300,364,23188,1,0,0:0:0:0:
348,288,23359,2,0,P|392:288|424:256,1,90,0|0,1:0|0:0,0:0:0:0:
364,192,23701,1,0,1:0:0:0:
423,126,23872,6,0,P|392:96|348:96,1,90,0|0,0:0|1:0,0:0:0:0:
300,20,24214,1,0,0:0:0:0:
212,20,24385,1,0,1:0:0:0:
88,126,24556,2,0,P|120:96|164:96,1,90,0|0,0:0|1:0,0:0:0:0:
256,112,24898,1,0,0:0:0:0:
188,172,25069,2,0,P|255:222|324:172,2,180,0|0|0,1:0|1:0|1:0,0:0:0:0:
256,112,25924,1,0,0:0:0:0:
256,112,26095,2,0,L|256:296,2,180,0|0|0,1:0|1:0|1:0,0:0:0:0:
184,312,27121,5,0,1:0:0:0:
256,368,27292,1,0,0:0:0:0:
328,312,27463,2,0,P|420:312|476:248,2,180,0|0|8,1:0|1:0|0:0,0:0:0:0:
328,220,28319,1,0,2:0:0:0:
256,164,28490,1,0,0:0:0:0:
184,220,28661,1,0,2:0:0:0:
100,192,28832,1,8,0:0:0:0:
100,104,29003,6,0,P|192:104|248:44,1,180,0|0,2:0|2:0,0:0:0:0:
340,44,29516,1,8,0:0:0:0:
416,96,29687,2,0,L|492:148,1,90,0|0,2:0|0:0,0:0:0:0:
416,288,30029,2,0,L|492:236,1,90,0|8,2:0|0:0,0:0:0:0:
412,192,30371,1,0,2:0:0:0:
324,192,30542,2,0,B|256:251|256:251|188:192,2,180,0|8|0,0:0|0:0|0:0,0:0:0:0:
256,132,31397,1,0,2:0:0:0:
180,84,31568,2,0,B|124:84|124:84|60:52|60:52|8:52,2,180,8|4|8,0:0|1:2|0:0,0:0:0:0:
256,36,32424,6,0,L|296:36,4,22.5,0|0|0|0|0,0:0|0:0|0:0|0:0|0:0,0:0:0:0:
180,84,32766,1,0,2:0:0:0:
256,132,32937,1,8,0:0:0:0:
180,180,33108,1,8,0:0:0:0:
180,188,33193,1,0,0:0:0:0:
180,196,33279,1,4,1:2:0:0:
180,284,33450,1,0,2:0:0:0:
256,332,33621,6,0,B|312:332|312:332|376:364|376:364|428:364,1,180,8|0,0:0|0:0,0:0:0:0:
484,292,34134,1,0,2:0:0:0:
424,224,34305,1,8,0:0:0:0:
424,136,34476,2,0,B|380:136|380:136|340:108,1,90,0|0,2:0|0:0,0:0:0:0:
300,28,34818,1,0,2:0:0:0:
212,28,34989,1,8,0:0:0:0:
88,136,35160,2,0,B|132:136|132:136|172:108,1,90,0|0,2:0|0:0,0:0:0:0:
256,108,35502,1,0,2:0:0:0:
256,198,35673,2,0,L|256:288,2,90,8|0|0,0:0|2:0|0:0,0:0:0:0:
256,108,36186,2,0,L|256:16,1,90,0|8,2:0|0:0,0:0:0:0:
184,316,36699,5,0,0:0:0:0:
256,368,36871,1,0,2:0:0:0:
328,316,37042,2,0,B|352:276|352:276|352:232,1,90,8|0,0:0|2:0,0:0:0:0:
300,160,37384,1,0,0:0:0:0:
212,160,37555,1,0,2:0:0:0:
160,232,37726,2,0,B|160:276|160:276|184:316,1,90,8|0,0:0|2:0,0:0:0:0:
256,368,38068,2,0,L|256:184,1,180,0|8,0:0|0:0,0:0:0:0:
256,188,38581,1,0,2:0:0:0:
192,128,38752,6,0,P|256:75|320:128,2,180,0|8|0,0:0|0:0|0:0,0:0:0:0:
156,212,39607,2,0,L|120:300,1,90,0|8,2:0|0:0,0:0:0:0:
356,212,39949,2,0,L|392:300,1,90,0|0,2:0|0:0,0:0:0:0:
256,356,40291,2,0,L|256:256,1,90,0|8,2:0|0:0,0:0:0:0:
256,176,40633,1,0,2:0:0:0:
184,124,40804,6,0,B|256:70|256:70|328:124,1,180,0|8,0:0|0:0,0:0:0:0:
416,124,41317,1,0,0:0:0:0:
424,132,41403,1,0,0:0:0:0:
432,140,41489,1,0,0:0:0:0:
500,200,41660,2,0,P|500:244|472:284,1,90,0|8,2:0|0:0,0:0:0:0:
408,340,42002,2,0,L|432:360,4,22.5
332,292,42344,1,0,2:0:0:0:
256,336,42515,2,0,L|256:376,8,22.5,8|0|0|0|0|0|0|0|0,0:0|0:0|0:0|0:0|0:0|0:0|0:0|0:0|0:0,0:0:0:0:
180,292,43028,6,0,L|156:316,4,22.5,0|0|0|0|8,0:0|0:0|0:0|0:0|0:0,0:0:0:0:
120,224,43370,1,0,0:0:0:0:
128,216,43455,1,0,0:0:0:0:
136,208,43541,1,0,0:0:0:0:
196,140,43712,1,0,0:0:0:0:
256,72,43883,1,2,0:0:0:0:
316,140,44054,1,0,0:0:0:0:
256,208,44225,1,4,0:0:0:0:
408,304,44567,5,0,0:0:0:0:
472,244,44738,2,0,B|472:200|472:200|444:160,1,90,0|2,0:0|0:0,0:0:0:0:
396,88,45080,1,0,0:0:0:0:
340,16,45251,2,0,B|256:48|256:48|172:16,1,180,0|2,0:0|0:0,0:0:0:0:
72,164,45936,6,0,P|72:208|100:244,1,90
156,312,46278,1,2,0:0:0:0:
212,240,46449,1,0,0:0:0:0:
300,240,46620,1,0,0:0:0:0:
356,312,46791,1,0,0:0:0:0:
444,312,46962,2,0,B|444:220|444:220|384:156,1,180,2|0,0:0|0:0,0:0:0:0:
324,88,47475,2,0,B|324:44|324:44|352:8,2,90,0|2|0,0:0|0:0|0:0,0:0:0:0:
256,148,47988,1,0,0:0:0:0:
188,88,48159,2,0,B|188:44|188:44|160:8,1,90,0|2,0:0|0:0,0:0:0:0:
60,156,48672,6,0,B|60:200|60:200|88:236,1,90
148,304,49014,1,2,0:0:0:0:
212,364,49185,1,0,0:0:0:0:
300,364,49356,2,0,P|392:364|456:304,2,180,0|2|0,0:0|0:0|0:0,0:0:0:0:
256,284,50211,1,0,0:0:0:0:
212,204,50382,1,2,0:0:0:0:
300,204,50554,1,0,0:0:0:0:
344,124,50725,2,0,B|256:104|256:104|168:124,2,180,0|2|0,0:0|0:0|0:0,0:0:0:0:
388,48,51580,6,0,L|300:28,1,90,0|2,0:0|0:0,0:0:0:0:
124,48,51922,2,0,L|212:28,1,90,0|0,0:0|0:0,0:0:0:0:
328,148,52264,2,0,P|256:194|184:148,1,180
256,96,52777,2,0,L|256:276,1,180,0|2,0:0|0:0,0:0:0:0:
168,276,53290,1,0,0:0:0:0:
212,356,53461,1,0,0:0:0:0:
300,356,53632,1,0,0:0:0:0:
344,276,53803,1,2,0:0:0:0:
256,40,54145,5,0,0:0:0:0:
208,116,54316,2,0,L|168:204,1,90,0|2,0:0|0:0,0:0:0:0:
304,116,54658,2,0,L|344:204,1,90,0|0,1:0|1:0,0:0:0:0:
256,232,55001,2,0,L|256:324,1,90,0|4,1:0|1:2,0:0:0:0:
132,188,55514,6,0,P|180:188|208:160,1,90
256,84,55856,1,2,0:0:0:0:
380,188,56027,2,0,P|332:188|304:160,1,90
256,232,56369,2,0,L|256:328,1,90,0|2,0:0|0:0,0:0:0:0:
256,152,56882,5,0,0:0:0:0:
180,104,57053,1,0,0:0:0:0:
212,20,57224,1,2,0:0:0:0:
300,20,57395,1,0,0:0:0:0:
332,104,57566,1,0,0:0:0:0:
256,268,57908,6,0,L|256:88,1,180,2|0,0:0|0:0,0:0:0:0:
168,88,58421,2,0,B|168:132|168:132|144:176,1,90,0|2,0:0|0:0,0:0:0:0:
344,88,58763,2,0,B|344:132|344:132|368:176,1,90
256,268,59105,2,0,L|256:176,1,90,0|2,0:0|0:0,0:0:0:0:
212,348,59619,6,0,B|168:348|168:348|128:320,1,90
300,348,59961,2,0,B|344:348|344:348|384:320,1,90,2|0,0:0|0:0,0:0:0:0:
256,268,60303,2,0,L|256:80,1,180,0|2,0:0|0:0,0:0:0:0:
256,192,60816,12,2,62013,0:0:0:0:
172,192,62355,6,0,L|76:192,1,90
340,192,62697,2,0,L|436:192,1,90,2|0,0:0|0:0,0:0:0:0:
256,192,63039,1,0,0:0:0:0:
256,192,63381,12,4,64750,0:0:0:0:
256,192,64921,12,4,66118,0:0:0:0:
212,44,66460,6,0,P|128:44|64:108,2,180,2|0|2,0:0|0:0|0:0,0:0:0:0:
256,124,67315,1,0,0:0:0:0:
300,44,67486,2,0,P|384:44|448:108,2,180,0|2|0,0:0|0:0|0:0,0:0:0:0:
256,124,68341,1,0,0:0:0:0:
196,192,68512,1,2,0:0:0:0:
256,260,68684,1,0,0:0:0:0:
316,192,68855,6,0,P|376:256|352:340,1,180,0|2,0:0|0:0,0:0:0:0:
256,352,69368,1,0,0:0:0:0:
157,337,69539,2,0,P|136:256|196:192,1,180,0|2,0:0|0:0,0:0:0:0:
256,124,70052,1,0,0:0:0:0:
184,72,70223,2,0,P|256:26|328:72,2,180,0|2|0,0:0|0:0|0:0,0:0:0:0:
256,124,71078,2,0,L|256:216,1,90,0|2,0:0|0:0,0:0:0:0:
256,296,71420,1,0,0:0:0:0:
336,252,71591,5,4,1:2:0:0:
336,72,71933,1,0,0:0:0:0:
176,72,72275,1,0,0:0:0:0:
176,252,72617,1,0,0:0:0:0:
256,132,72959,5,4,1:2:0:0:
256,136,73045,1,0,0:0:0:0:
256,140,73130,1,0,0:0:0:0:
256,144,73216,1,0,0:0:0:0:
256,148,73302,1,0,0:0:0:0:
256,152,73387,1,0,0:0:0:0:
256,156,73473,1,0,0:0:0:0:
256,160,73558,1,0,0:0:0:0:
256,164,73644,1,0,0:0:0:0:
256,168,73729,1,0,0:0:0:0:
256,172,73815,1,0,0:0:0:0:
256,176,73900,1,0,0:0:0:0:
256,180,73986,1,0,0:0:0:0:
256,184,74071,1,0,0:0:0:0:
256,188,74157,1,0,0:0:0:0:
256,192,74242,1,0,0:0:0:0:
256,196,74328,5,4,1:2:0:0:
256,332,74584,1,0,0:0:0:0:
380,276,74841,2,0,L|412:276,4,22.5,0|0|0|0|4,0:0|0:0|0:0|0:0|1:2,0:0:0:0:
256,332,75268,1,0,0:0:0:0:
132,276,75525,6,0,L|100:276,4,22.5,0|0|0|0|4,0:0|0:0|0:0|0:0|1:2,0:0:0:0:
96,192,75867,2,0,L|64:192,4,22.5
132,108,76209,2,0,L|100:108,4,22.5,0|0|0|0|0,0:0|0:0|0:0|0:0|0:0,0:0:0:0:
212,68,76551,2,0,L|212:100,4,22.5
300,68,76893,6,0,L|300:100,4,22.5,0|0|0|0|4,0:0|0:0|0:0|0:0|1:2,0:0:0:0:
388,68,77235,1,0,2:0:0:0:
404,88,77321,1,0,0:0:0:0:
420,108,77406,1,8,0:0:0:0:
476,180,77577,2,0,B|476:224|476:224|448:264,1,90,0|0,2:0|0:0,0:0:0:0:
388,328,77920,1,0,2:0:0:0:
300,328,78091,1,8,0:0:0:0:
212,328,78262,1,0,2:0:0:0:
188,328,78347,1,0,0:0:0:0:
164,328,78433,1,0,0:0:0:0:
100,264,78604,5,0,2:0:0:0:
84,244,78689,1,0,0:0:0:0:
68,224,78775,2,0,B|68:176|68:176|88:140,1,90,8|0,0:0|2:0,0:0:0:0:
152,76,79117,1,0,0:0:0:0:
168,96,79202,1,0,0:0:0:0:
184,116,79288,2,0,P|228:116|264:88,1,90,0|8,2:0|0:0,0:0:0:0:
324,24,79630,1,0,2:0:0:0:
348,24,79715,1,0,0:0:0:0:
372,24,79801,1,0,0:0:0:0:
452,72,79972,6,0,L|484:36,2,45,0|0|8,2:0|0:0|0:0,0:0:0:0:
387,131,80314,1,0,2:0:0:0:
452,192,80485,1,0,0:0:0:0:
387,253,80656,1,0,2:0:0:0:
452,312,80827,1,8,0:0:0:0:
376,360,80998,1,0,2:0:0:0:
356,344,81084,1,0,0:0:0:0:
336,328,81169,1,0,0:0:0:0:
268,268,81340,5,0,2:0:0:0:
244,268,81426,1,0,0:0:0:0:
220,268,81511,2,0,P|176:268|140:296,1,90,8|0,0:0|2:0,0:0:0:0:
68,244,81853,1,0,0:0:0:0:
68,220,81939,1,0,0:0:0:0:
68,196,82024,1,0,2:0:0:0:
112,120,82195,1,8,0:0:0:0:
172,52,82367,2,0,L|136:24,2,45,0|0|0,2:0|0:0|0:0,0:0:0:0:
248,100,82709,5,0,2:0:0:0:
268,88,82794,1,0,0:0:0:0:
288,76,82880,2,0,B|336:76|336:76|376:100,1,90,8|0,0:0|2:0,0:0:0:0:
444,148,83222,1,0,0:0:0:0:
444,236,83393,1,0,2:0:0:0:
372,286,83564,2,0,B|336:308|336:308|288:308,1,90,8|0,0:0|2:0,0:0:0:0:
268,296,83820,1,0,0:0:0:0:
248,284,83906,1,0,0:0:0:0:
160,284,84077,5,0,2:0:0:0:
140,272,84162,1,0,0:0:0:0:
120,260,84248,1,8,0:0:0:0:
44,212,84419,1,0,2:0:0:0:
44,124,84590,1,0,0:0:0:0:
60,108,84676,1,0,0:0:0:0:
76,92,84761,2,0,P|120:92|160:64,1,90,0|8,2:0|0:0,0:0:0:0:
236,28,85103,2,0,L|280:28,1,45,0|0,2:0|0:0,0:0:0:0:
328,28,85274,1,0,0:0:0:0:
400,80,85445,5,0,2:0:0:0:
416,100,85531,1,0,0:0:0:0:
432,120,85616,1,8,0:0:0:0:
484,192,85787,1,0,2:0:0:0:
432,264,85958,2,0,P|388:264|356:296,1,90,0|0,0:0|2:0,0:0:0:0:
292,356,86300,1,8,0:0:0:0:
204,356,86471,1,0,2:0:0:0:
184,344,86557,1,0,0:0:0:0:
164,332,86642,6,0,L|88:280,1,90,4|0,1:2|2:0,0:0:0:0:
68,268,86899,1,0,0:0:0:0:
47,254,86985,1,8,0:0:0:0:
47,172,87156,2,0,L|47:140,4,22.5
136,172,87498,1,0,2:0:0:0:
196,104,87669,1,8,0:0:0:0:
256,40,87840,1,0,2:0:0:0:
280,40,87925,1,0,0:0:0:0:
304,40,88011,6,0,P|348:40|388:68,1,90,4|0,1:2|2:0,0:0:0:0:
400,88,88267,1,0,0:0:0:0:
416,112,88353,1,8,0:0:0:0:
460,192,88524,1,0,2:0:0:0:
416,272,88695,2,0,B|372:272|372:272|336:300,1,90,0|0,0:0|2:0,0:0:0:0:
256,344,89037,1,8,0:0:0:0:
176,300,89208,1,0,2:0:0:0:
156,288,89294,1,0,0:0:0:0:
136,276,89379,1,0,0:0:0:0:
60,228,89550,5,0,2:0:0:0:
60,204,89636,1,0,0:0:0:0:
60,180,89721,2,0,B|60:136|60:136|84:92,1,90,8|0,0:0|2:0,0:0:0:0:
136,24,90063,1,0,0:0:0:0:
156,40,90149,1,0,0:0:0:0:
176,56,90234,1,0,2:0:0:0:
256,16,90405,1,8,0:0:0:0:
336,56,90576,1,0,2:0:0:0:
356,40,90661,1,0,0:0:0:0:
376,24,90747,1,0,0:0:0:0:
444,84,90918,6,0,L|488:84,2,45,0|0|8,2:0|0:0|0:0,0:0:0:0:
372,136,91260,1,0,2:0:0:0:
444,192,91432,1,0,0:0:0:0:
372,248,91603,1,0,2:0:0:0:
444,300,91774,1,8,0:0:0:0:
372,352,91945,1,0,2:0:0:0:
348,352,92030,1,0,0:0:0:0:
324,352,92116,1,0,0:0:0:0:
252,300,92287,5,0,2:0:0:0:
228,300,92372,1,0,0:0:0:0:
204,300,92458,2,0,B|160:300|160:300|128:332,1,90,8|0,0:0|2:0,0:0:0:0:
48,288,92800,1,0,0:0:0:0:
48,264,92885,1,0,0:0:0:0:
48,240,92971,1,0,2:0:0:0:
48,152,93142,1,8,0:0:0:0:
100,80,93313,1,0,2:0:0:0:
124,80,93398,1,0,0:0:0:0:
148,80,93484,6,0,P|192:80|232:56,1,90,0|0,0:0|2:0,0:0:0:0:
272,56,93741,2,0,L|320:56,1,45,0|8,0:0|0:0,0:0:0:0:
404,32,93997,1,0,2:0:0:0:
468,96,94168,2,0,B|468:144|468:144|444:184,1,90,0|0,0:0|2:0,0:0:0:0:
392,252,94510,1,8,0:0:0:0:
336,324,94681,1,0,2:0:0:0:
312,324,94767,1,0,0:0:0:0:
288,324,94852,1,0,0:0:0:0:
208,280,95023,6,0,L|160:280,1,45,0|0,2:0|0:0,0:0:0:0:
116,280,95194,2,0,B|72:280|72:280|32:252,1,90,8|0,0:0|2:0,0:0:0:0:
32,164,95536,1,0,0:0:0:0:
44,144,95622,1,0,0:0:0:0:
56,124,95707,1,0,2:0:0:0:
96,44,95878,1,8,0:0:0:0:
188,44,96050,1,0,2:0:0:0:
204,64,96135,1,0,0:0:0:0:
220,84,96221,6,0,L|312:84,1,90,0|0,0:0|2:0,0:0:0:0:
400,84,96563,1,8,0:0:0:0:
456,156,96734,2,0,L|492:156,4,22.5
400,228,97076,1,0,2:0:0:0:
328,284,97247,1,8,0:0:0:0:
256,340,97418,6,0,L|224:340,4,22.5,0|0|0|0|4,0:0|0:0|0:0|0:0|1:2,0:0:0:0:
176,288,97760,2,0,L|144:288,4,22.5,0|0|0|0|8,0:0|0:0|0:0|0:0|0:0,0:0:0:0:
96,236,98102,2,0,L|64:236,4,22.5
112,148,98444,1,0,2:0:0:0:
184,96,98615,6,0,P|255:50|328:96,1,180,2|4,3:0|1:2,0:0:0:0:
372,176,99128,1,0,2:0:0:0:
396,264,99299,2,0,B|396:308|396:308|368:348,1,90,0|0,0:0|2:0,0:0:0:0:
300,288,99641,1,0,0:0:0:0:
212,288,99812,1,0,2:0:0:0:
142,345,99983,2,0,B|116:308|116:308|116:264,1,90,0|0,0:0|2:0,0:0:0:0:
140,176,100325,1,0,0:0:0:0:
232,176,100497,2,0,B|232:132|232:132|212:88,1,90,0|0,2:0|0:0,0:0:0:0:
300,68,100839,6,0,P|384:68|456:128,1,180,0|0,2:0|2:0,0:0:0:0:
392,192,101352,1,0,0:0:0:0:
456,256,101523,1,0,2:0:0:0:
392,320,101694,2,0,B|332:320|332:320|280:352|280:352|220:352,1,180
132,352,102207,1,0,2:0:0:0:
68,292,102378,1,0,0:0:0:0:
68,204,102549,1,0,2:0:0:0:
132,144,102720,1,0,0:0:0:0:
220,144,102891,6,0,B|308:144|308:144|380:84,1,180,0|0,2:0|2:0,0:0:0:0:
448,144,103404,1,0,0:0:0:0:
380,203,103575,1,0,2:0:0:0:
308,256,103746,2,0,B|224:256|224:308|136:304,1,180
72,244,104259,1,0,2:0:0:0:
124,172,104430,6,0,P|212:172|276:108,2,180,0|8|0,0:0|0:0|0:0,0:0:0:0:
140,84,105286,1,0,2:0:0:0:
212,28,105457,1,8,0:0:0:0:
300,28,105628,1,0,2:0:0:0:
372,84,105799,2,0,B|372:176|372:176|320:252,1,180,0|8,0:0|0:0,0:0:0:0:
256,308,106312,1,0,2:0:0:0:
189,248,106483,2,0,B|140:176|140:176|140:84,1,180,0|8,0:0|0:0,0:0:0:0:
212,28,106996,6,0,L|256:28,2,45,0|0|0,2:0|0:0|0:0,0:0:0:0:
140,84,107338,1,0,2:0:0:0:
212,136,107509,1,8,0:0:0:0:
300,136,107680,2,0,L|300:168,4,22.5
372,84,108022,1,0,2:0:0:0:
408,168,108193,1,8,0:0:0:0:
408,192,108279,1,0,0:0:0:0:
408,216,108364,2,0,L|408:256,4,22.5
496,192,108706,1,0,2:0:0:0:
256,192,108877,12,4,109904,1:2:0:0:
