osu file format v14

[General]
AudioFilename: AKB40 40.mp3
AudioLeadIn: 0
PreviewTime: 81861
Countdown: 0
SampleSet: Normal
StackLeniency: 0.7
Mode: 0
LetterboxInBreaks: 0
WidescreenStoryboard: 1

[Editor]
DistanceSpacing: 1.2
BeatDivisor: 4
GridSize: 4
TimelineZoom: 1.1

[Metadata]
Title:Ponytail no Shijuu ~TV Size~
TitleUnicode:ポニーテールの四十 ~TVサイズ~
Artist:Becky(CV:Saitou Chiwa)
ArtistUnicode:ベッキー(CV:斎藤千和)
Creator:Lanturn
Version:Hard
Source:のうりん
Tags:samplefish Sonnyc Nourin No-Rin Ending Bekki Natsume 戸次菜摘 Forty AKB40
BeatmapID:456882
BeatmapSetID:184420

[Difficulty]
HPDrainRate:5
CircleSize:3.5
OverallDifficulty:6
ApproachRate:7
SliderMultiplier:1.4
SliderTickRate:1

[Events]
//Background and Video events
0,0,"Nourin-08-encode-94d78bf7_001_32163.jpg",0,0
Video,0,"AKB40.avi"
//Break Periods
//Storyboard Layer 0 (Background)
//Storyboard Layer 1 (Fail)
//Storyboard Layer 2 (Pass)
//Storyboard Layer 3 (Foreground)
//Storyboard Sound Samples

[TimingPoints]
21955,375,4,1,1,60,1,0
33955,-83.3333333333333,4,1,1,70,0,0
42955,-100,4,1,1,50,0,0
54955,-83.3333333333333,4,1,1,70,0,0
66955,-100,4,1,1,70,0,0
81205,-100,4,1,1,40,0,0
81580,-100,4,1,1,55,0,0
81955,-83.3333333333333,4,1,1,80,0,1
107455,-100,4,1,1,5,0,0

[Colours]
Combo1 : 128,255,128
Combo2 : 255,255,128
Combo3 : 128,255,255
Combo4 : 255,128,255

[HitObjects]
224,76,21955,6,0,B|180:29|128:50|128:50|77:70|34:25,2,210,2|2|2,0:0|0:0|0:0,0:0:0:0:
340,196,23455,2,0,L|252:320,1,140,2|0,0:0|0:0,0:0:0:0:
180,336,24017,2,0,P|112:264|144:168,1,210,2|2,0:0|0:0,0:0:0:0:
292,84,24955,6,0,P|396:80|464:152,1,210,2|2,0:0|0:0,0:0:0:0:
268,308,26080,1,2,0:0:0:0:
432,268,26455,2,0,L|492:304,1,70,2|0,0:0|0:0,0:0:0:0:
376,204,26830,2,0,L|300:204,1,70,2|0,0:0|0:0,0:0:0:0:
416,124,27205,2,0,L|496:124,1,70,2|0,0:0|0:0,0:0:0:0:
340,88,27580,2,0,L|280:52,1,70,2|0,0:0|0:0,0:0:0:0:
196,56,27955,6,0,P|152:132|148:216,1,140,2|0,0:0|0:0,0:0:0:0:
176,260,28517,2,0,P|240:284|324:260,1,140,2|0,0:0|0:0,0:0:0:0:
380,224,29080,1,2,0:0:0:0:
143,165,29455,2,0,P|78:241|112:336,2,210,2|2|2,0:0|0:0|0:0,0:0:0:0:
256,192,30955,12,2,32455,0:0:0:0:
328,148,33392,6,0,L|328:68,2,70,0|0|0,2:0|2:0|2:0,0:0:0:0:
328,248,33955,6,0,P|304:312|192:300,1,167.999994873047,4|8,0:0|0:0,0:0:0:0:
60,192,34705,2,0,L|144:108,1,83.9999974365235,2|0,0:0|0:0,0:0:0:0:
196,200,35080,2,0,L|224:100,1,83.9999974365235,8|0,0:0|0:0,0:0:0:0:
288,44,35455,5,2,0:0:0:0:
424,192,35830,1,10,0:0:0:0:
288,340,36205,2,0,L|204:340,1,83.9999974365235,2|0,0:0|0:0,0:0:0:0:
52,268,36580,2,0,L|136:268,1,83.9999974365235,8|0,0:0|0:0,0:0:0:0:
224,220,36955,6,0,P|196:152|248:64,1,167.999994873047,2|8,0:0|0:0,0:0:0:0:
296,152,37517,1,0,0:0:0:0:
316,252,37705,2,0,P|268:304|172:304,1,167.999994873047,2|8,0:0|0:0,0:0:0:0:
108,116,38455,6,0,L|48:188,1,83.9999974365235,2|0,0:0|0:0,0:0:0:0:
172,60,38830,2,0,L|256:60,1,83.9999974365235,10|0,0:0|0:0,0:0:0:0:
380,152,39205,2,0,L|284:152,1,83.9999974365235,2|0,0:0|0:0,0:0:0:0:
156,240,39580,2,0,L|204:148,1,83.9999974365235,10|0,0:0|0:0,0:0:0:0:
252,240,39955,6,0,P|292:336|424:316,1,251.999992309571,4|2,0:0|0:0,0:0:0:0:
352,248,40705,2,0,B|320:160|388:96|388:96|440:116|440:176,1,251.999992309571,2|2,0:0|0:0,0:0:0:0:
308,316,41642,2,0,L|132:316,1,167.999994873047,2|2,0:0|0:0,0:0:0:0:
60,252,42205,1,4,0:0:0:0:
192,100,42580,1,8,0:0:0:0:
192,100,42955,6,0,P|224:172|288:184,1,140,4|0,0:0|0:0,0:0:0:0:
440,144,43705,1,2,0:0:0:0:
280,96,44080,1,0,0:0:0:0:
140,192,44455,6,0,L|88:268,1,70,2|0,0:0|0:0,0:0:0:0:
200,284,44830,2,0,L|152:356,1,70,2|0,0:0|0:0,0:0:0:0:
312,284,45205,2,0,L|350:342,1,70,2|0,0:0|0:0,0:0:0:0:
372,192,45580,2,0,L|411:249,1,70,2|0,0:0|0:0,0:0:0:0:
460,179,45955,6,0,P|445:113|386:80,1,140,2|0,0:0|0:0,0:0:0:0:
316,124,46517,2,0,P|256:156|196:124,1,140,2|0,0:0|0:0,0:0:0:0:
126,80,47080,1,2,0:0:0:0:
126,80,47455,6,0,B|56:92|56:168|56:168|56:280,2,210,2|2|2,0:0|0:0|0:0,0:0:0:0:
200,232,48955,6,0,P|212:292|288:352,1,140,2|0,0:0|0:0,0:0:0:0:
380,220,49705,2,0,P|368:160|292:100,1,140,2|0,0:0|0:0,0:0:0:0:
152,56,50455,6,0,L|68:56,1,70,2|0,0:0|0:0,0:0:0:0:
46,132,50830,2,0,L|116:132,1,70,2|0,0:0|0:0,0:0:0:0:
144,208,51205,2,0,L|60:208,1,70,2|0,0:0|0:0,0:0:0:0:
38,284,51580,2,0,L|108:284,1,70,2|0,0:0|0:0,0:0:0:0:
180,340,51955,6,0,L|328:340,1,140,2|0,0:0|0:0,0:0:0:0:
392,300,52517,2,0,P|364:236|396:176,1,140,2|0,0:0|0:0,0:0:0:0:
344,112,53080,2,0,L|260:112,1,70,2|0,0:0|0:0,0:0:0:0:
196,84,53455,5,8,0:0:0:0:
196,84,53830,1,8,0:0:0:0:
196,84,54205,5,8,0:0:0:0:
92,156,54392,1,8,0:0:0:0:
208,208,54580,1,8,0:0:0:0:
196,84,54767,1,8,0:0:0:0:
208,208,54955,6,0,P|152:272|72:284,2,167.999994873047,4|8|2,0:0|0:0|0:0,0:0:0:0:
276,136,55892,1,0,0:0:0:0:
336,216,56080,2,0,L|348:304,1,83.9999974365235,8|0,0:0|0:0,0:0:0:0:
440,340,56455,6,0,L|472:260,1,83.9999974365235,2|0,0:0|0:0,0:0:0:0:
476,160,56830,2,0,P|452:120|408:100,1,83.9999974365235,8|0,0:0|0:0,0:0:0:0:
324,76,57205,2,0,L|236:112,1,83.9999974365235,2|0,0:0|0:0,0:0:0:0:
184,188,57580,2,0,P|196:240|176:280,1,83.9999974365235,8|0,0:0|0:0,0:0:0:0:
96,224,57955,6,0,P|120:117|172:92,1,167.999994873047,2|8,0:0|0:0,0:0:0:0:
260,132,58517,2,0,P|330:179|416:148,1,167.999994873047,2|0,0:0|0:0,0:0:0:0:
344,80,59080,1,8,0:0:0:0:
260,132,59267,1,0,0:0:0:0:
196,208,59455,6,0,P|148:268|44:296,1,167.999994873047,2|8,0:0|0:0,0:0:0:0:
208,340,60017,2,0,P|292:312|368:344,1,167.999994873047,2|0,0:0|0:0,0:0:0:0:
436,272,60580,1,8,0:0:0:0:
436,272,60955,6,0,P|460:192|432:104,1,167.999994873047,2|8,0:0|0:0,0:0:0:0:
352,60,61517,1,2,0:0:0:0:
268,244,61892,2,0,P|244:284|196:312,2,83.9999974365235,0|8|0,0:0|0:0|0:0,0:0:0:0:
172,216,62455,6,0,L|72:180,1,83.9999974365235,2|0,0:0|0:0,0:0:0:0:
160,112,62830,2,0,L|260:112,1,83.9999974365235,10|0,0:0|0:0,0:0:0:0:
384,48,63205,2,0,L|284:48,1,83.9999974365235,2|0,0:0|0:0,0:0:0:0:
344,144,63580,2,0,L|424:204,1,83.9999974365235,10|0,0:0|0:0,0:0:0:0:
360,280,63955,5,8,0:0:0:0:
360,280,64330,1,8,0:0:0:0:
216,328,64517,1,8,0:0:0:0:
160,132,64892,2,0,P|84:160|40:248,2,167.999994873047,8|8|8,0:0|0:0|0:0,0:0:0:0:
160,132,66017,5,8,0:0:0:0:
296,200,66205,2,0,B|332:240|384:236|384:236|384:328,1,167.999994873047,8|0,0:0|0:0,0:0:0:0:
376,136,66955,6,0,P|352:72|288:48,1,140,4|8,0:0|0:0,0:0:0:0:
208,64,67517,2,0,L|144:16,2,70,0|0|0,2:0|2:0|0:0,0:0:0:0:
264,128,68080,2,0,L|264:220,1,70,8|0,0:0|0:0,0:0:0:0:
304,272,68455,6,0,P|372:292|440:272,1,140,2|8,0:0|0:0,0:0:0:0:
484,204,69017,2,0,P|464:136|492:68,1,140,0|0,2:0|0:0,0:0:0:0:
416,28,69580,1,8,0:0:0:0:
344,72,69767,1,0,0:0:0:0:
344,72,69955,6,0,L|328:168,1,70,2|0,0:0|0:0,0:0:0:0:
256,104,70330,2,0,L|256:32,2,70,8|0|0,0:0|2:0|2:0,0:0:0:0:
180,140,70892,1,0,0:0:0:0:
120,200,71080,2,0,L|100:280,1,70,8|0,0:0|0:0,0:0:0:0:
160,332,71455,6,0,P|224:304|288:332,1,140,2|8,0:0|0:0,0:0:0:0:
364,304,72017,2,0,P|416:248|416:168,1,140,0|8,2:0|0:0,0:0:0:0:
388,112,72580,1,8,0:0:0:0:
364,84,72955,6,0,B|304:120|304:120|256:196,1,140,4|8,0:0|0:0,0:0:0:0:
224,252,73517,1,0,2:0:0:0:
160,308,73705,2,0,P|140:240|184:176,1,140,0|8,0:0|0:0,0:0:0:0:
224,252,74267,1,0,0:0:0:0:
284,312,74455,6,0,L|424:312,1,140,2|8,0:0|0:0,0:0:0:0:
468,216,75017,2,0,L|324:216,1,140,0|0,2:0|0:0,0:0:0:0:
276,152,75580,1,8,0:0:0:0:
211,98,75767,1,0,0:0:0:0:
128,112,75955,5,4,0:0:0:0:
96,276,76330,1,8,0:0:0:0:
48,116,76705,1,0,2:0:0:0:
168,232,77080,1,8,0:0:0:0:
324,168,77455,6,0,P|364:108|432:104,1,140,2|8,0:0|0:0,0:0:0:0:
408,184,78017,2,0,P|368:244|300:248,1,140,2|0,0:0|0:0,0:0:0:0:
244,192,78580,1,8,0:0:0:0:
88,256,78955,6,0,L|124:328,1,70,4|0,0:0|2:0,0:0:0:0:
192,272,79330,2,0,L|244:328,1,70,8|0,0:0|2:0,0:0:0:0:
296,260,79705,2,0,L|360:296,1,70,8|0,0:0|2:0,0:0:0:0:
388,216,80080,2,0,L|476:240,1,70,8|0,0:0|2:0,0:0:0:0:
440,128,80455,6,0,L|440:44,1,70,8|0,0:0|2:0,0:0:0:0:
312,104,80830,2,0,L|312:180,1,70,8|0,0:0|2:0,0:0:0:0:
216,132,81205,6,0,L|168:96,3,35,8|8|8|8,0:0|0:0|0:0|0:0,0:0:0:0:
164,112,81580,2,0,L|124:84,3,35,8|8|8|8,0:0|0:0|0:0|0:0,0:0:0:0:
108,88,81955,6,0,P|60:148|100:241,1,167.999994873047,4|8,0:0|0:0,0:0:0:0:
172,280,82517,1,0,0:0:0:0:
260,228,82705,2,0,L|380:228,1,83.9999974365235,2|0,0:0|0:0,0:0:0:0:
440,252,83080,2,0,P|424:296|376:320,1,83.9999974365235,8|0,0:0|0:0,0:0:0:0:
292,312,83455,5,2,0:0:0:0:
356,120,83830,1,8,0:0:0:0:
160,164,84205,2,0,P|128:196|84:216,1,83.9999974365235,2|2,0:0|0:0,0:0:0:0:
120,84,84580,2,0,P|152:52|196:32,1,83.9999974365235,8|8,0:0|0:0,0:0:0:0:
256,108,84955,6,0,B|256:208,1,83.9999974365235,2|0,0:0|0:0,0:0:0:0:
344,268,85330,2,0,L|344:180,1,83.9999974365235,8|0,0:0|0:0,0:0:0:0:
256,108,85705,2,0,P|176:80|100:116,1,167.999994873047,2|8,0:0|0:0,0:0:0:0:
40,188,86267,1,0,0:0:0:0:
100,268,86455,6,0,B|164:328|204:280|256:336,2,167.999994873047,2|8|2,0:0|0:0|0:0,0:0:0:0:
40,188,87392,2,0,L|40:96,1,83.9999974365235,0|8,0:0|0:0,0:0:0:0:
120,44,87767,1,8,0:0:0:0:
120,44,87861,1,0,2:0:0:0:
120,44,87955,6,0,P|196:60|224:160,1,167.999994873047,4|8,0:0|0:0,0:0:0:0:
128,132,88517,1,0,0:0:0:0:
164,224,88705,2,0,L|236:292,1,83.9999974365235,2|0,0:0|0:0,0:0:0:0:
304,160,89080,2,0,L|304:256,1,83.9999974365235,8|0,0:0|0:0,0:0:0:0:
384,304,89455,6,0,B|444:260|444:260|444:160,1,167.999994873047,2|8,0:0|0:0,0:0:0:0:
280,52,90205,1,2,0:0:0:0:
104,148,90580,2,0,P|96:192|108:236,1,83.9999974365235,8|8,0:0|0:0,0:0:0:0:
188,288,90955,6,0,L|92:328,1,83.9999974365235,2|0,0:0|0:0,0:0:0:0:
236,212,91330,2,0,L|328:212,1,83.9999974365235,8|0,0:0|0:0,0:0:0:0:
440,272,91705,2,0,B|420:320|360:320|360:320|280:320,1,167.999994873047,2|8,0:0|0:0,0:0:0:0:
188,288,92267,1,0,0:0:0:0:
108,224,92455,6,0,P|84:184|84:136,1,83.9999974365235,2|2,0:0|0:0,0:0:0:0:
208,80,92830,2,0,L|164:176,1,83.9999974365235,8|2,0:0|0:0,0:0:0:0:
272,172,93205,2,0,L|368:172,1,83.9999974365235,2|10,0:0|0:0,0:0:0:0:
432,228,93580,2,0,L|412:276,3,41.9999987182618,8|0|8|0,0:0|0:0|0:0|2:0,0:0:0:0:
396,288,93955,6,0,B|312:324|312:256|232:288,1,167.999994873047,4|8,0:0|0:0,0:0:0:0:
136,316,94517,1,0,0:0:0:0:
52,260,94705,2,0,P|28:176|64:92,1,167.999994873047,2|8,0:0|0:0,0:0:0:0:
128,44,95267,1,0,0:0:0:0:
128,44,95455,5,2,0:0:0:0:
156,64,95830,1,8,0:0:0:0:
180,84,96205,2,0,L|196:172,1,83.9999974365235,2|2,0:0|0:0,0:0:0:0:
304,280,96580,2,0,L|288:192,1,83.9999974365235,8|8,0:0|0:0,0:0:0:0:
368,128,96955,6,0,P|416:120|460:132,1,83.9999974365235,2|0,0:0|0:0,0:0:0:0:
496,216,97330,2,0,P|488:256|452:296,1,83.9999974365235,8|0,0:0|0:0,0:0:0:0:
368,328,97705,2,0,P|288:304|208:328,1,167.999994873047,2|8,0:0|0:0,0:0:0:0:
120,280,98267,1,0,0:0:0:0:
120,280,98455,5,2,0:0:0:0:
104,248,98830,1,8,0:0:0:0:
100,216,99205,2,0,P|112:168|144:132,2,83.9999974365235,2|2|8,0:0|0:0|0:0,0:0:0:0:
200,220,99767,1,8,0:0:0:0:
200,220,99861,1,0,2:0:0:0:
200,220,99955,6,0,L|276:280,1,83.9999974365235,4|0,0:0|0:0,0:0:0:0:
308,180,100330,2,0,L|384:240,1,83.9999974365235,8|0,0:0|0:0,0:0:0:0:
416,140,100705,2,0,P|472:200|456:292,1,167.999994873047,2|8,0:0|0:0,0:0:0:0:
388,344,101267,1,0,0:0:0:0:
308,284,101455,6,0,B|239:234|239:234|155:234,1,167.999994873047,2|8,0:0|0:0,0:0:0:0:
4,104,102205,1,2,0:0:0:0:
192,156,102580,2,0,L|296:156,1,83.9999974365235,8|8,0:0|0:0,0:0:0:0:
368,200,102955,6,0,P|380:248|368:288,1,83.9999974365235,2|0,0:0|0:0,0:0:0:0:
304,124,103330,2,0,P|292:76|304:36,1,83.9999974365235,10|0,0:0|0:0,0:0:0:0:
200,56,103705,2,0,P|156:72|100:64,2,83.9999974365235,2|0|8,0:0|0:0|0:0,0:0:0:0:
300,44,104267,1,0,0:0:0:0:
396,80,104455,5,4,0:0:0:0:
468,268,104830,1,8,0:0:0:0:
276,332,105205,2,0,P|240:312|188:316,1,83.9999974365235,2|8,0:0|0:0,0:0:0:0:
76,340,105580,1,8,0:0:0:0:
92,136,105955,6,0,P|64:105|53:64,1,83.9999974365235,8|8,0:0|0:0,0:0:0:0:
179,159,106330,2,0,P|207:190|218:231,1,83.9999974365235,8|8,0:0|0:0,0:0:0:0:
218,231,106892,5,8,0:0:0:0:
376,196,107080,2,0,P|424:132|416:36,1,167.999994873047,8|0,0:0|0:0,0:0:0:0:
256,192,108205,12,0,110455,0:0:0:0:
