osu file format v14

[General]
AudioFilename: AKB40 40.mp3
AudioLeadIn: 0
PreviewTime: 81861
Countdown: 0
SampleSet: Normal
StackLeniency: 0.7
Mode: 0
LetterboxInBreaks: 0
WidescreenStoryboard: 1

[Editor]
DistanceSpacing: 1.2
BeatDivisor: 4
GridSize: 4
TimelineZoom: 1.1

[Metadata]
Title:Ponytail no Shijuu ~TV Size~
TitleUnicode:ポニーテールの四十 ~TVサイズ~
Artist:Becky(CV:Saitou Chiwa)
ArtistUnicode:ベッキー(CV:斎藤千和)
Creator:Lanturn
Version:Gaia
Source:のうりん
Tags:samplefish Sonnyc Nourin No-Rin Ending Bekki Natsume 戸次菜摘 Forty AKB40
BeatmapID:456752
BeatmapSetID:184420

[Difficulty]
HPDrainRate:7
CircleSize:4
OverallDifficulty:7.5
ApproachRate:8.5
SliderMultiplier:1.6
SliderTickRate:1

[Events]
//Background and Video events
0,0,"Nourin-08-encode-94d78bf7_001_32163.jpg",0,0
Video,0,"AKB40.avi"
//Break Periods
//Storyboard Layer 0 (Background)
//Storyboard Layer 1 (Fail)
//Storyboard Layer 2 (Pass)
//Storyboard Layer 3 (Foreground)
//Storyboard Sound Samples

[TimingPoints]
21955,375,4,1,1,60,1,0
33955,-83.3333333333333,4,1,1,70,0,0
42955,-100,4,1,1,50,0,0
54955,-83.3333333333333,4,1,1,70,0,0
66955,-100,4,1,1,70,0,0
81205,-100,4,1,1,40,0,0
81580,-100,4,1,1,55,0,0
81955,-83.3333333333333,4,1,1,80,0,1
107455,-100,4,1,1,5,0,0

[Colours]
Combo1 : 128,255,128
Combo2 : 255,255,128
Combo3 : 128,255,255
Combo4 : 255,128,255

[HitObjects]
364,48,21955,6,0,P|344:124|396:208,1,160,2|0,0:0|0:0,0:0:0:0:
256,344,22517,2,0,P|276:268|224:184,1,160,2|0,0:0|0:0,0:0:0:0:
196,132,23080,2,0,P|232:120|284:132,1,80,2|0,0:0|0:0,0:0:0:0:
336,172,23455,6,0,L|415:321,1,160,2|0,0:0|0:0,0:0:0:0:
422,188,24017,2,0,P|374:247|278:228,1,160,2|0,0:0|0:0,0:0:0:0:
108,156,24580,2,0,P|84:192|80:236,1,80,2|0,0:0|0:0,0:0:0:0:
120,296,24955,5,2,0:0:0:0:
256,68,25330,1,0,0:0:0:0:
256,68,25517,2,0,B|276:152|220:152|236:236,1,160,2|0,0:0|0:0,0:0:0:0:
284,288,26080,1,2,0:0:0:0:
392,308,26267,1,0,0:0:0:0:
416,200,26455,6,0,L|520:200,1,80,2|0,0:0|0:0,0:0:0:0:
336,68,26830,2,0,L|256:68,1,80,2|0,0:0|0:0,0:0:0:0:
372,160,27205,2,0,L|476:160,1,80,2|0,0:0|0:0,0:0:0:0:
292,28,27580,2,0,L|212:28,1,80,2|0,0:0|0:0,0:0:0:0:
88,72,27955,6,0,B|88:128|88:128|120:168|120:168|120:224,1,160,2|0,0:0|0:0,0:0:0:0:
256,352,28517,2,0,B|256:296|256:296|288:256|288:256|288:200,1,160,2|0,0:0|0:0,0:0:0:0:
220,124,29080,2,0,P|261:102|317:102,1,80,2|0,0:0|0:0,0:3:0:0:
428,148,29455,6,0,P|416:228|364:304,1,160,2|0,0:0|0:0,0:0:0:0:
137,293,30017,2,0,P|95:226|84:148,1,160,2|0,0:0|0:0,0:0:0:0:
256,128,30580,1,2,0:0:0:0:
256,192,30955,12,2,32455,0:0:0:0:
244,88,33392,6,0,L|312:28,2,80,0|0|0,2:0|2:0|2:0,0:0:0:0:
180,160,33955,6,0,B|180:256|264:232|263:336,1,191.999994140625,4|8,0:0|0:0,0:0:0:0:
168,324,34517,1,0,0:0:0:0:
274,163,34705,2,0,L|378:163,1,95.9999970703126,2|0,0:0|0:0,0:0:0:0:
492,52,35080,2,0,L|380:52,1,95.9999970703126,8|0,0:0|0:0,0:0:0:0:
256,24,35455,5,2,0:0:0:0:
179,98,35642,1,0,0:0:0:0:
274,163,35830,1,10,0:0:0:0:
212,264,36017,1,0,0:0:0:0:
114,198,36205,2,0,L|38:141,1,95.9999970703126,2|0,0:0|0:0,0:0:0:0:
274,163,36580,2,0,L|350:220,1,95.9999970703126,8|0,0:0|0:0,0:0:0:0:
408,316,36955,6,0,P|397:218|470:159,1,191.999994140625,2|8,0:0|0:0,0:0:0:0:
490,258,37517,1,0,0:0:0:0:
316,336,37705,2,0,B|235:372|207:299|130:336,1,191.999994140625,2|8,0:0|0:0,0:0:0:0:
68,264,38267,1,0,0:0:0:0:
128,188,38455,6,0,L|116:80,1,95.9999970703126,2|0,0:0|0:0,0:0:0:0:
256,248,38830,2,0,P|304:260|360:240,1,95.9999970703126,10|0,0:0|0:0,0:0:0:0:
484,112,39205,2,0,L|388:112,1,95.9999970703126,2|0,0:0|0:0,0:0:0:0:
208,40,39580,2,0,P|188:96|208:148,1,95.9999970703126,10|0,0:0|0:0,0:0:0:0:
324,328,39955,6,0,P|428:296|488:220,1,191.999994140625,2|8,0:0|0:0,0:0:0:0:
484,112,40517,1,2,0:0:0:0:
392,28,40705,2,0,P|340:104|368:224,1,191.999994140625,2|8,0:0|0:0,0:0:0:0:
256,256,41267,1,2,0:0:0:0:
232,256,41642,6,0,P|160:204|176:112,1,191.999994140625,2|2,0:0|0:0,0:0:0:0:
40,60,42205,2,0,P|52:112|40:156,1,95.9999970703126,4|0,0:0|0:0,0:0:0:0:
136,28,42580,1,8,0:0:0:0:
436,192,42955,6,0,B|472:128|472:128|472:20,2,160,4|0|2,0:0|0:0|0:0,0:0:0:0:
380,288,43892,1,0,0:0:0:0:
308,204,44080,2,0,L|208:204,1,80
144,256,44455,6,0,P|148:340|164:356,1,80,2|0,0:0|0:0,0:0:0:0:
84,160,44830,2,0,P|80:76|64:60,1,80,2|0,0:0|0:0,0:0:0:0:
208,128,45205,1,2,0:0:0:0:
292,84,45392,1,0,0:0:0:0:
364,148,45580,1,2,0:0:0:0:
448,104,45767,1,0,0:0:0:0:
488,192,45955,6,0,P|460:280|476:360,1,160,2|0,0:0|0:0,0:0:0:0:
346,301,46517,2,0,P|374:213|358:133,1,160,2|0,0:0|0:0,0:0:0:0:
256,244,47080,1,2,0:0:0:0:
152,284,47267,1,0,0:0:0:0:
72,208,47455,6,0,P|100:136|192:92,1,160,2|0,0:0|0:0,0:0:0:0:
312,92,48017,1,2,0:0:0:0:
384,256,48205,2,0,L|408:180,1,80
312,92,48580,2,0,L|288:168,1,80,2|0,0:0|0:0,0:0:0:0:
232,312,48955,6,0,P|144:292|108:232,1,160,2|0,0:0|0:0,0:0:0:0:
157,146,49517,1,0,0:0:0:0:
220,228,49705,2,0,L|384:228,1,160,2|0,0:0|0:0,0:0:0:0:
192,52,50455,6,0,L|96:72,1,80,2|0,0:0|0:0,0:0:0:0:
320,332,50830,2,0,L|416:312,1,80,2|0,0:0|0:0,0:0:0:0:
184,132,51205,2,0,L|120:184,1,80,2|0,0:0|0:0,0:0:0:0:
328,252,51580,2,0,L|392:200,1,80,2|0,0:0|0:0,0:0:0:0:
204,216,51955,6,0,P|232:300|304:344,1,160,2|0,0:0|0:0,0:0:0:0:
392,296,52517,1,2,0:0:0:0:
408,136,52705,1,0,0:0:0:0:
480,280,52892,1,0,0:0:0:0:
344,196,53080,2,0,L|260:196,1,80,2|0,0:0|0:0,0:0:0:0:
224,36,53455,5,8,0:0:0:0:
240,52,53830,1,8,0:0:0:0:
253,69,54205,5,8,0:0:0:0:
329,289,54392,1,8,0:0:0:0:
138,156,54580,1,8,0:0:0:0:
371,152,54767,1,8,0:0:0:0:
186,292,54955,6,0,P|107:333|25:285,1,191.999994140625,4|8,0:0|0:0,0:0:0:0:
139,156,55517,1,0,0:0:0:0:
256,232,55705,1,2,0:0:0:0:
332,96,55892,1,0,0:0:0:0:
452,196,56080,2,0,P|452:248|412:284,1,95.9999970703126,8|0,0:0|0:0,0:0:0:0:
256,232,56455,6,0,P|256:180|296:144,1,95.9999970703126,2|0,0:0|0:0,0:0:0:0:
360,220,56830,1,10,0:0:0:0:
256,320,57017,1,0,0:0:0:0:
152,220,57205,1,2,0:0:0:0:
192,364,57392,1,0,0:0:0:0:
256,232,57580,2,0,P|264:176|256:136,1,95.9999970703126,8|0,0:0|0:0,0:0:0:0:
156,72,57955,6,0,P|232:24|332:48,1,191.999994140625,2|8,0:0|0:0,0:0:0:0:
472,200,58517,2,0,P|436:100|472:28,1,191.999994140625,2|0,0:0|0:0,0:0:0:0:
328,116,59080,1,8,0:0:0:0:
256,232,59267,1,0,0:0:0:0:
88,176,59455,6,0,P|72:122|96:61,1,95.9999970703126,2|0,0:0|0:0,0:0:0:0:
192,120,59830,1,8,0:0:0:0:
256,232,60017,2,0,P|344:268|412:200,1,191.999994140625,2|0,0:0|0:0,0:0:0:0:
381,42,60580,2,0,P|344:71|328:116,1,95.9999970703126,8|0,0:0|0:0,0:0:0:0:
463,289,60955,6,0,P|503:206|456:128,1,191.999994140625,2|8,0:0|0:0,0:0:0:0:
328,192,61517,1,2,0:0:0:0:
320,164,61892,2,0,P|296:124|248:96,2,95.9999970703126,0|8|0,0:0|0:0|0:0,0:0:0:0:
404,312,62455,6,0,L|304:276,1,95.9999970703126,2|0,0:0|0:0,0:0:0:0:
44,112,62830,2,0,L|144:112,1,95.9999970703126,10|0,0:0|0:0,0:0:0:0:
408,125,63205,2,0,L|320:164,1,95.9999970703126,2|0,0:0|0:0,0:0:0:0:
64,316,63580,2,0,L|168:316,1,95.9999970703126,10|0,0:0|0:0,0:0:0:0:
256,280,63955,5,8,0:0:0:0:
256,280,64330,1,8,0:0:0:0:
408,125,64517,1,8,0:0:0:0:
256,280,64892,1,8,0:0:0:0:
104,126,65267,1,8,0:0:0:0:
256,44,65642,1,8,0:0:0:0:
256,44,66017,5,8,0:0:0:0:
412,224,66205,2,0,B|344:216|316:156|316:156|248:148,1,191.999994140625,8|0,0:0|0:0,0:0:0:0:
104,126,66955,6,0,P|108:186|204:247,1,160,4|8,0:0|0:0,0:0:0:0:
196,151,67517,1,0,2:0:0:0:
168,36,67705,1,0,2:0:0:0:
48,32,67892,1,0,0:0:0:0:
104,126,68080,2,0,L|40:200,1,80,8|0,0:0|0:0,0:0:0:0:
40,320,68455,6,0,P|120:344|192:304,1,160,2|8,0:0|0:0,0:0:0:0:
324,196,69017,2,0,L|368:360,1,160,0|0,2:0|0:0,0:0:0:0:
448,192,69580,1,8,0:0:0:0:
400,80,69767,1,0,0:0:0:0:
280,92,69955,6,0,L|204:164,1,80,2|0,0:0|0:0,0:0:0:0:
104,176,70330,1,8,0:0:0:0:
224,96,70517,2,0,L|282:41,2,80,0|0|0,2:0|2:0|0:0,0:0:0:0:
24,192,71080,2,0,P|46:232|94:258,1,80,8|0,0:0|0:0,0:0:0:0:
172,232,71455,6,0,P|248:204|324:224,1,160,2|8,0:0|0:0,0:0:0:0:
416,200,72017,1,0,2:0:0:0:
416,200,72205,1,0,2:0:0:0:
256,76,72392,1,8,0:0:0:0:
428,128,72580,1,8,0:0:0:0:
416,200,72955,6,0,B|368:248|368:248|332:248|332:248|284:288,1,160,4|8,0:0|0:0,0:0:0:0:
160,312,73517,1,0,2:0:0:0:
148,180,73705,1,0,2:0:0:0:
40,252,73892,1,0,0:0:0:0:
148,180,74080,2,0,L|232:180,1,80,8|0,0:0|0:0,0:0:0:0:
108,104,74455,6,0,P|64:176|96:248,1,160,2|8,0:0|0:0,0:0:0:0:
172,280,75017,2,0,P|140:316|88:332,1,80,0|0,2:0|2:0,0:0:0:0:
256,344,75392,1,0,0:0:0:0:
372,272,75580,1,8,0:0:0:0:
256,196,75767,1,0,0:0:0:0:
364,108,75955,6,0,L|468:76,1,80,4|0,0:0|0:0,0:0:0:0:
468,196,76330,1,8,0:0:0:0:
372,272,76517,2,0,L|324:336,2,80,0|0|0,0:0|2:0|0:0,0:0:0:0:
256,196,77080,2,0,L|203:125,1,80,8|0,0:0|0:0,0:0:0:0:
80,72,77455,6,0,P|92:136|156:212,1,160,2|8,0:0|0:0,0:0:0:0:
280,268,78017,1,0,0:0:0:0:
172,332,78205,1,0,2:0:0:0:
436,288,78392,1,0,0:0:0:0:
328,352,78580,1,8,0:0:0:0:
164,80,78955,5,4,0:0:0:0:
70,129,79142,1,0,2:0:0:0:
175,134,79330,5,8,0:0:0:0:
59,183,79517,1,0,2:0:0:0:
180,189,79705,5,8,0:0:0:0:
40,236,79892,1,0,2:0:0:0:
174,244,80080,5,8,0:0:0:0:
7,281,80267,1,0,2:0:0:0:
155,297,80455,6,0,L|215:369,1,80,8|0,0:0|2:0,0:0:0:0:
453,343,80830,2,0,L|393:275,1,80,8|0,0:0|2:0,0:0:0:0:
281,85,81205,5,8,0:0:0:0:
255,95,81298,1,8,0:0:0:0:
231,110,81392,1,8,0:0:0:0:
211,129,81486,1,8,0:0:0:0:
194,151,81580,1,8,0:0:0:0:
183,176,81673,1,8,0:0:0:0:
176,203,81767,1,8,0:0:0:0:
174,231,81861,1,8,0:0:0:0:
191,260,81955,6,0,B|256:216|319:256|319:256|379:224,1,191.999994140625,4|8,0:0|0:0,0:0:0:0:
260,336,82517,1,0,0:0:0:0:
120,348,82705,2,0,L|14:348,1,95.9999970703126,2|0,0:0|0:0,0:0:0:0:
100,144,83080,2,0,L|40:248,1,95.9999970703126,8|0,0:0|0:0,0:0:0:0:
196,100,83455,5,2,0:0:0:0:
380,44,83642,1,2,0:0:0:0:
336,232,83830,1,8,0:0:0:0:
356,40,84017,1,0,0:0:0:0:
368,232,84205,2,0,P|388:284|440:332,1,95.9999970703126,2|2,0:0|0:0,0:0:0:0:
144,152,84580,2,0,P|124:100|72:52,1,95.9999970703126,8|8,0:0|0:0,0:0:0:0:
204,256,84955,6,0,B|188:304|188:304|160:344,1,95.9999970703126,2|0,0:0|0:0,0:0:0:0:
296,232,85330,2,0,P|272:189|212:160,1,95.9999970703126,8|0,0:0|0:0,0:0:0:0:
368,300,85705,2,0,P|388:228|320:120,1,191.999994140625,2|8,0:0|0:0,0:0:0:0:
222,106,86267,1,0,0:0:0:0:
161,204,86455,6,0,L|161:304,1,95.9999970703126,2|0,0:0|0:0,0:0:0:0:
47,195,86830,2,0,L|47:98,1,95.9999970703126,8|0,0:0|0:0,0:0:0:0:
140,31,87205,1,2,0:0:0:0:
254,29,87392,1,2,0:0:0:0:
351,90,87580,1,8,0:0:0:0:
384,200,87767,1,8,0:0:0:0:
384,200,87861,1,0,2:0:0:0:
384,200,87955,6,0,P|360:256|308:288,1,95.9999970703126,4|0,0:0|0:0,0:0:0:0:
192,324,88330,2,0,L|88:324,1,95.9999970703126,8|0,0:0|0:0,0:0:0:0:
64,164,88705,2,0,L|136:232,1,95.9999970703126,2|0,0:0|0:0,0:0:0:0:
256,160,89080,1,8,0:0:0:0:
311,59,89267,6,0,B|389:69|439:118|439:118|420:193|355:232,1,287.999991210938,2|8,0:0|0:0,0:0:0:0:
204,264,90017,1,0,0:0:0:0:
312,336,90205,1,2,0:0:0:0:
168,296,90392,1,0,0:0:0:0:
340,304,90580,2,0,L|460:304,1,95.9999970703126,8|8,0:0|0:0,0:0:0:0:
204,264,90955,6,0,L|108:304,1,95.9999970703126,2|0,0:0|0:0,0:0:0:0:
308,136,91330,2,0,L|332:44,1,95.9999970703126,8|0,0:0|0:0,0:0:0:0:
144,148,91705,2,0,P|98:123|53:126,2,95.9999970703126,2|0|8,0:0|0:0|0:0,0:0:0:0:
204,264,92267,1,0,0:0:0:0:
204,264,92455,5,2,0:0:0:0:
256,80,92642,1,2,0:0:0:0:
392,220,92830,1,8,0:0:0:0:
444,36,93017,1,2,0:0:0:0:
256,80,93205,2,0,L|160:80,1,95.9999970703126,2|10,0:0|0:0,0:0:0:0:
68,148,93580,1,8,0:0:0:0:
74,180,93673,1,0,0:0:0:0:
81,212,93767,1,8,0:0:0:0:
81,245,93861,1,0,2:0:0:0:
70,276,93955,6,0,P|151:313|257:283,1,191.999994140625,4|8,0:0|0:0,0:0:0:0:
380,140,94517,1,0,0:0:0:0:
276,176,94705,2,0,P|300:216|353:248,1,95.9999970703126,2|0,0:0|0:0,0:0:0:0:
380,140,95080,1,8,0:0:0:0:
260,48,95267,1,0,0:0:0:0:
156,144,95455,6,0,P|164:192|140:252,1,95.9999970703126,2|2,0:0|0:0,0:0:0:0:
16,144,95830,1,8,0:0:0:0:
116,40,96017,1,0,0:0:0:0:
260,48,96205,2,0,P|304:80|320:124,1,95.9999970703126,2|2,0:0|0:0,0:0:0:0:
256,336,96580,2,0,P|212:304|196:260,1,95.9999970703126,8|0,0:0|0:0,0:0:0:0:
356,164,96955,6,0,P|339:201|291:239,1,95.9999970703126,2|0,0:0|0:0,0:0:0:0:
132,148,97330,2,0,P|173:146|227:174,1,95.9999970703126,8|0,0:0|0:0,0:0:0:0:
356,312,97705,2,0,P|424:240|440:144,1,191.999994140625,2|8,0:0|0:0,0:0:0:0:
360,56,98267,1,0,0:0:0:0:
256,128,98455,6,0,P|204:140|156:124,1,95.9999970703126,2|0,0:0|0:0,0:0:0:0:
0,60,98830,2,0,P|45:48|92:60,1,95.9999970703126,2|0,0:0|0:0,0:0:0:0:
140,212,99205,1,2,0:0:0:0:
212,60,99392,1,2,0:0:0:0:
44,132,99580,1,8,0:0:0:0:
284,248,99767,1,8,0:0:0:0:
284,248,99861,1,0,2:0:0:0:
284,248,99955,6,0,P|256:304|192:332,1,95.9999970703126,4|0,0:0|0:0,0:0:0:0:
368,192,100330,2,0,L|368:88,1,95.9999970703126,8|0,0:0|0:0,0:0:0:0:
464,256,100705,2,0,L|464:364,1,95.9999970703126,2|0,0:0|0:0,0:0:0:0:
284,248,101080,2,0,L|284:148,1,95.9999970703126,8|0,0:0|0:0,0:0:0:0:
189,41,101455,6,0,B|140:58|140:122|140:122|140:212,1,191.999994140625,2|8,0:0|0:0,0:0:0:0:
256,340,102017,1,0,0:0:0:0:
352,196,102205,1,2,0:0:0:0:
228,316,102392,1,0,0:0:0:0:
376,228,102580,2,0,L|480:228,1,95.9999970703126,8|8,0:0|0:0,0:0:0:0:
256,144,102955,6,0,L|360:112,1,95.9999970703126,2|0,0:0|0:0,0:0:0:0:
124,28,103330,2,0,L|236:72,1,95.9999970703126,8|0,0:0|0:0,0:0:0:0:
44,186,103705,2,0,P|91:192|136:176,2,95.9999970703126,2|0|8,0:0|0:0|0:0,0:0:0:0:
82,105,104267,1,0,0:0:0:0:
32,284,104455,6,0,L|120:340,1,95.9999970703126,4|0,0:0|0:0,0:0:0:0:
340,296,104830,2,0,L|252:240,1,95.9999970703126,8|0,0:0|0:0,0:0:0:0:
244,360,105205,1,2,0:0:0:0:
352,188,105392,1,8,0:0:0:0:
412,316,105580,1,8,0:0:0:0:
120,56,105955,5,8,0:0:0:0:
184,236,106142,1,8,0:0:0:0:
348,136,106330,1,8,0:0:0:0:
412,316,106517,1,8,0:0:0:0:
92,156,106892,5,8,0:0:0:0:
420,220,107080,2,0,P|460:144|412:52,1,191.999994140625,8|0,0:0|0:0,0:0:0:0:
256,192,108205,12,0,110455,0:0:0:0:
