osu file format v14

[General]
AudioFilename: AKB40 40.mp3
AudioLeadIn: 0
PreviewTime: 81861
Countdown: 0
SampleSet: Normal
StackLeniency: 0.7
Mode: 0
LetterboxInBreaks: 0
WidescreenStoryboard: 1

[Editor]
DistanceSpacing: 1.2
BeatDivisor: 4
GridSize: 4
TimelineZoom: 1

[Metadata]
Title:Ponytail no Shijuu ~TV Size~
TitleUnicode:ポニーテールの四十 ~TVサイズ~
Artist:Becky(CV:Saitou Chiwa)
ArtistUnicode:ベッキー(CV:斎藤千和)
Creator:Lanturn
Version:Easy
Source:のうりん
Tags:samplefish Sonnyc Nourin No-Rin Ending Bekki Natsume 戸次菜摘 Forty AKB40
BeatmapID:456881
BeatmapSetID:184420

[Difficulty]
HPDrainRate:1.5
CircleSize:2.5
OverallDifficulty:2
ApproachRate:2.5
SliderMultiplier:0.6
SliderTickRate:1

[Events]
//Background and Video events
0,0,"Nourin-08-encode-94d78bf7_001_32163.jpg",0,0
Video,0,"AKB40.avi"
//Break Periods
//Storyboard Layer 0 (Background)
//Storyboard Layer 1 (Fail)
//Storyboard Layer 2 (Pass)
//Storyboard Layer 3 (Foreground)
//Storyboard Sound Samples

[TimingPoints]
21955,375,4,1,1,60,1,0
33955,-100,4,1,1,70,0,0
42955,-100,4,1,1,50,0,0
54955,-100,4,1,1,70,0,0
80455,-100,4,1,1,40,0,0
81955,-100,4,1,1,80,0,1
107455,-100,4,1,1,5,0,0

[Colours]
Combo1 : 128,255,128
Combo2 : 255,255,128
Combo3 : 128,255,255
Combo4 : 255,128,255

[HitObjects]
88,108,21955,6,0,L|88:200,1,90,2|2,0:0|0:0,0:0:0:0:
180,316,23455,2,0,L|180:208,1,90,2|2,0:0|0:0,0:0:0:0:
272,108,24955,6,0,L|272:212,1,90,2|2,0:0|0:0,0:0:0:0:
328,336,26455,2,0,P|380:308|408:248,1,120,2|2,0:0|0:0,0:0:0:0:
400,136,27955,6,0,L|304:136,1,90,2|2,0:0|0:0,0:0:0:0:
200,240,29455,2,0,L|296:240,1,90,2|2,0:0|0:0,0:0:0:0:
256,192,30955,12,2,32455,0:0:0:0:
256,312,33955,6,0,B|304:312|328:280|328:280|328:220,1,120,4|8,0:0|0:0,0:0:0:0:
380,132,35455,2,0,B|440:132|440:132|472:156|480:200,1,120,2|8,0:0|0:0,0:0:0:0:
432,292,36955,1,2,0:0:0:0:
316,324,37705,1,8,0:0:0:0:
208,272,38455,6,0,B|168:228|168:228|107:228,2,120,2|8|2,0:0|0:0|0:0,0:0:0:0:
104,328,40705,2,0,P|11:253|56:143,1,240,8|4,0:0|0:0,0:0:0:0:
140,80,42955,5,4,0:0:0:0:
256,116,43705,1,2,0:0:0:0:
368,80,44455,2,0,P|408:124|420:192,1,120,0|2,2:0|0:0,0:0:0:0:
348,276,45955,6,0,P|300:312|236:312,2,120,0|2|0,2:0|0:0|2:0,0:0:0:0:
260,196,48205,1,2,0:0:0:0:
196,96,48955,6,0,B|136:96|136:96|108:128|88:131,1,120,0|2,2:0|0:0,0:0:0:0:
88,252,50455,2,0,B|108:256|136:288|136:288|196:288,1,120,0|2,2:0|0:0,0:0:0:0:
308,332,51955,6,0,P|364:332|424:284,1,120,0|2,2:0|0:0,0:0:0:0:
464,188,53455,2,0,B|496:148|468:104|468:104|416:124|368:88,1,180,8|8,0:0|0:0,0:0:0:0:
324,80,54955,6,0,P|268:100|208:76,1,120,4|8,0:0|0:0,0:0:0:0:
104,36,56455,2,0,L|56:160,1,120,2|8,0:0|0:0,0:0:0:0:
124,248,57955,6,0,B|165:263|202:265|235:235|235:235|240:279|269:303|310:319,1,240,2|2,0:0|0:0,0:0:0:0:
412,252,60205,1,8,0:0:0:0:
400,132,60955,6,0,B|368:76|368:76|324:92|272:76,2,150,4|2|2,0:0|0:0|0:0,0:0:0:0:
304,284,63955,6,0,B|244:284|244:284|216:264,1,90,8|8,0:0|0:0,0:0:0:0:
136,180,65267,2,0,B|68:188|40:244|40:244|40:284,1,150,8|8,0:0|0:0,0:0:0:0:
136,344,66955,6,0,P|192:324|256:348,1,120,4|0,0:0|2:0,0:0:0:0:
364,308,68455,2,0,L|460:236,1,120,2|0,0:0|2:0,0:0:0:0:
452,116,69955,6,0,L|356:188,1,120,2|0,0:0|2:0,0:0:0:0:
244,144,71455,2,0,P|188:164|124:140,1,120,2|0,0:0|2:0,0:0:0:0:
28,204,72955,5,4,0:0:0:0:
108,292,73705,1,0,2:0:0:0:
220,332,74455,2,0,P|278:346|340:328,1,120,2|0,0:0|2:0,0:0:0:0:
420,244,75955,6,0,L|420:112,1,120,4|0,0:0|2:0,0:0:0:0:
304,92,77455,2,0,B|304:156|304:156|280:200,2,90,2|2|0,0:0|0:0|2:0,0:0:0:0:
256,192,78955,12,0,80455,0:0:0:0:
212,40,81955,6,0,B|176:84|164:88|104:100|100:108|112:168|112:180|83:228,1,240,4|2,0:0|0:0,0:0:0:0:
160,316,84205,1,8,0:0:0:0:
276,340,84955,6,0,B|312:296|324:292|384:280|388:272|376:212|376:200|404:151,1,240,2|2,0:0|0:0,0:0:0:0:
336,52,87205,1,8,0:0:0:0:
216,60,87955,6,0,P|172:112|104:136,1,120,2|8,0:0|0:0,0:0:0:0:
125,251,89455,2,0,P|179:277|216:324,1,120,2|8,0:0|0:0,0:0:0:0:
324,276,90955,5,2,0:0:0:0:
408,192,91705,1,8,0:0:0:0:
324,108,92455,2,0,P|256:58|188:108,1,180,2|4,0:0|0:0,0:0:0:0:
168,164,93955,6,0,B|176:212|140:244|140:244|176:256|176:288|176:288|228:256|288:292,1,240,4|2,0:0|0:0,0:0:0:0:
372,324,96205,1,8,0:0:0:0:
444,228,96955,6,0,B|436:180|472:148|472:148|436:136|436:104|436:104|384:136|324:100,1,240,2|2,0:0|0:0,0:0:0:0:
256,40,99205,1,8,0:0:0:0:
180,132,99955,6,0,L|76:196,1,120,2|8,0:0|0:0,0:0:0:0:
76,316,101455,2,0,L|180:252,1,120,2|8,0:0|0:0,0:0:0:0:
292,216,102955,5,2,0:0:0:0:
356,116,103705,1,8,0:0:0:0:
256,52,104455,6,0,P|164:56|140:140,1,180,4|8,0:0|0:0,0:0:0:0:
152,188,105955,2,0,B|196:248|256:224|256:224|316:248|360:188,1,240,8|0,0:0|0:0,0:0:0:0:
256,192,108205,12,0,110455,0:0:0:0:
