osu file format v5

[General]
AudioFilename: lessthanthree.mp3
AudioLeadIn: 0
PreviewTime: -1
Countdown: 1
SampleSet: Normal
StackLeniency: 0.7
Mode: 0
LetterboxInBreaks: 1

[Metadata]
Title:Less Than Three (Radio Mix)
Artist:Becky
Creator:fufe
Version:Normal
Source:
Tags:

[Difficulty]
HPDrainRate:5
CircleSize:4
OverallDifficulty:3
SliderMultiplier:1.4
SliderTickRate:2

[Events]
//Background and Video events
0,0,"osul3.jpg"
//Break Periods
2,36255,40990
2,71879,76990
2,107692,112990
2,119880,130990
//Storyboard Layer 0 (Background)
//Storyboard Layer 1 (Failing)
//Storyboard Layer 2 (Passing)
//Storyboard Layer 3 (Foreground)
//Storyboard Sound Samples
//Background Colour Transformations
3,100,163,162,255

[TimingPoints]
24455,375,4,1,0,80,1,0

[Colours]
Combo1 : 255,66,66
Combo2 : 0,255,255
Combo3 : 252,199,173
Combo4 : 245,245,245

[HitObjects]
80,96,24455,1,8
80,240,24830,2,8,B|232:240,1,140
224,96,25580,1,2
368,96,25955,5,8
368,240,26330,2,8,B|224:240,1,140
224,96,27080,1,2
369,96,27455,6,8,B|489:200,1,140,8|8
368,288,28205,1,0
256,192,28580,1,6
144,288,28955,6,8,B|32:192,1,140,8|8
144,96,29705,1,0
256,192,30080,1,6
368,288,30455,5,8
224,288,30830,2,8,B|80:288,1,140
85,144,31580,1,4
224,144,31955,5,8
368,144,32330,2,8,B|368:288,1,140
226,283,33080,1,4
224,144,33455,5,0
80,144,33830,1,0
82,283,34205,1,0
82,283,34392,1,0
82,283,34580,1,0
224,288,34955,2,0,L|384:288,3,140,0|0|0|6
288,48,42455,6,0,B|176:160,1,140
189,286,43205,1,8
325,286,43580,1,8
325,145,43955,2,0,B|213:41,1,140
256,192,44705,1,12
256,320,45080,5,8
160,224,45455,1,0
256,320,45830,1,8
352,224,46205,1,0
256,128,46580,1,8
256,192,46955,12,0,48080
64,336,48455,5,0
144,224,48830,1,0
224,336,49205,1,0
304,224,49580,1,0
384,336,49955,1,8
384,336,50142,1,8
469,225,50517,1,2
112,16,51455,6,0,B|-16:112,1,140
0,240,52205,2,0,L|112:336,1,140
246,333,52955,1,8
246,333,53142,1,8
390,333,53517,1,2
256,96,54455,5,0
256,240,54830,1,0
400,240,55205,2,4,L|464:240|464:240|464:96|464:96|371:96|371:96,1,280,0|0
176,96,56517,1,4
352,240,57455,6,10,L|208:240,3,140
213,97,58955,2,2,L|295:97,1,70
422,101,59517,1,4
112,304,60455,6,0,L|248:208,1,140,8|0
335,136,61205,2,0,L|471:32,1,140,8|0
451,182,61955,2,0,B|371:238,6,70,8|8|0|0|8|8|0
316,221,63455,5,8
316,221,63830,1,0
176,223,64205,2,0,L|8:223,1,140,8|0
144,128,64955,2,8,L|232:128,4,70
384,272,66455,5,8
384,272,66642,2,0,L|320:200,1,70,0|4
207,273,67205,1,8
207,273,67392,2,0,L|152:204,1,70,0|4
107,89,67955,6,0,C|211:41|219:121|315:89|291:209,1,420,0|4
219,313,69455,2,0,C|115:361|107:281|11:313|35:193,1,420,0|4
171,217,70955,6,8,C|107:161,4,70
208,64,78455,6,8,C|40:64,2,140
352,64,79580,1,2
352,208,79955,6,8,C|504:208,2,140
208,208,81080,1,2
208,352,81455,6,8,C|56:352,2,140
352,352,82580,1,2
352,208,82955,6,0,C|352:40,1,140,8|8
208,64,83705,5,8
208,64,83892,1,8
208,64,84080,1,2
208,208,84455,5,0
352,208,84830,1,8
496,208,85205,2,0,B|448:144,1,70
368,32,85767,2,8,B|216:112,2,140
120,279,87455,6,8,C|178:208,1,70,8|8
244,110,88017,1,0
416,112,88392,1,8
416,256,88767,2,8,B|328:368,2,140
91,96,90455,6,0,B|179:96,1,70
304,96,91017,1,0
304,240,91392,1,0
160,240,91767,1,0
160,96,92142,1,0
304,96,92517,1,0
496,160,93080,6,0,B|496:328,1,140,4|8
352,304,93830,2,0,B|200:304,1,140,4|8
212,304,94392,1,8
64,304,94767,1,4
64,160,95142,1,2
208,160,95517,1,2
352,160,95892,1,2
352,160,96080,1,2
350,20,96455,6,0,B|182:20,1,140
64,20,97205,2,0,B|64:164,1,140
208,160,97955,1,0
208,160,98142,2,0,B|352:160,1,140
480,160,98892,2,8,C|480:240,1,70
480,368,99455,6,0,B|312:368,1,140
336,224,100205,2,0,B|480:224,1,140
480,80,100955,1,0
480,80,101142,2,0,B|336:80,1,140
192,80,101892,1,8
192,80,102080,1,8
192,224,102455,6,0,B|48:224,1,140
48,368,103205,1,0
48,368,103392,1,0
256,368,103955,1,0
256,368,104142,1,0
256,224,104517,1,0
256,80,104892,2,8,B|176:80,1,70
190,224,105455,6,8,B|22:224,1,140
46,80,106205,1,8
190,80,106580,2,8,B|334:80,1,140
330,80,107142,1,8
478,80,107517,1,14
216,40,114455,5,0
216,40,114642,2,0,B|148:110,1,70
64,192,115205,1,0
64,192,115392,2,0,B|136:256,1,70
223,328,115955,1,0
223,328,116142,2,0,B|287:256,5,70
361,169,117455,6,0,B|299:239,6,70
221,169,118955,1,8
61,169,119330,1,12
61,329,119705,1,4
160,48,132455,6,0,C|320:48,1,140
299,200,133205,2,0,C|139:200,1,140
158,357,133955,5,0
158,357,134142,1,0
158,357,134330,2,0,B|310:357,2,140
160,216,135455,5,0
160,216,135642,1,0
160,216,135830,2,0,B|312:216,2,140
159,75,136955,5,0
159,75,137142,1,0
159,75,137330,1,0
159,75,137517,1,0
159,75,137705,1,0
456,40,138455,5,0
456,40,138642,1,0
456,40,138830,1,0
357,139,139205,1,0
357,139,139392,1,0
357,139,139580,1,0
259,239,139955,2,0,C|176:240,3,70
186,168,140705,1,0
259,169,140892,1,0
259,98,141080,1,0
119,95,141455,5,0
119,95,141642,1,0
119,95,141830,2,0,B|183:39,4,70
227,183,142955,5,8
334,273,143330,1,12
440,181,143705,1,12
256,192,144455,12,4,145955
