osu file format v5

[General]
AudioFilename: lessthanthree.mp3
AudioLeadIn: 0
PreviewTime: -1
Countdown: 1
SampleSet: Normal
StackLeniency: 0.7
Mode: 0
LetterboxInBreaks: 1
EditorBookmarks: 106180

[Metadata]
Title:Less Than Three (Radio Mix)
Artist:Becky
Creator:fufe
Version:Hard
Source:
Tags:

[Difficulty]
HPDrainRate:6
CircleSize:5
OverallDifficulty:7
SliderMultiplier:1.4
SliderTickRate:2

[Events]
//Background and Video events
0,0,"osul3.jpg"
//Break Periods
2,36255,41530
2,71880,77530
2,107692,113530
2,119880,131530
//Storyboard Layer 0 (Background)
//Storyboard Layer 1 (Failing)
//Storyboard Layer 2 (Passing)
//Storyboard Layer 3 (Foreground)
//Storyboard Sound Samples
//Background Colour Transformations
3,100,163,162,255

[TimingPoints]
24455,375,4,1,0,80,1,0
77961,-100,4,1,0,59,0,0
92680,-100,4,1,0,79,0,0

[Colours]
Combo1 : 255,66,66
Combo2 : 0,255,255
Combo3 : 252,199,173
Combo4 : 245,245,245

[HitObjects]
90,102,24455,1,0
90,238,24830,2,0,B|226:238,1,105,8|0
195,238,25205,2,0,C|194:166,1,70,0|0
264,169,25580,1,8
440,105,25955,5,0
440,241,26330,2,0,B|304:241,1,105,8|0
335,241,26705,2,0,C|336:169,1,70,0|0
264,169,27080,1,8
138,94,27455,6,0,B|50:182,1,105,0|0
64,168,27830,2,0,C|154:254,1,105,8|0
140,240,28205,1,0
196,291,28392,1,0
247,343,28580,1,8
330,246,28955,6,0,B|418:150,1,105,0|0
401,168,29330,2,0,C|330:86,1,105,8|0
333,88,29705,1,0
290,38,29892,1,4
226,14,30080,1,12
162,38,30267,1,4
114,86,30455,5,0
114,222,30830,2,0,B|250:222,1,105,8|0
219,222,31205,2,0,C|266:166,1,70,0|0
264,88,31580,1,8
415,86,31955,5,0
415,222,32330,2,0,B|279:222,1,105,8|0
310,222,32705,2,0,C|263:166,1,70,0|0
264,88,33080,1,8
124,86,33455,5,0
124,222,33830,2,0,C|236:294,1,105,8|0
213,278,34205,1,0
284,278,34392,1,0
356,278,34580,1,8
262,190,34955,5,8
306,134,35142,1,0
271,73,35330,1,8
202,70,35517,1,0
162,126,35705,1,8
194,190,35892,1,8
232,131,36080,5,4
168,104,42455,6,0,B|96:176,1,70
72,208,42830,1,12
24,264,43017,1,0
160,264,43392,1,0
208,208,43580,1,8
248,152,43767,2,0,B|344:32,1,140
413,43,44330,1,8
489,43,44517,1,0
472,256,45080,5,8
328,256,45455,1,0
184,256,45830,1,8
40,256,46205,1,8
40,256,46392,1,8
40,112,46767,2,0,C|224:248,1,210
344,192,47705,6,0,C|264:136,1,70,0|0
168,72,48267,1,0
112,32,48455,5,0
104,168,48830,1,8
159,208,49017,1,0
215,248,49205,1,0
352,248,49580,1,8
407,208,49767,1,0
463,168,49955,1,0
463,168,50142,1,0
320,168,50517,1,8
184,128,50892,6,0,C|272:128,1,70,4|0
360,24,51455,6,0,B|488:120,1,140,0|8
474,178,52017,1,0
473,248,52205,2,0,L|361:344,1,140,0|8
296,339,52767,1,0
224,339,52955,2,8,B|136:339,1,70
16,339,53517,1,8
104,224,53892,6,4,C|192:224,1,70
283,136,54455,5,8
283,280,54830,1,8
419,280,55205,1,0
491,280,55392,1,4
491,208,55580,1,8
491,136,55767,1,4
491,64,55955,1,4
419,64,56142,1,8
294,128,56517,1,8
261,264,56892,6,4,B|259:368,1,70
348,218,57455,6,0,B|276:98,1,105
293,127,57830,2,0,B|164:127,1,105
188,126,58205,2,0,B|132:226,1,105
135,219,58580,2,0,B|196:306,1,105
195,304,58955,2,0,B|284:304,1,70
418,300,59517,5,0
48,56,60455,5,0
48,128,60642,1,0
48,200,60830,1,8
184,200,61205,1,0
184,128,61392,1,0
184,56,61580,1,8
289,147,61955,5,0
249,91,62142,1,0
297,43,62330,2,0,B|385:43,1,70,8|0
419,93,62705,1,0
377,147,62892,2,0,B|441:195,1,70,0|8
473,323,63455,6,0,B|393:323,1,70
403,323,63830,2,0,B|321:323,1,70,8|0
333,323,64205,2,0,B|241:323,2,70,0|0|8
263,201,64955,5,0
215,73,65142,1,0
159,201,65330,1,8
103,73,65517,1,0
55,201,65705,1,4
384,272,66455,5,0
384,272,66642,2,0,L|320:200,1,70,0|12
208,272,67205,1,0
208,272,67392,2,0,L|154:204,1,70,0|12
159,82,67955,6,0,B|247:82,1,70
229,82,68330,2,0,B|303:82,1,70,8|0
299,82,68705,2,0,B|383:82,2,70,0|0|8
416,152,69455,5,0
464,200,69642,1,0
419,251,69830,2,0,B|323:251,1,70,8|0
302,202,70205,1,0
255,154,70392,2,0,B|159:154,1,70,0|8
54,202,70955,5,0
118,330,71142,1,0
182,202,71330,1,8
238,330,71517,1,0
302,202,71705,1,4
216,240,78455,6,0,B|176:240,2,35
256,184,78830,2,0,B|256:144,2,35
296,240,79205,2,0,B|336:240,2,35
256,296,79580,5,4
392,296,79955,6,0,B|440:296,2,35
384,224,80330,2,0,B|344:224,2,35
376,152,80705,2,0,B|424:152,2,35
304,152,81080,5,4
161,152,81455,6,0,B|105:152,2,35
153,224,81830,2,0,B|209:224,2,35
137,296,82205,2,0,B|97:296,2,35
209,296,82580,5,4
256,152,82955,6,0,B|256:112,2,35
256,224,83330,2,0,B|256:184,2,35
256,296,83705,2,0,B|256:344,4,35,0|0|0|0|4
384,240,84455,5,0
384,96,84830,1,0
240,96,85205,2,0,B|152:96,1,70
32,96,85767,1,0
32,232,86142,2,0,B|184:232,1,140
312,232,86892,6,8,B|256:312,1,70
400,288,87455,6,0,C|448:224,1,70,0|0
442,91,88017,1,0
304,88,88392,1,0
160,88,88767,2,0,B|72:200,2,140
9,327,90455,6,0,B|97:327,1,70
80,256,90830,1,8
150,257,91017,1,0
151,110,91392,1,0
224,110,91580,1,8
297,111,91767,1,0
299,257,92142,1,0
371,257,92330,1,8
443,257,92517,1,0
438,46,93080,6,0,B|270:46,1,140,4|8
298,185,93830,2,0,B|146:185,1,140,4|8
158,185,94392,1,8
18,183,94767,1,8
109,288,95142,5,2
248,288,95517,1,2
387,287,95892,1,2
387,287,96080,1,2
304,160,96455,5,0
160,160,96830,1,8
240,48,97205,1,0
96,48,97580,1,8
16,160,97955,1,0
16,160,98142,2,0,B|16:304,1,140
144,352,98892,6,8,C|224:352,1,70
194,208,99455,5,0
352,208,99830,1,8
272,320,100205,1,0
416,320,100580,1,8
488,208,100955,1,0
488,208,101142,2,0,B|488:64,1,140
348,61,101892,6,8,C|276:61,1,70
162,140,102455,5,0
50,224,102830,1,0
48,368,103205,1,0
48,368,103392,2,0,B|264:368,1,210
256,368,104142,1,0
256,224,104517,1,0
256,80,104892,6,8,B|176:80,1,70
176,224,105455,6,0,B|64:226,1,105
71,224,105830,2,0,B|72:104,1,105
71,119,106205,2,0,B|184:120,1,105
175,119,106580,2,0,B|176:8,1,105
175,14,106955,2,0,B|272:16,1,70
384,16,107517,5,0
216,40,114455,5,0
168,88,114642,1,0
120,136,114830,1,8
24,232,115205,1,0
72,280,115392,1,0
125,325,115580,1,8
232,232,115955,5,0
282,183,116142,1,0
335,137,116330,2,0,B|391:185,1,70,8|0
444,224,116705,1,0
491,173,116892,2,0,B|435:125,1,70,0|8
312,64,117455,6,0,B|232:64,1,70
242,64,117830,2,0,B|168:64,1,70,8|0
172,64,118205,2,0,B|88:64,2,70,0|0|8
144,200,118955,5,0
207,324,119142,1,0
275,201,119330,1,8
339,324,119517,1,0
407,201,119705,1,4
152,88,132455,5,0
224,88,132642,1,0
296,88,132830,1,8
296,224,133205,1,0
224,224,133392,1,0
152,224,133580,1,8
152,360,133955,5,0
224,360,134142,1,0
296,360,134330,2,0,B|360:312,1,70,8|0
351,247,134705,1,0
281,245,134892,2,0,B|217:293,1,70,0|8
80,288,135455,5,0
80,216,135642,1,0
80,144,135830,2,0,B|152:144,2,70,8|0|0
8,144,136392,1,0
8,216,136580,1,8
144,216,136955,5,0
200,88,137142,1,0
248,216,137330,1,8
304,88,137517,1,0
356,218,137705,1,4
456,40,138455,5,0
456,112,138642,1,0
456,184,138830,1,8
312,184,139205,1,0
312,112,139392,1,0
312,40,139580,1,8
168,40,139955,6,0,C|72:40,1,70
96,112,140330,1,8
168,112,140517,1,0
168,184,140705,2,0,B|80:184,1,70
24,184,141080,1,8
112,296,141455,6,0,B|200:296,1,70
182,296,141830,2,0,B|256:296,1,70,8|0
252,296,142205,2,0,B|328:296,2,70,0|0|8
336,184,142955,5,0
272,56,143142,1,0
208,184,143330,1,8
144,56,143517,1,0
80,184,143705,1,4
256,192,144455,12,4,145955
