osu file format v5

[General]
AudioFilename: ultraviolet.mp3
AudioLeadIn: 0
PreviewTime: -1
Countdown: 1
SampleSet: None
StackLeniency: 0.7
Mode: 0
LetterboxInBreaks: 1

[Editor]
DistanceSpacing: 0.800000011920929
BeatDivisor: 1
GridSize: 8

[Metadata]
Title:Ultra Violet
Artist:Becca
Creator:ElfoVampiro
Version:Normal
Source:
Tags:

[Difficulty]
HPDrainRate:6
CircleSize:6
OverallDifficulty:6
SliderMultiplier:1.4
SliderTickRate:1

[Events]
//Background and Video events
Video,0,"Ultraviolet Code 044 Opening Video.flv"
//Break Periods
//Storyboard Layer 0 (Background)
//Storyboard Layer 1 (Fail)
//Storyboard Layer 2 (Pass)
//Storyboard Layer 3 (Foreground)
//Storyboard Sound Samples
//Background Colour Transformations
3,100,163,162,255

[TimingPoints]
0,461.538461538462,4,0,0,31,1,0

[HitObjects]
80,208,10645,1,0
168,232,11107,1,0
208,144,11568,1,0
240,224,12030,1,0
320,176,12491,1,0
200,168,12953,1,0
120,144,13414,1,0
216,152,13876,1,0
320,120,14337,1,0
224,224,14799,1,0
368,96,15722,1,0
296,144,16184,1,0
216,152,16645,1,0
176,216,17107,1,0
256,200,17568,1,0
296,144,18030,1,0
344,208,18491,1,0
272,200,18953,1,0
192,184,19414,1,0
176,120,19876,1,0
232,128,20337,1,0
272,184,20799,1,0
352,176,21260,1,0
288,144,21722,1,0
208,144,22184,1,0
152,192,22645,1,0
224,232,23107,1,0
296,200,23568,1,0
368,176,24030,1,0
296,136,24491,1,0
224,144,24953,1,0
160,176,25414,1,0
136,240,25876,1,0
208,248,26337,1,0
288,232,26799,1,0
352,176,27260,1,0
288,128,27722,1,0
208,120,28184,1,0
144,144,28645,1,0
104,200,29107,1,0
144,256,29568,1,0
224,264,30030,1,0
304,232,30491,1,0
320,152,30953,1,0
248,104,31414,1,0
168,104,31876,1,0
56,240,32799,1,0
128,240,33260,1,0
192,248,33722,1,0
112,248,34184,1,0
152,184,34645,1,0
224,192,35107,1,0
288,168,35568,1,0
320,240,36030,1,0
368,304,36491,1,0
448,320,36953,1,0
400,264,37414,1,0
328,208,37876,1,0
152,152,38799,1,0
232,152,39260,1,0
328,152,39722,1,0
392,88,40184,1,0
312,96,40645,1,0
144,136,41568,1,0
216,184,42030,1,0
280,232,42491,1,0
224,184,42953,1,0
312,168,43414,1,0
232,168,43876,1,0
216,176,44337,1,0
368,128,44799,1,0
72,160,46184,1,0
136,160,46645,1,0
216,184,47107,1,0
232,256,47568,1,0
160,248,48030,1,0
128,200,48491,1,0
176,152,48953,1,0
248,160,49414,1,0
264,248,49876,1,0
192,208,50337,1,0
184,128,50799,1,0
272,152,51260,1,0
328,200,51722,1,0
256,216,52184,1,0
168,192,52645,1,0
328,104,53568,1,0
264,120,54030,1,0
184,136,54491,1,0
216,216,54953,1,0
296,192,55414,1,0
416,152,55876,1,0
240,144,56799,1,0
328,128,57260,1,0
248,112,57722,1,0
168,120,58184,1,0
128,176,58645,1,0
184,208,59107,1,0
264,208,59568,1,0
320,160,60030,1,0
248,128,60491,1,0
160,152,60953,1,0
152,232,61414,1,0
232,232,61876,1,0
312,216,62337,1,0
352,128,62799,1,0
248,96,63260,1,0
160,112,63722,1,0
112,184,64184,1,0
304,200,65107,1,0
232,176,65568,1,0
248,88,66030,1,0
320,120,66491,1,0
320,208,66953,1,0
240,208,67414,1,0
168,176,67876,1,0
224,120,68337,1,0
152,296,69260,1,0
216,232,69722,1,0
280,176,70184,1,0
320,48,70645,1,0
200,184,72953,1,0
272,216,73414,1,0
344,224,73876,1,0
256,136,74337,1,0
104,232,75260,1,0
168,200,75722,1,0
240,152,76184,1,0
240,152,76645,1,0
144,144,77107,1,0
216,136,77568,1,0
328,152,78030,1,0
48,240,79414,1,0
128,224,79876,1,0
208,208,80337,1,0
248,24,81260,1,0
248,96,81722,1,0
256,176,82184,1,0
264,248,82645,1,0
192,248,83107,1,0
136,192,83568,1,0
216,192,84030,1,0
296,192,84491,1,0
360,240,84953,1,0
272,240,85414,1,0
184,232,85876,1,0
192,152,86337,1,0
264,168,86799,1,0
352,168,87260,1,0
264,152,87722,1,0
112,336,88645,1,0
