osu file format v13

[General]
AudioFilename: O2jam - V3 - O2 Version.mp3
AudioLeadIn: 0
PreviewTime: 27351
Countdown: 0
SampleSet: Soft
StackLeniency: 0.7
Mode: 0
LetterboxInBreaks: 0
WidescreenStoryboard: 0

[Editor]
DistanceSpacing: 0.7
BeatDivisor: 4
GridSize: 8
TimelineZoom: 2.4

[Metadata]
Title:V3 (O2 Version)
TitleUnicode:V3 (O2 Version)
Artist:BeautifulDay
ArtistUnicode:BeautifulDay
Creator:lkx_Shore
Version:not good
Source:
Tags:Short(?)ver not full ign nao ni zen me kan. enjoy hefan
BeatmapID:455304
BeatmapSetID:191245

[Difficulty]
HPDrainRate:7
CircleSize:4.5
OverallDifficulty:8
ApproachRate:8.5
SliderMultiplier:1.6
SliderTickRate:1

[Events]
//Background and Video events
0,0,"20050228134819v3.jpg",0,0
//Break Periods
//Storyboard Layer 0 (Background)
//Storyboard Layer 1 (Fail)
//Storyboard Layer 2 (Pass)
//Storyboard Layer 3 (Foreground)
//Storyboard Sound Samples
//Background Colour Transformations
3,100,163,162,255

[TimingPoints]
949,750,4,2,1,70,1,0
949,-200,4,2,1,70,0,0
1136,-200,4,2,1,5,0,0
2261,-200,4,2,1,70,0,0
2636,-200,4,2,1,5,0,0
3738,714.285714285714,4,2,1,70,1,0
3916,-200,4,2,1,70,0,0
4095,-100,4,2,1,5,0,0
4867,740.740740740741,4,2,1,70,1,0
4867,-100,4,2,1,70,0,0
6904,759.493670886076,4,2,1,70,1,0
7283,-100,4,2,1,60,0,0
7663,-100,4,2,1,50,0,0
8043,-100,4,2,1,70,0,0
8422,740.740740740741,4,2,1,70,1,0
8422,-100,4,2,1,60,0,0
8792,-100,4,2,1,50,0,0
9162,-100,4,2,1,60,0,0
9533,-100,4,2,1,70,0,0
10273,750,4,2,1,70,1,0
10273,-100,4,2,1,60,0,0
10648,-100,4,2,1,50,0,0
11023,-100,4,2,1,70,0,0
11402,750,4,2,1,70,1,0
12155,750,4,2,1,70,1,0
17405,-100,4,2,1,50,0,0
17780,-100,4,2,1,70,0,0
18530,810.810810810811,4,2,1,70,1,0
19681,750,4,2,1,70,1,0
22306,-100,4,2,1,40,0,0
22681,-100,4,2,1,50,0,0
23056,-100,4,2,1,60,0,0
23421,750,4,2,1,70,1,0
23421,-100,4,2,1,70,0,0
23796,-100,4,2,1,80,0,0
24171,-100,4,2,1,90,0,0
24921,-100,4,2,1,100,0,0
26414,375,4,2,1,70,1,0
27914,-100,4,2,1,70,0,1
28007,-100,4,2,1,70,0,0
38132,-100,4,2,1,5,0,0
38226,-100,4,2,1,70,0,0
39164,-66.6666666666667,4,2,1,70,0,0
39914,-100,4,2,1,70,0,1
40007,-100,4,2,1,70,0,0
42914,-100,4,2,1,80,0,0
43664,-100,4,2,1,90,0,0
44507,-100,4,2,1,70,0,0
45539,-133.333333333333,4,2,1,70,0,0
45914,-100,4,2,1,70,0,0
48164,-133.333333333333,4,2,1,70,0,0
48914,-66.6666666666667,4,2,1,70,0,0
50414,-100,4,2,1,70,0,0
51914,-100,4,2,1,70,0,1
52007,-100,4,2,1,70,0,0
54914,-100,4,2,1,80,0,0
55664,-100,4,2,1,90,0,0
56414,-100,4,2,1,70,0,0
81539,-66.6666666666667,4,2,1,70,0,0
81914,-100,4,2,1,70,0,0
121664,375,4,2,1,70,1,0
122601,-100,4,2,1,50,0,0
122789,-133.333333333333,4,2,1,50,0,0
123164,-100,4,2,1,70,0,1
123257,-100,4,2,1,70,0,0
126914,-66.6666666666667,4,2,1,70,0,0
127664,-100,4,2,1,70,0,0
133664,-133.333333333333,4,2,1,70,0,0
134039,-100,4,2,1,70,0,0
134414,-66.6666666666667,4,2,1,70,0,0
135163,-100,4,2,1,70,0,0
138914,-66.6666666666667,4,2,1,90,0,0
139664,-100,4,2,1,70,0,0
146039,-100,4,1,1,70,0,0
147164,-100,4,2,1,70,0,0
149039,-100,4,1,1,70,0,0
150164,-100,4,2,1,70,0,0
157664,750,4,2,1,70,1,0
157664,-200,4,2,1,70,0,0

[HitObjects]
104,280,949,6,0,P|160:272|224:304,1,120,2|0,0:0|0:0,0:0:0:0:
304,344,2261,5,0,0:0:0:0:
304,344,2449,2,0,L|400:264,1,120,2|0,0:0|0:0,0:0:0:0:
464,200,3738,5,2,0:0:0:0:
464,200,3916,2,0,P|420:196|384:160,1,90,2|0,0:0|0:0,0:0:0:0:
392,88,4867,1,2,0:0:0:0:
456,48,5052,1,0,0:0:0:0:
456,48,5237,5,0,0:0:0:0:
480,184,5422,1,2,0:0:0:0:
376,272,5607,1,0,0:0:0:0:
400,136,5792,1,2,0:0:0:0:
400,136,5978,1,2,0:0:0:0:
256,64,6163,1,2,0:0:0:0:
184,208,6348,1,0,0:0:0:0:
272,160,6533,1,2,0:0:0:0:
160,56,6718,1,2,0:0:0:0:
184,208,6904,5,4,0:0:0:0:
272,264,7283,1,0,0:0:0:0:
376,232,7663,1,0,0:0:0:0:
464,288,8043,1,2,0:0:0:0:
464,288,8422,5,2,0:0:0:0:
360,328,8792,1,0,0:0:0:0:
272,264,9162,1,0,0:0:0:0:
168,296,9533,1,2,0:0:0:0:
168,296,9903,5,2,0:0:0:0:
96,216,10273,1,0,0:0:0:0:
128,120,10648,1,0,0:0:0:0:
24,136,11023,1,2,0:0:0:0:
24,136,11398,5,2,0:0:0:0:
96,216,11589,1,0,0:0:0:0:
128,120,11777,1,2,0:0:0:0:
336,248,12155,5,2,0:0:0:0:
296,280,12342,1,0,0:0:0:0:
248,288,12530,1,0,0:0:0:0:
200,272,12717,1,0,0:0:0:0:
168,232,12905,5,4,0:0:0:0:
168,232,13655,1,2,0:0:0:0:
352,64,14030,1,0,0:0:0:0:
416,304,14405,6,0,L|376:328,1,40,2|0,0:0|0:0,0:0:0:0:
312,288,14780,1,2,0:0:0:0:
312,288,14967,1,2,0:0:0:0:
336,200,15155,2,0,L|376:224,1,40,2|0,0:0|0:0,0:0:0:0:
440,184,15530,1,2,0:0:0:0:
440,184,15717,1,2,0:0:0:0:
280,120,15905,5,4,0:0:0:0:
280,120,17030,1,2,0:0:0:0:
240,160,17217,1,0,0:0:0:0:
192,152,17405,1,4,0:0:0:0:
112,88,17780,1,0,0:0:0:0:
168,176,18155,1,0,0:0:0:0:
144,280,18530,5,2,0:0:0:0:
144,280,18732,1,0,0:0:0:0:
144,280,18935,1,4,0:0:0:0:
40,232,19681,5,2,0:0:0:0:
128,176,20056,1,0,0:0:0:0:
208,240,20431,1,2,0:0:0:0:
400,152,21368,1,2,0:0:0:0:
256,32,21931,5,4,0:0:0:0:
224,104,22118,1,0,0:0:0:0:
152,88,22306,1,2,0:0:0:0:
152,88,22493,1,2,0:0:0:0:
48,168,22681,5,2,0:0:0:0:
120,200,22868,1,0,0:0:0:0:
104,272,23056,1,2,0:0:0:0:
104,272,23243,1,2,0:0:0:0:
224,304,23421,5,2,0:0:0:0:
296,272,23608,1,0,0:0:0:0:
344,328,23796,1,2,0:0:0:0:
416,248,23983,1,2,0:0:0:0:
480,336,24171,5,2,0:0:0:0:
480,336,24358,1,0,0:0:0:0:
416,248,24546,1,2,0:0:0:0:
488,176,24733,1,2,0:0:0:0:
480,336,24921,1,4,0:0:0:0:
256,192,25108,12,0,27351,0:0:0:0:
448,96,27539,5,2,0:0:0:0:
440,136,27632,1,2,0:0:0:0:
432,176,27726,1,2,0:0:0:0:
424,216,27820,1,2,0:0:0:0:
416,256,27914,5,6,1:2:0:0:
264,208,28101,1,0,0:0:0:0:
304,200,28195,1,0,0:0:0:0:
336,216,28289,1,0,1:0:0:0:
416,256,28476,1,0,0:0:0:0:
192,144,28664,1,2,0:0:0:0:
224,320,28945,1,2,0:0:0:0:
208,304,29039,1,0,1:0:0:0:
344,368,29226,2,0,P|400:352|424:312,1,80,2|0,0:0|0:0,0:0:0:0:
418,107,29601,5,0,0:0:0:0:
400,144,29695,1,0,0:0:0:0:
407,179,29789,1,0,1:0:0:0:
480,240,29976,1,0,0:0:0:0:
328,56,30164,1,2,0:0:0:0:
336,232,30445,1,0,0:0:0:0:
344,216,30539,1,0,1:0:0:0:
216,208,30726,2,0,P|176:216|144:240,1,80,2|0,0:0|0:0,0:0:0:0:
224,312,31101,5,0,0:0:0:0:
264,304,31195,1,0,0:0:0:0:
304,296,31289,1,0,1:0:0:0:
424,344,31476,1,0,0:0:0:0:
456,224,31664,1,2,0:0:0:0:
368,64,31945,1,2,0:0:0:0:
392,72,32039,1,0,1:0:0:0:
264,120,32226,2,0,P|216:120|184:104,1,80,2|4,0:0|0:0,0:0:0:0:
48,56,32695,5,0,0:0:0:0:
48,56,32789,2,0,L|56:144,1,80,4|0,1:2|0:0,0:0:0:0:
159,295,33164,2,0,L|152:216,1,80,4|0,1:2|0:0,0:0:0:0:
264,120,33539,1,2,1:2:0:0:
320,136,33632,1,2,1:2:0:0:
344,192,33726,1,2,1:2:0:0:
320,248,33820,1,2,1:2:0:0:
352,296,33914,6,0,P|392:312|432:304,1,80,4|2,1:2|0:0,0:0:0:0:
496,240,34195,1,2,0:0:0:0:
488,224,34289,2,0,P|448:208|408:216,1,80,0|0,1:0|0:0,0:0:0:0:
256,344,34664,1,2,0:0:0:0:
64,224,34945,1,2,0:0:0:0:
64,224,35039,2,0,B|80:208|80:208|104:216|104:216|120:200|120:200|144:208|144:208|160:192|160:192|184:200|184:200|200:184,1,160,0|0,1:0|0:0,0:0:0:0:
328,96,35601,5,2,0:0:0:0:
360,136,35695,1,0,0:0:0:0:
352,176,35789,2,0,P|320:200|280:200,1,80,0|0,1:0|0:0,0:0:0:0:
112,152,36164,1,2,0:0:0:0:
200,304,36445,1,2,0:0:0:0:
200,304,36539,2,0,B|224:296|224:296|240:312|240:312|264:304|264:304|288:320|288:320|312:312|312:312|328:328|328:328|352:320,1,160,0|0,1:0|0:0,0:0:0:0:
496,216,37101,1,0,0:0:0:0:
464,184,37195,1,0,0:0:0:0:
432,144,37289,2,0,L|376:80,1,80,0|0,1:0|0:0,0:0:0:0:
272,40,37664,1,2,0:0:0:0:
168,184,37945,1,2,0:0:0:0:
152,192,38039,2,0,L|96:184,1,40,0|0,1:0|0:0,0:0:0:0:
64,272,38226,1,0,0:0:0:0:
160,272,38414,6,0,P|216:288|248:272,1,80,4|0,0:2|0:0,0:0:0:0:
344,192,38695,2,0,L|332:276,1,80,2|0,0:2|0:0,0:0:0:0:
432,320,38976,1,2,0:0:0:0:
432,320,39164,6,0,L|448:200,1,120.000004577637,2|2,1:2|1:0,0:0:0:0:
472,32,39539,1,2,1:2:0:0:
344,160,39726,1,2,1:1:0:0:
432,320,39914,6,0,P|472:288|472:184,1,160,4|0,0:0|1:0,0:0:0:0:
344,160,40476,1,2,1:0:0:0:
232,224,40664,2,2,P|192:192|192:88,1,160,2|0,1:2|1:0,1:0:0:0:
344,160,41226,1,2,1:0:0:0:
344,288,41414,6,0,L|192:352,1,160,2|0,1:2|1:0,0:0:0:0:
40,240,41976,1,2,1:0:0:0:
80,256,42070,1,0,1:0:0:0:
120,272,42164,1,2,1:1:0:0:
240,352,42351,1,2,0:0:0:0:
264,192,42539,1,0,1:0:0:0:
208,264,42726,1,2,1:1:0:0:
344,288,42914,5,4,0:0:0:0:
472,232,43101,1,2,1:0:0:0:
352,176,43289,1,4,1:2:0:0:
464,352,43476,1,2,1:0:0:0:
464,48,43664,1,2,1:1:0:0:
48,336,44039,1,2,1:1:0:0:
464,48,44414,6,0,B|384:16|344:128|232:48,1,240,2|0,1:1|0:0,0:0:0:0:
128,40,45164,1,2,0:0:0:0:
80,120,45351,1,0,0:0:0:0:
136,200,45539,2,0,P|156:171|160:144,1,60.0000022888184,0|2,1:2|1:0,0:0:0:0:
264,96,45914,6,0,P|248:184|288:240,1,160,4|0,0:0|1:0,0:0:0:0:
472,208,46476,1,0,0:0:0:0:
488,312,46664,2,0,P|432:344|336:320,1,160,2|0,1:0|1:0,0:0:0:0:
96,296,47226,1,2,1:0:0:0:
192,344,47414,6,0,P|240:296|232:208,1,160,4|0,0:0|1:0,0:0:0:0:
176,104,47976,1,0,0:0:0:0:
360,296,48164,1,2,1:0:0:0:
360,296,48539,2,0,L|400:352,1,60.0000022888184,0|2,1:0|1:0,0:0:0:0:
440,224,48914,6,0,P|472:144|384:32,1,240.000009155274,4|0,1:2|1:0,0:0:0:0:
256,192,49476,1,2,1:0:0:0:
126,351,49664,2,0,P|44:271|72:160,1,240.000009155274,4|0,1:2|1:0,0:0:0:0:
256,40,50226,1,2,1:0:0:0:
384,352,50414,6,0,P|424:328|440:272,1,80,4|0,0:0|0:0,0:0:0:0:
216,288,50789,2,0,P|216:334|257:376,1,80,4|0,1:2|0:0,0:0:0:0:
344,120,51164,2,0,P|303:97|246:111,1,80,4|2,0:0|0:1,0:0:0:0:
464,280,51539,1,0,1:0:0:0:
464,280,51726,1,2,1:0:0:0:
488,136,51914,6,0,P|455:61|384:32,1,160,4|0,0:0|1:0,0:0:0:0:
240,128,52476,1,2,1:0:0:0:
272,224,52664,2,0,P|344:240|408:184,1,160,2|0,1:2|1:0,0:0:0:0:
200,56,53226,1,2,1:0:0:0:
192,160,53414,6,0,L|176:352,1,160,4|0,0:0|1:0,0:0:0:0:
360,312,53976,1,2,1:0:0:0:
328,280,54070,1,2,0:0:0:0:
296,248,54164,1,2,1:0:0:0:
432,192,54351,1,2,0:0:0:0:
392,336,54539,1,0,1:0:0:0:
328,152,54726,1,2,1:0:0:0:
408,112,54914,5,4,0:0:0:0:
392,336,55101,1,2,1:0:0:0:
152,224,55289,1,4,0:0:0:0:
296,248,55476,1,2,1:0:0:0:
48,336,55664,1,2,1:0:0:0:
464,48,56039,1,2,1:0:0:0:
48,336,56414,5,2,1:0:0:0:
64,352,56507,1,2,0:0:0:0:
88,360,56601,1,2,0:0:0:0:
112,360,56695,1,2,0:0:0:0:
136,352,56789,1,2,1:2:0:0:
160,352,56883,1,2,0:0:0:0:
184,360,56977,1,2,0:0:0:0:
200,376,57070,1,2,0:0:0:0:
224,368,57164,6,0,P|256:352|344:360,1,120,0|0,1:0|0:0,0:0:0:0:
416,344,57539,1,0,1:0:0:0:
416,344,57726,1,2,1:0:0:0:
416,344,57914,6,0,B|416:320|416:320|432:304|432:304|432:280|432:280|448:264|448:264|448:240|448:240|464:224|464:224|464:200|464:200,1,160,4|0,1:2|1:0,0:0:0:0:
304,40,58476,1,0,0:0:0:0:
304,40,58664,2,0,B|304:64|304:64|288:80|288:80|288:104|288:104|272:120|272:120|272:144|272:144|256:160|256:160|256:184|256:184,1,160,2|0,1:0|1:0,0:0:0:0:
207,314,59226,1,2,1:0:0:0:
104,328,59414,6,0,P|54:298|40:200,1,160,4|0,1:2|1:0,0:0:0:0:
112,40,59976,1,0,0:0:0:0:
174,122,60164,2,0,P|230:136|312:80,1,160,2|0,1:0|1:0,0:0:0:0:
424,48,60726,1,2,1:0:0:0:
496,128,60914,6,0,P|464:152|424:160,1,80,4|0,0:0|0:0,0:0:0:0:
232,200,61289,1,0,1:0:0:0:
152,264,61476,1,2,1:0:0:0:
56,224,61664,2,0,P|88:184|120:176,1,80,4|0,0:0|0:0,0:0:0:0:
480,304,62039,1,0,1:0:0:0:
384,344,62226,1,2,1:0:0:0:
296,288,62414,6,0,P|300:264|312:248,3,40,4|0|0|0,0:0|0:0|0:0|0:0,0:0:0:0:
344,136,62789,2,0,P|340:112|328:96,3,40,4|0|0|0,1:2|0:0|0:0|0:0,0:0:0:0:
212,96,63164,2,0,P|168:96|136:112,1,80,4|2,1:2|0:0,0:0:0:0:
96,208,63539,1,0,1:0:0:0:
160,288,63726,1,2,0:0:0:0:
264,168,63914,5,4,0:0:0:0:
368,112,64101,1,0,0:0:0:0:
344,192,64289,1,2,1:2:0:0:
288,88,64476,1,2,0:0:0:0:
376,128,64664,1,2,0:0:0:0:
352,208,64851,1,2,0:0:0:0:
272,184,65039,1,2,1:2:0:0:
296,104,65226,1,0,0:0:0:0:
432,232,65414,5,4,0:0:0:0:
344,336,65601,1,0,0:0:0:0:
352,352,65789,1,0,1:0:0:0:
248,288,65976,1,2,0:0:0:0:
240,272,66164,1,2,0:0:0:0:
88,312,66351,1,2,0:0:0:0:
40,160,66539,1,2,1:2:0:0:
192,120,66726,1,0,0:0:0:0:
368,208,66914,5,4,0:0:0:0:
432,312,67101,1,0,0:0:0:0:
440,120,67289,1,0,1:0:0:0:
376,224,67476,1,2,0:0:0:0:
384,32,67664,1,2,0:0:0:0:
448,136,67851,1,2,0:0:0:0:
384,240,68039,1,2,1:2:0:0:
256,144,68226,1,2,0:0:0:0:
256,144,68414,6,0,P|224:136|192:144,1,40,4|0,0:0|0:0,0:0:0:0:
128,200,68601,2,0,P|120:232|128:264,1,40,4|0,0:0|0:0,0:0:0:0:
192,312,68789,1,2,1:2:0:0:
192,312,68976,2,0,L|288:296,1,80,4|2,0:0|0:0,0:0:0:0:
280,304,69257,1,2,0:0:0:0:
288,312,69351,1,2,0:0:0:0:
296,320,69445,1,2,0:0:0:0:
304,328,69539,1,2,0:0:0:0:
312,336,69632,1,2,0:0:0:0:
320,344,69726,1,2,0:0:0:0:
328,352,69820,1,2,0:0:0:0:
336,360,69914,6,0,P|368:328|400:320,1,80,4|0,0:0|0:0,0:0:0:0:
480,336,70289,1,2,1:0:0:0:
336,360,70476,1,2,1:0:0:0:
248,248,70664,2,0,P|208:225|175:225,1,80,2|0,1:2|0:0,0:0:0:0:
102,262,71039,1,2,1:0:0:0:
248,248,71226,1,2,1:0:0:0:
312,160,71414,6,0,P|351:182|384:182,1,80,4|0,1:2|0:0,0:0:0:0:
458,146,71789,1,2,1:0:0:0:
312,160,71976,1,2,1:0:0:0:
192,136,72164,2,0,P|148:147|125:171,1,80,2|0,1:2|0:0,0:0:0:0:
98,249,72539,1,2,1:0:0:0:
192,136,72726,1,2,1:0:0:0:
256,312,72914,5,4,1:2:0:0:
256,312,73101,1,0,0:0:0:0:
360,256,73289,1,2,1:0:0:0:
456,328,73476,1,2,1:0:0:0:
256,312,73664,1,2,1:2:0:0:
240,208,73851,1,0,0:0:0:0:
328,152,74039,1,2,1:0:0:0:
344,256,74226,1,2,1:0:0:0:
256,312,74414,5,2,0:0:0:0:
232,320,74507,1,2,0:0:0:0:
208,320,74601,1,2,0:0:0:0:
184,312,74695,1,2,0:0:0:0:
168,296,74789,5,0,1:0:0:0:
192,304,74882,1,0,0:0:0:0:
216,304,74976,1,0,0:0:0:0:
240,296,75070,1,0,0:0:0:0:
256,280,75164,1,0,0:0:0:0:
264,256,75257,1,0,0:0:0:0:
264,232,75351,1,0,0:0:0:0:
256,208,75445,1,0,0:0:0:0:
240,184,75539,1,0,1:0:0:0:
224,168,75632,1,0,0:0:0:0:
200,160,75726,1,0,0:0:0:0:
176,160,75820,1,0,0:0:0:0:
152,168,75914,5,4,0:0:0:0:
80,264,76101,1,2,0:0:0:0:
80,264,76289,1,2,1:2:0:0:
168,344,76476,5,4,0:0:0:0:
80,264,76664,1,2,0:0:0:0:
80,264,76851,1,2,0:0:0:0:
256,248,77039,5,4,1:2:0:0:
80,264,77226,1,2,0:0:0:0:
80,264,77414,1,2,0:0:0:0:
336,168,77601,5,4,0:0:0:0:
80,264,77789,1,2,1:2:0:0:
200,368,77976,1,4,1:2:0:0:
184,312,78070,1,0,1:0:0:0:
168,256,78164,1,0,1:0:0:0:
216,136,78351,1,0,1:0:0:0:
408,312,78539,1,4,0:0:0:0:
304,264,78726,1,2,0:0:0:0:
424,160,78914,5,4,0:0:0:0:
304,264,79101,1,2,0:0:0:0:
304,264,79289,1,2,1:2:0:0:
296,80,79476,5,4,0:0:0:0:
304,264,79664,1,2,0:0:0:0:
304,264,79851,1,2,0:0:0:0:
152,88,80039,5,4,1:2:0:0:
304,264,80226,1,0,0:0:0:0:
451,339,80414,6,0,P|414:353|376:344,1,80,2|0,0:0|0:0,0:0:0:0:
360,192,80789,1,0,1:0:0:0:
360,192,80976,1,0,1:0:0:0:
309,163,81070,1,0,1:0:0:0:
258,180,81164,1,0,1:0:0:0:
208,336,81351,1,0,1:0:0:0:
392,344,81539,6,0,P|448:320|472:264,1,120.000004577637,4|0,1:2|0:0,0:0:0:0:
448,80,81914,5,4,0:0:0:0:
424,88,82007,1,0,0:0:0:0:
400,96,82101,1,2,0:0:0:0:
376,104,82195,1,0,0:0:0:0:
336,88,82289,5,0,1:0:0:0:
312,96,82382,1,0,0:0:0:0:
288,104,82476,1,2,0:0:0:0:
264,112,82570,1,0,0:0:0:0:
224,104,82664,5,0,0:0:0:0:
200,112,82757,1,0,0:0:0:0:
176,120,82851,1,2,0:0:0:0:
152,128,82945,1,0,0:0:0:0:
112,128,83039,5,0,1:0:0:0:
88,136,83132,1,0,0:0:0:0:
64,144,83226,1,2,0:0:0:0:
40,152,83320,1,2,0:0:0:0:
32,192,83414,6,0,L|32:240,3,40,0|0|2|0,0:0|0:0|0:0|0:0,0:0:0:0:
136,288,83789,6,0,L|136:248,3,40,0|0|2|0,1:0|0:0|0:0|0:0,0:0:0:0:
240,192,84164,6,0,L|240:232,3,40,0|0|2|0,0:0|0:0|0:0|0:0,0:0:0:0:
360,288,84539,6,0,L|360:248,3,40,0|0|2|2,1:0|0:0|0:0|0:0,0:0:0:0:
440,232,84914,5,0,0:0:0:0:
440,232,85007,1,0,0:0:0:0:
440,232,85101,2,0,L|464:192,1,40,2|0,0:0|0:0,0:0:0:0:
368,104,85289,5,0,1:0:0:0:
368,104,85382,1,0,0:0:0:0:
368,104,85476,2,0,L|390:144,1,40,2|0,0:0|0:0,0:0:0:0:
312,264,85664,5,0,0:0:0:0:
312,264,85757,1,0,0:0:0:0:
312,264,85851,2,0,L|334:223,1,40,2|0,0:0|0:0,0:0:0:0:
240,128,86039,5,0,1:0:0:0:
240,128,86132,1,0,0:0:0:0:
240,128,86226,2,0,L|262:168,1,40,2|2,0:0|0:0,0:0:0:0:
208,256,86414,5,0,0:0:0:0:
216,280,86507,1,0,0:0:0:0:
224,304,86601,2,0,L|240:352,1,40,2|0,0:0|0:0,0:0:0:0:
96,344,86789,5,0,1:0:0:0:
101,319,86882,1,0,0:0:0:0:
106,294,86976,2,0,L|116:244,1,40,2|0,0:0|0:0,0:0:0:0:
74,94,87164,5,0,0:0:0:0:
69,119,87257,1,0,0:0:0:0:
64,144,87351,2,0,L|53:193,1,40,2|0,0:0|0:0,0:0:0:0:
168,176,87539,5,0,1:0:0:0:
193,171,87632,1,0,0:0:0:0:
218,166,87726,2,0,L|267:155,1,40,2|2,1:2|0:0,0:0:0:0:
400,176,87914,5,0,0:0:0:0:
392,200,88007,1,0,0:0:0:0:
392,224,88101,2,0,P|400:248|416:272,1,40,2|0,0:0|0:0,0:0:0:0:
292,271,88289,5,0,1:0:0:0:
294,296,88382,1,0,0:0:0:0:
288,320,88476,2,0,P|274:341|252:360,1,40,2|0,0:0|0:0,0:0:0:0:
153,300,88664,5,0,0:0:0:0:
128,298,88757,1,0,0:0:0:0:
104,304,88851,2,0,P|82:317|63:339,1,40,2|0,0:0|0:0,0:0:0:0:
48,208,89039,5,0,1:0:0:0:
46,183,89132,1,0,0:0:0:0:
52,159,89226,2,0,P|65:137|87:118,1,40,2|2,0:0|0:0,0:0:0:0:
176,88,89414,5,0,0:0:0:0:
196,108,89507,1,0,0:0:0:0:
224,112,89601,1,2,0:0:0:0:
248,100,89695,1,0,0:0:0:0:
276,96,89789,1,0,1:0:0:0:
304,104,89882,1,0,0:0:0:0:
324,124,89976,1,2,0:0:0:0:
336,148,90070,1,0,0:0:0:0:
336,176,90164,5,0,0:0:0:0:
344,200,90257,1,0,0:0:0:0:
364,220,90351,1,2,0:0:0:0:
388,236,90445,1,0,0:0:0:0:
416,240,90539,1,0,1:0:0:0:
444,240,90632,1,0,0:0:0:0:
468,224,90726,1,2,0:0:0:0:
480,196,90820,1,2,0:0:0:0:
480,168,90914,5,0,0:0:0:0:
468,144,91007,1,0,0:0:0:0:
448,124,91101,1,2,0:0:0:0:
424,108,91195,1,0,0:0:0:0:
396,100,91289,1,0,1:0:0:0:
368,104,91382,1,0,0:0:0:0:
348,124,91476,1,2,0:0:0:0:
332,148,91570,1,0,0:0:0:0:
320,172,91664,5,0,0:0:0:0:
304,196,91757,1,0,0:0:0:0:
280,208,91851,1,2,0:0:0:0:
252,208,91945,1,0,0:0:0:0:
228,196,92039,1,0,1:0:0:0:
212,172,92132,1,0,0:0:0:0:
212,144,92226,1,2,0:0:0:0:
232,124,92320,1,0,0:0:0:0:
260,116,92414,5,0,1:0:0:0:
288,124,92507,1,0,0:0:0:0:
308,144,92601,1,2,1:2:0:0:
320,168,92695,1,0,0:0:0:0:
328,196,92789,1,0,1:0:0:0:
324,224,92882,1,0,0:0:0:0:
304,244,92976,1,2,1:2:0:0:
276,256,93070,1,0,0:0:0:0:
248,256,93164,5,0,1:0:0:0:
220,248,93257,1,0,1:0:0:0:
204,224,93351,1,2,1:2:0:0:
196,196,93445,1,0,1:0:0:0:
172,180,93539,1,0,1:0:0:0:
144,180,93632,1,0,1:0:0:0:
120,192,93726,1,2,1:2:0:0:
108,216,93820,1,0,1:0:0:0:
116,244,93914,5,4,1:2:0:0:
256,192,94007,12,2,95414,0:0:0:0:
256,192,95507,12,2,96913,0:0:0:0:
256,192,97007,12,2,98413,0:0:0:0:
256,192,98507,12,0,99913,0:0:0:0:
400,272,100101,5,0,0:0:0:0:
352,208,100289,2,0,P|360:168|392:144,1,80,2|0,0:0|0:0,0:0:0:0:
400,272,100664,1,2,0:0:0:0:
336,320,100851,1,0,0:0:0:0:
320,336,100945,2,0,L|240:344,1,80,2|0,0:0|0:0,0:0:0:0:
208,320,101226,1,0,0:0:0:0:
168,304,101320,1,0,0:0:0:0:
128,312,101414,6,0,L|96:336,1,40,2|0,0:0|0:0,0:0:0:0:
72,256,101601,2,0,L|40:280,1,40,2|0,0:0|0:0,0:0:0:0:
80,176,101789,1,2,0:0:0:0:
168,96,101976,1,0,0:0:0:0:
192,72,102070,1,2,0:0:0:0:
264,160,102257,1,0,0:0:0:0:
288,168,102351,2,0,L|296:208,1,40,2|0,0:0|0:0,0:0:0:0:
392,272,102539,1,2,0:0:0:0:
392,272,102632,1,2,0:0:0:0:
392,272,102726,2,0,L|432:264,1,40,2|0,0:0|0:0,0:0:0:0:
456,168,102914,1,0,0:0:0:0:
464,152,103007,1,2,0:0:0:0:
472,136,103101,1,2,0:0:0:0:
480,120,103195,1,0,0:0:0:0:
472,80,103289,5,2,0:0:0:0:
440,56,103382,1,2,0:0:0:0:
400,56,103476,1,2,0:0:0:0:
368,80,103570,1,0,0:0:0:0:
360,120,103664,5,2,0:0:0:0:
320,152,103757,1,2,0:0:0:0:
272,168,103851,1,2,0:0:0:0:
224,144,103945,1,2,0:0:0:0:
208,96,104039,5,2,0:0:0:0:
216,72,104132,1,2,0:0:0:0:
240,56,104226,1,2,0:0:0:0:
272,56,104320,1,2,0:0:0:0:
296,72,104414,1,2,0:0:0:0:
384,200,104601,1,2,0:0:0:0:
384,200,104789,1,0,0:0:0:0:
344,288,104976,1,2,0:0:0:0:
344,288,105070,2,0,P|304:296|272:288,2,40,2|0|0,0:0|0:0|0:0,0:0:0:0:
440,280,105351,2,0,P|466:310|476:342,2,40,2|0|0,0:0|0:0|0:0,0:0:0:0:
384,200,105632,2,0,P|397:161|420:137,2,40,2|0|0,0:0|0:0|0:0,0:0:0:0:
344,288,105914,6,0,L|256:272,1,80,4|0,0:0|0:0,0:0:0:0:
184,256,106289,1,0,1:0:0:0:
184,256,106476,1,0,0:0:0:0:
120,208,106664,2,0,P|104:256|112:288,1,80
240,328,107039,2,0,P|272:280|240:184,1,160,0|0,1:0|0:0,0:0:0:0:
176,144,107601,5,2,0:0:0:0:
312,264,107789,1,0,1:0:0:0:
360,192,107976,1,2,0:0:0:0:
224,240,108164,1,2,0:0:0:0:
344,344,108351,1,0,0:0:0:0:
360,192,108539,1,0,1:0:0:0:
360,192,108726,1,2,0:0:0:0:
256,328,108914,6,0,L|96:304,1,160,4|0,0:0|1:0,0:0:0:0:
32,136,109476,1,0,0:0:0:0:
96,192,109664,2,0,L|254:215,2,160,2|4|4,0:0|1:2|0:0,0:0:0:0:
424,112,110789,5,0,1:0:0:0:
424,112,111164,1,2,1:2:0:0:
344,176,111351,1,2,0:0:0:0:
256,120,111539,1,0,1:0:0:0:
336,56,111726,1,0,0:0:0:0:
336,56,111820,1,0,0:0:0:0:
336,56,111914,6,0,P|352:96|344:136,1,80,4|0,0:0|0:0,0:0:0:0:
272,304,112289,2,0,P|256:264|264:224,1,80,4|0,1:2|0:0,0:0:0:0:
344,176,112664,2,0,L|360:336,2,160,2|0|0,0:0|1:0|0:0,0:0:0:0:
120,96,113789,5,0,1:0:0:0:
208,208,114039,1,2,1:2:0:0:
208,208,114164,2,0,L|312:152,2,106.666666666667,0|0|0,1:0|1:0|1:0,0:0:0:0:
56,328,114914,5,4,1:2:0:0:
456,56,115289,1,4,1:2:0:0:
256,192,115382,12,2,117914,1:2:0:0:
256,56,118101,5,0,0:0:0:0:
192,136,118289,1,2,0:0:0:0:
312,192,118476,1,2,0:0:0:0:
312,192,118664,1,2,1:2:0:0:
264,280,118851,1,0,0:0:0:0:
456,280,119039,1,2,0:0:0:0:
408,192,119226,1,2,0:0:0:0:
368,360,119414,6,0,L|352:376,15,20,4|0|0|0|0|0|0|0|0|0|0|0|0|0|0|0,0:0|0:0|0:0|0:0|0:0|0:0|0:0|0:0|0:0|0:0|0:0|0:0|0:0|0:0|0:0|0:0,0:0:0:0:
344,272,120164,6,0,L|328:256,15,20,0|0|0|0|0|0|0|0|0|0|0|0|0|0|0|0,0:0|0:0|0:0|0:0|0:0|0:0|0:0|0:0|0:0|0:0|0:0|0:0|0:0|0:0|0:0|0:0,0:0:0:0:
408,192,120914,5,4,0:0:0:0:
432,264,122601,1,2,1:0:0:0:
336,296,122789,2,0,P|304:296|272:280,1,60.0000022888184,0|2,0:0|1:0,0:0:0:0:
96,304,123164,6,0,P|176:304|240:360,1,160,4|0,1:2|1:0,0:0:0:0:
432,264,123726,1,2,1:0:0:0:
384,184,123914,2,0,P|304:184|240:240,1,160,2|0,1:2|1:0,0:0:0:0:
32,264,124476,1,2,1:0:0:0:
128,216,124664,6,0,L|160:56,1,160,2|0,1:2|1:0,0:0:0:0:
32,168,125226,1,2,1:0:0:0:
80,192,125320,1,2,0:0:0:0:
128,216,125414,1,2,1:0:0:0:
312,160,125601,1,2,0:0:0:0:
168,120,125789,1,0,1:0:0:0:
216,272,125976,1,2,1:0:0:0:
416,336,126164,5,4,1:2:0:0:
456,152,126351,1,2,1:0:0:0:
320,256,126539,1,4,1:2:0:0:
248,104,126726,1,2,1:0:0:0:
48,336,126914,2,0,P|96:360|160:352,1,120.000004577637,2|2,1:0|0:0,0:0:0:0:
464,48,127289,2,0,P|416:24|352:32,1,120.000004577637,2|2,1:0|0:0,0:0:0:0:
48,336,127664,6,0,L|208:312,1,160,2|0,1:0|1:0,0:0:0:0:
344,336,128226,1,0,0:0:0:0:
344,336,128320,1,0,0:0:0:0:
344,336,128414,2,0,P|312:304|304:272,1,80,2|0,1:2|0:0,0:0:0:0:
344,200,128789,1,0,1:0:0:0:
416,264,128976,1,2,1:0:0:0:
344,336,129164,6,0,L|184:352,1,160,4|0,1:2|1:0,0:0:0:0:
48,184,129726,1,2,1:0:0:0:
112,256,129914,2,0,L|272:272,1,160,2|0,1:2|1:0,0:0:0:0:
432,160,130476,1,2,1:0:0:0:
344,96,130664,6,0,P|256:88|208:136,1,160,4|0,1:2|1:0,0:0:0:0:
24,304,131226,1,2,1:0:0:0:
112,256,131414,2,0,L|136:96,1,160,2|0,1:2|1:0,0:0:0:0:
48,40,131976,1,2,1:0:0:0:
344,96,132164,5,4,1:2:0:0:
432,144,132351,1,2,1:2:0:0:
448,184,132445,1,2,1:2:0:0:
464,224,132539,1,2,1:2:0:0:
440,328,132726,1,2,1:2:0:0:
256,280,132914,1,4,1:2:0:0:
176,216,133101,1,2,1:2:0:0:
128,232,133195,1,2,1:2:0:0:
80,248,133289,1,2,1:2:0:0:
56,352,133476,1,2,1:2:0:0:
256,144,133664,6,0,P|296:144|336:160,1,60.0000022888184,4|0,1:2|0:0,0:0:0:0:
456,144,134039,6,0,P|416:112|384:104,1,80,4|0,1:2|0:0,0:0:0:0:
248,40,134414,6,0,P|312:24|368:32,1,120.000004577637,4|2,1:2|1:0,0:0:0:0:
456,144,134789,1,4,0:0:0:0:
360,272,134976,1,2,0:0:0:0:
88,192,135164,6,0,P|144:192|216:120,1,160,4|0,1:2|1:0,0:0:0:0:
215,122,135726,1,2,1:0:0:0:
296,352,135914,2,0,P|240:320|216:232,1,160,2|0,1:2|1:0,0:0:0:0:
440,56,136476,1,2,1:0:0:0:
448,160,136664,6,0,L|304:264,1,160,2|0,1:2|1:0,0:0:0:0:
152,352,137226,1,2,1:0:0:0:
128,304,137320,1,2,0:0:0:0:
104,256,137414,1,2,1:0:0:0:
208,88,137601,1,2,0:0:0:0:
208,248,137789,1,0,1:0:0:0:
64,160,137976,1,2,1:0:0:0:
384,72,138164,5,4,1:2:0:0:
448,304,138351,1,2,1:0:0:0:
480,96,138539,1,4,1:2:0:0:
344,280,138726,1,2,1:0:0:0:
384,72,138914,6,0,P|448:80|488:128,1,120.000004577637,2|0,1:0|0:0,0:0:0:0:
128,312,139289,2,0,P|64:304|24:256,1,120.000004577637,2|0,1:0|0:0,0:0:0:0:
384,72,139664,6,0,P|448:104|472:184,1,160,2|0,1:0|1:0,0:0:0:0:
400,256,140226,1,0,0:0:0:0:
400,256,140320,1,0,0:0:0:0:
400,256,140414,2,0,P|376:288|376:328,1,80,2|0,1:2|0:0,0:0:0:0:
488,272,140789,1,0,1:0:0:0:
376,176,140976,1,2,1:0:0:0:
256,264,141164,6,0,P|200:264|128:192,1,160,4|0,1:2|1:0,0:0:0:0:
128,194,141726,1,2,0:0:0:0:
304,336,141914,2,0,P|352:336|432:264,1,160,2|0,1:0|1:0,0:0:0:0:
304,24,142476,1,2,1:0:0:0:
376,96,142664,6,0,L|352:256,1,160,4|0,1:2|1:0,0:0:0:0:
93,343,143226,1,2,1:2:0:0:
184,296,143414,6,0,P|208:232|184:144,1,160,2|0,1:0|1:0,0:0:0:0:
96,120,143976,1,2,0:0:0:0:
416,328,144164,5,2,1:0:0:0:
416,328,144539,1,4,1:2:0:0:
85,310,144726,1,0,1:0:0:0:
266,33,144914,2,0,P|304:64|320:96,1,80,2|0,1:0|0:0,0:0:0:0:
266,351,145289,1,4,1:2:0:0:
85,74,145476,1,0,1:0:0:0:
416,56,145664,1,2,1:0:0:0:
104,328,146039,6,2,L|232:296,1,120,2|0,0:0|2:0,0:0:0:0:
304,272,146414,1,0,0:0:0:0:
160,184,146601,1,0,0:0:0:0:
72,312,146789,6,2,L|200:280,1,120,2|0,0:0|2:0,0:0:0:0:
280,256,147164,5,4,1:2:0:0:
440,288,147351,1,2,1:0:0:0:
472,128,147539,1,2,1:2:0:0:
472,128,147726,1,2,1:2:0:0:
288,272,147914,1,2,1:0:0:0:
448,304,148101,1,2,1:0:0:0:
480,144,148289,1,0,1:0:0:0:
320,104,148476,1,2,1:0:0:0:
448,304,148664,5,4,1:2:0:0:
448,304,149039,6,2,L|328:280,1,120,2|0,0:0|2:0,0:0:0:0:
240,264,149414,1,0,0:0:0:0:
352,160,149601,1,0,0:0:0:0:
432,280,149789,6,2,L|312:256,1,120,2|0,0:0|2:0,0:0:0:0:
216,240,150164,5,4,1:2:0:0:
72,336,150351,1,2,1:2:0:0:
256,336,150539,1,2,1:0:0:0:
120,192,150726,1,2,1:0:0:0:
248,48,150914,1,0,1:0:0:0:
352,200,151101,1,2,1:0:0:0:
328,104,151289,1,0,1:0:0:0:
224,256,151476,1,2,1:0:0:0:
448,288,151664,5,4,1:2:0:0:
448,288,152039,1,2,1:2:0:0:
408,312,152132,1,2,1:2:0:0:
368,328,152226,1,2,1:2:0:0:
320,344,152320,1,2,1:2:0:0:
272,360,152414,1,6,1:2:0:0:
272,360,152789,1,4,1:2:0:0:
88,208,153164,5,4,1:2:0:0:
240,24,153539,1,4,1:2:0:0:
424,176,153914,1,4,1:2:0:0:
272,360,154289,1,4,1:2:0:0:
88,208,154664,5,4,1:2:0:0:
184,208,154851,1,2,1:0:0:0:
248,280,155039,1,4,1:2:0:0:
88,208,155226,1,2,1:0:0:0:
216,152,155414,1,4,1:2:0:0:
328,224,155601,1,2,1:0:0:0:
88,208,155789,1,4,1:2:0:0:
240,96,155976,1,2,1:0:0:0:
424,184,156164,6,0,L|440:224,1,40,4|0,1:2|0:0,0:0:0:0:
464,296,156351,1,2,0:0:0:0:
440,336,156445,1,2,0:0:0:0:
392,344,156539,1,2,0:0:0:0:
352,328,156632,1,0,0:0:0:0:
336,280,156726,1,2,0:0:0:0:
312,240,156820,1,2,0:0:0:0:
264,224,156914,1,2,0:0:0:0:
216,232,157007,1,0,0:0:0:0:
184,272,157101,1,2,0:0:0:0:
192,320,157195,1,2,0:0:0:0:
224,352,157289,1,2,0:0:0:0:
272,360,157382,1,0,0:0:0:0:
312,336,157476,1,2,0:0:0:0:
336,296,157570,1,2,0:0:0:0:
328,248,157664,6,0,B|336:192|384:168|384:168|472:176|400:224|400:112,1,230,4|0,1:2|0:0,0:0:0:0:
416,48,159914,1,4,0:0:0:0:
