osu file format v14

[General]
AudioFilename: o2ma368.ojn.mp3
AudioLeadIn: 0
PreviewTime: 49262
Countdown: 0
SampleSet: Soft
StackLeniency: 0.7
Mode: 3
LetterboxInBreaks: 0
EpilepsyWarning: 1
SpecialStyle: 0
WidescreenStoryboard: 1

[Editor]
DistanceSpacing: 1.4
BeatDivisor: 4
GridSize: 16
TimelineZoom: 1.7

[Metadata]
Title:Sad Christmas
TitleUnicode:슬픈 크리스마스
Artist:BeautifulDay
ArtistUnicode:BeautifulDay
Creator:arviejhay
Version:Lvl 5
Source:O2Jam
Tags:korean
BeatmapID:836885
BeatmapSetID:382020

[Difficulty]
HPDrainRate:7
CircleSize:7
OverallDifficulty:7
ApproachRate:5
SliderMultiplier:1.4
SliderTickRate:1

[Events]
//Background and Video events
0,0,"holiday christmas.jpg",0,0
//Break Periods
//Storyboard Layer 0 (Background)
//Storyboard Layer 1 (Fail)
//Storyboard Layer 2 (Pass)
//Storyboard Layer 3 (Foreground)
//Storyboard Sound Samples

[TimingPoints]
8382,425.83392476934,4,2,1,45,1,0
22008,-100,4,2,1,45,0,1
35635,-100,4,2,1,45,0,0
49262,-100,4,2,1,45,0,1
61185,-100,4,2,1,45,0,0
62888,-100,4,2,1,45,0,1
76089,-100,4,2,1,45,0,0
76515,-100,4,2,1,45,0,1
89716,-100,4,2,1,45,0,0
89893,425.83392476934,4,2,1,45,1,0
90106,425.83392476934,4,2,1,45,1,1
103732,-100,4,2,1,45,0,0
105445,425.83392476934,4,2,1,45,1,1
117368,-100,4,2,1,45,0,0
119071,-100,4,2,1,45,0,1
132272,-100,4,2,1,45,0,0
132698,-100,4,2,1,45,0,1
146325,-100,4,2,1,45,0,0

[HitObjects]
256,192,6678,128,0,8381:3:0:0:0:
329,192,8381,1,4,0:0:0:0:
109,192,8381,1,0,0:0:0:0:
36,192,8594,1,0,0:0:0:0:
182,192,8807,1,8,0:0:0:0:
36,192,9020,1,0,0:0:0:0:
329,192,9446,1,0,0:0:0:0:
475,192,9659,1,8,0:0:0:0:
329,192,9872,1,0,0:0:0:0:
109,192,10298,1,0,0:0:0:0:
182,192,10511,1,8,0:0:0:0:
109,192,10724,1,0,0:0:0:0:
402,192,11149,1,0,0:0:0:0:
329,192,11362,1,8,0:0:0:0:
402,192,11575,1,0,0:0:0:0:
182,192,11788,1,2,0:0:0:0:
36,192,11788,1,4,0:0:0:0:
475,192,12001,1,0,0:0:0:0:
329,192,12214,1,8,0:0:0:0:
475,192,12427,1,0,0:0:0:0:
182,192,12853,1,0,0:0:0:0:
36,192,13066,1,8,0:0:0:0:
182,192,13279,1,0,0:0:0:0:
402,192,13704,1,0,0:0:0:0:
329,192,13917,1,8,0:0:0:0:
402,192,14130,1,0,0:0:0:0:
109,192,14556,1,0,0:0:0:0:
182,192,14769,1,8,0:0:0:0:
109,192,14982,1,0,0:0:0:0:
256,192,15195,1,8,1:0:0:0:
256,192,15621,1,8,1:0:0:0:
36,192,15621,1,8,0:0:0:0:
256,192,16047,1,8,1:0:0:0:
256,192,16472,1,8,1:0:0:0:
475,192,16472,1,8,0:0:0:0:
256,192,16898,1,8,1:0:0:0:
256,192,17324,1,8,1:0:0:0:
36,192,17324,1,8,0:0:0:0:
256,192,17750,1,8,1:0:0:0:
475,192,17963,1,8,0:0:0:0:
109,192,18176,1,8,1:0:0:0:
402,192,18176,1,8,0:0:0:0:
36,192,18389,1,8,1:0:0:0:
329,192,18602,128,0,19453:0:0:0:0:
182,192,18602,1,4,0:0:0:0:
36,192,19027,1,8,1:0:0:0:
402,192,19453,128,0,20305:0:0:0:0:
182,192,19453,1,8,1:0:0:0:
36,192,19879,1,8,1:0:0:0:
109,192,20305,1,2,0:0:0:0:
475,192,20305,1,0,0:0:0:0:
36,192,22008,1,8,1:0:0:0:
329,192,22008,1,4,0:0:0:0:
475,192,22434,1,8,1:0:0:0:
182,192,22434,1,0,0:0:0:0:
36,192,22860,1,8,1:0:0:0:
475,192,23286,1,8,1:0:0:0:
329,192,23286,1,0,0:0:0:0:
109,192,23712,1,8,1:0:0:0:
402,192,24137,1,8,1:0:0:0:
182,192,24137,1,0,0:0:0:0:
109,192,24563,1,8,1:0:0:0:
182,192,24776,1,0,0:0:0:0:
402,192,24989,1,8,1:0:0:0:
256,192,24989,1,0,0:0:0:0:
182,192,25202,1,8,1:0:0:0:
36,192,25415,1,8,1:0:0:0:
329,192,25415,1,2,0:0:0:0:
475,192,25841,1,8,1:0:0:0:
256,192,25841,1,0,0:0:0:0:
36,192,26267,1,8,1:0:0:0:
475,192,26692,1,8,1:0:0:0:
329,192,26692,1,0,0:0:0:0:
109,192,27118,1,8,1:0:0:0:
402,192,27544,1,8,1:0:0:0:
182,192,27544,1,0,0:0:0:0:
109,192,27970,1,8,1:0:0:0:
182,192,28183,1,0,0:0:0:0:
402,192,28396,1,8,1:0:0:0:
256,192,28396,1,0,0:0:0:0:
182,192,28609,1,8,1:0:0:0:
36,192,28822,1,8,1:0:0:0:
475,192,28822,1,2,0:0:0:0:
329,192,29247,1,8,1:0:0:0:
109,192,29247,1,0,0:0:0:0:
36,192,29673,1,8,1:0:0:0:
329,192,30099,1,8,1:0:0:0:
182,192,30099,1,0,0:0:0:0:
109,192,30525,1,8,1:0:0:0:
402,192,30951,1,8,1:0:0:0:
256,192,30951,1,0,0:0:0:0:
109,192,31377,1,8,1:0:0:0:
475,192,31802,1,8,1:0:0:0:
182,192,31802,1,0,0:0:0:0:
256,192,32015,1,8,1:0:0:0:
182,192,32228,1,4,0:0:0:0:
329,192,32228,1,2,0:0:0:0:
109,192,32654,1,8,1:0:0:0:
402,192,32654,1,0,0:0:0:0:
256,192,33080,1,4,0:0:0:0:
475,192,33080,1,8,1:0:0:0:
402,192,33506,1,8,1:0:0:0:
182,192,33506,1,0,0:0:0:0:
329,192,33932,1,4,0:0:0:0:
109,192,33932,1,2,0:0:0:0:
256,192,34357,1,4,0:0:0:0:
36,192,34357,1,0,0:0:0:0:
402,192,34783,1,4,0:0:0:0:
182,192,34783,1,0,0:0:0:0:
475,192,35209,1,4,0:0:0:0:
256,192,35209,1,0,0:0:0:0:
109,192,35635,1,8,1:0:0:0:
329,192,35635,1,4,1:0:0:0:
36,192,36061,1,8,1:0:0:0:
182,192,36061,1,0,0:0:0:0:
402,192,36487,1,8,1:0:0:0:
36,192,36912,1,8,1:0:0:0:
256,192,36912,1,0,0:0:0:0:
475,192,37338,1,8,1:0:0:0:
109,192,37764,1,8,1:0:0:0:
329,192,37764,1,0,0:0:0:0:
475,192,38190,1,8,1:0:0:0:
109,192,38616,1,8,1:0:0:0:
402,192,38616,1,0,0:0:0:0:
256,192,38829,1,8,1:0:0:0:
329,192,39042,1,8,1:0:0:0:
36,192,39042,1,0,0:0:0:0:
182,192,39467,1,8,1:0:0:0:
475,192,39467,1,0,0:0:0:0:
329,192,39893,1,8,1:0:0:0:
182,192,40319,1,8,1:0:0:0:
36,192,40319,1,0,0:0:0:0:
329,192,40745,1,8,1:0:0:0:
109,192,41171,1,8,1:0:0:0:
256,192,41171,1,0,0:0:0:0:
182,192,41597,1,8,1:0:0:0:
109,192,41809,1,8,0:0:0:0:
36,192,42022,1,8,0:0:0:0:
475,192,42022,1,8,1:0:0:0:
402,192,42235,1,8,1:0:0:0:
329,192,42448,1,8,1:0:0:0:
182,192,42448,1,0,0:0:0:0:
109,192,42874,1,8,1:0:0:0:
402,192,42874,1,0,0:0:0:0:
329,192,43300,1,8,1:0:0:0:
109,192,43726,1,8,1:0:0:0:
256,192,43726,1,0,0:0:0:0:
182,192,44152,1,8,1:0:0:0:
402,192,44577,1,8,1:0:0:0:
256,192,44577,1,0,0:0:0:0:
182,192,45003,1,8,1:0:0:0:
402,192,45429,1,8,1:0:0:0:
109,192,45429,1,0,0:0:0:0:
329,192,45642,1,8,1:0:0:0:
36,192,45855,1,8,1:0:0:0:
256,192,46281,1,8,1:0:0:0:
109,192,46281,1,0,0:0:0:0:
475,192,46707,1,8,1:0:0:0:
256,192,47132,1,8,1:0:0:0:
402,192,47132,1,0,0:0:0:0:
36,192,47558,1,8,1:0:0:0:
109,192,47984,1,8,1:0:0:0:
329,192,47984,1,0,0:0:0:0:
182,192,48410,1,8,1:0:0:0:
256,192,48836,1,8,1:0:0:0:
475,192,48836,1,0,0:0:0:0:
329,192,49049,1,8,1:0:0:0:
402,192,49262,1,4,0:0:0:0:
109,192,49262,1,8,1:0:0:0:
36,192,49687,1,8,1:0:0:0:
182,192,49687,1,0,0:0:0:0:
329,192,50113,1,8,1:0:0:0:
36,192,50539,1,8,1:0:0:0:
182,192,50539,1,2,0:0:0:0:
329,192,50965,1,8,1:0:0:0:
475,192,50965,1,2,0:0:0:0:
182,192,51391,1,8,1:0:0:0:
36,192,51391,1,0,0:0:0:0:
475,192,51817,1,8,1:0:0:0:
182,192,52242,1,8,1:0:0:0:
36,192,52242,1,0,0:0:0:0:
329,192,52455,1,8,1:0:0:0:
109,192,52668,1,8,1:0:0:0:
402,192,52668,1,2,0:0:0:0:
182,192,53094,1,8,1:0:0:0:
475,192,53094,1,0,0:0:0:0:
402,192,53520,1,8,1:0:0:0:
329,192,53946,1,8,1:0:0:0:
256,192,53946,1,2,0:0:0:0:
36,192,54372,1,8,1:0:0:0:
109,192,54372,1,2,0:0:0:0:
182,192,54797,1,8,1:0:0:0:
256,192,54797,1,0,0:0:0:0:
475,192,55223,1,8,1:0:0:0:
329,192,55649,1,8,1:0:0:0:
36,192,55649,1,0,0:0:0:0:
109,192,55862,1,8,1:0:0:0:
256,192,56075,1,4,2:0:0:0:
402,192,56075,1,2,0:0:0:0:
182,192,56501,1,8,1:0:0:0:
475,192,56501,1,0,0:0:0:0:
256,192,56927,1,8,1:0:0:0:
329,192,57352,1,8,1:0:0:0:
109,192,57352,1,0,0:0:0:0:
182,192,57778,1,8,1:0:0:0:
36,192,57778,1,2,0:0:0:0:
109,192,58204,1,8,1:0:0:0:
402,192,58204,1,0,0:0:0:0:
256,192,58630,1,8,1:0:0:0:
402,192,59056,1,8,1:0:0:0:
109,192,59056,1,0,0:0:0:0:
182,192,59269,1,8,1:0:0:0:
256,192,59482,1,8,1:0:0:0:
475,192,59482,1,2,0:0:0:0:
36,192,59907,1,8,1:0:0:0:
182,192,59907,1,0,0:0:0:0:
256,192,60333,1,8,1:0:0:0:
475,192,60759,1,8,1:0:0:0:
329,192,60759,1,0,0:0:0:0:
256,192,61185,1,2,1:0:0:0:
182,192,61611,1,2,1:0:0:0:
109,192,62037,1,2,1:0:0:0:
36,192,62462,1,2,1:0:0:0:
402,192,62888,1,4,0:0:0:0:
109,192,62888,1,8,1:0:0:0:
182,192,63314,1,8,1:0:0:0:
475,192,63314,1,0,0:0:0:0:
402,192,63740,1,8,1:0:0:0:
182,192,64166,1,8,1:0:0:0:
36,192,64166,1,0,0:0:0:0:
109,192,64592,1,8,1:0:0:0:
329,192,65017,1,8,1:0:0:0:
475,192,65017,1,0,0:0:0:0:
109,192,65443,1,8,1:0:0:0:
329,192,65869,1,8,1:0:0:0:
182,192,65869,1,0,0:0:0:0:
256,192,66082,1,8,1:0:0:0:
402,192,66295,1,8,1:0:0:0:
109,192,66295,1,0,0:0:0:0:
182,192,66721,1,8,1:0:0:0:
36,192,66721,1,0,0:0:0:0:
402,192,67147,1,8,1:0:0:0:
182,192,67572,1,8,1:0:0:0:
329,192,67572,1,0,0:0:0:0:
109,192,67998,1,8,1:0:0:0:
329,192,68424,1,8,1:0:0:0:
475,192,68424,1,0,0:0:0:0:
109,192,68850,1,8,1:0:0:0:
329,192,69276,1,8,1:0:0:0:
36,192,69276,1,0,0:0:0:0:
182,192,69489,1,8,1:0:0:0:
109,192,69702,1,8,1:0:0:0:
256,192,69702,128,2,71405:0:0:0:0:
475,192,69702,1,0,0:0:0:0:
182,192,70127,1,8,1:0:0:0:
36,192,70127,1,0,0:0:0:0:
475,192,70553,1,8,1:0:0:0:
329,192,70979,1,8,1:0:0:0:
402,192,70979,1,0,0:0:0:0:
109,192,71405,1,8,1:0:0:0:
182,192,71831,1,8,1:0:0:0:
329,192,71831,1,0,0:0:0:0:
402,192,72257,1,8,1:0:0:0:
329,192,72682,1,8,1:0:0:0:
109,192,72682,1,0,0:0:0:0:
256,192,72895,1,8,1:0:0:0:
182,192,73108,1,4,0:0:0:0:
475,192,73108,128,2,74812:0:0:0:0:
36,192,73108,1,0,0:0:0:0:
109,192,73534,1,8,1:0:0:0:
402,192,73534,1,0,0:0:0:0:
329,192,73960,1,4,0:0:0:0:
402,192,74386,1,8,1:0:0:0:
182,192,74386,1,0,0:0:0:0:
36,192,74812,1,4,0:0:0:0:
256,192,74812,128,2,76515:0:0:0:0:
329,192,74812,1,0,0:0:0:0:
182,192,75237,1,4,0:0:0:0:
402,192,75237,1,0,0:0:0:0:
329,192,75663,1,4,0:0:0:0:
475,192,76089,1,4,0:0:0:0:
109,192,76089,1,0,0:0:0:0:
329,192,76302,1,8,1:0:0:0:
402,192,76515,1,8,1:0:0:0:
182,192,76515,1,4,1:0:0:0:
109,192,76941,1,8,1:0:0:0:
329,192,76941,1,0,0:0:0:0:
402,192,77367,1,8,1:0:0:0:
109,192,77792,1,8,1:0:0:0:
256,192,77792,1,0,0:0:0:0:
329,192,78218,1,8,1:0:0:0:
36,192,78644,1,8,1:0:0:0:
182,192,78644,1,0,0:0:0:0:
329,192,79070,1,8,1:0:0:0:
36,192,79496,1,8,1:0:0:0:
475,192,79496,1,0,0:0:0:0:
182,192,79709,1,8,1:0:0:0:
402,192,79922,1,8,1:0:0:0:
256,192,79922,1,0,0:0:0:0:
109,192,80347,1,8,1:0:0:0:
329,192,80347,1,0,0:0:0:0:
402,192,80773,1,8,1:0:0:0:
109,192,81199,1,8,1:0:0:0:
256,192,81199,1,0,0:0:0:0:
475,192,81625,1,8,1:0:0:0:
182,192,82051,1,8,1:0:0:0:
329,192,82051,1,0,0:0:0:0:
475,192,82477,1,8,1:0:0:0:
182,192,82902,1,8,1:0:0:0:
36,192,82902,1,0,0:0:0:0:
402,192,83115,1,8,1:0:0:0:
329,192,83328,1,8,1:0:0:0:
256,192,83328,128,2,85032:0:0:0:0:
109,192,83328,1,0,0:0:0:0:
36,192,83754,1,8,1:0:0:0:
402,192,83754,1,0,0:0:0:0:
182,192,84180,1,8,1:0:0:0:
475,192,84606,1,8,1:0:0:0:
109,192,84606,1,0,0:0:0:0:
329,192,85032,1,8,1:0:0:0:
109,192,85457,1,8,1:0:0:0:
402,192,85457,1,0,0:0:0:0:
182,192,85883,1,8,1:0:0:0:
402,192,86309,1,8,1:0:0:0:
256,192,86309,1,0,0:0:0:0:
329,192,86522,1,8,1:0:0:0:
256,192,86735,1,4,0:0:0:0:
36,192,86735,128,2,88438:0:0:0:0:
109,192,86735,1,0,0:0:0:0:
475,192,87161,1,8,1:0:0:0:
329,192,87161,1,0,0:0:0:0:
182,192,87587,1,4,0:0:0:0:
402,192,88012,1,8,1:0:0:0:
256,192,88012,1,0,0:0:0:0:
109,192,88438,1,4,0:0:0:0:
475,192,88438,128,2,90106:0:0:0:0:
329,192,88438,1,0,0:0:0:0:
256,192,88864,1,4,0:0:0:0:
36,192,88864,1,0,0:0:0:0:
402,192,89290,1,4,0:0:0:0:
256,192,89716,1,4,0:0:0:0:
36,192,89716,1,0,0:0:0:0:
109,192,89893,1,0,0:0:0:0:
182,192,90105,1,4,1:0:0:0:
329,192,90105,1,8,1:0:0:0:
36,192,90531,1,8,1:0:0:0:
109,192,90531,1,0,0:0:0:0:
256,192,90744,1,2,0:0:0:0:
475,192,90957,1,8,1:0:0:0:
36,192,91383,1,8,1:0:0:0:
109,192,91383,1,0,0:0:0:0:
402,192,91809,1,8,1:0:0:0:
256,192,91809,1,2,0:0:0:0:
109,192,92235,1,8,1:0:0:0:
36,192,92235,1,0,0:0:0:0:
182,192,92448,1,2,0:0:0:0:
402,192,92661,1,8,1:0:0:0:
109,192,93086,1,8,1:0:0:0:
36,192,93086,1,0,0:0:0:0:
256,192,93299,1,8,1:0:0:0:
475,192,93512,1,8,1:0:0:0:
329,192,93512,1,2,0:0:0:0:
36,192,93938,1,8,1:0:0:0:
109,192,93938,1,0,0:0:0:0:
256,192,94151,1,2,0:0:0:0:
475,192,94364,1,8,1:0:0:0:
36,192,94790,1,8,1:0:0:0:
109,192,94790,1,0,0:0:0:0:
402,192,95216,1,8,1:0:0:0:
329,192,95216,1,2,0:0:0:0:
109,192,95641,1,8,1:0:0:0:
36,192,95641,1,0,0:0:0:0:
182,192,95854,1,2,0:0:0:0:
402,192,96067,1,8,1:0:0:0:
109,192,96493,1,8,1:0:0:0:
36,192,96493,1,0,0:0:0:0:
256,192,96706,1,8,1:0:0:0:
36,192,96919,1,8,1:0:0:0:
329,192,96919,1,2,0:0:0:0:
182,192,97345,1,8,1:0:0:0:
109,192,97345,1,0,0:0:0:0:
256,192,97558,1,2,0:0:0:0:
475,192,97771,1,8,1:0:0:0:
329,192,98196,1,8,1:0:0:0:
36,192,98196,1,0,0:0:0:0:
109,192,98622,1,8,1:0:0:0:
402,192,98622,1,2,0:0:0:0:
256,192,99048,1,8,1:0:0:0:
182,192,99048,1,0,0:0:0:0:
36,192,99261,1,2,0:0:0:0:
402,192,99474,1,8,1:0:0:0:
256,192,99900,1,8,1:0:0:0:
182,192,99900,1,0,0:0:0:0:
329,192,100113,1,8,1:0:0:0:
109,192,100326,1,4,2:0:0:0:
36,192,100751,1,8,1:0:0:0:
475,192,100751,1,0,0:0:0:0:
182,192,101177,1,4,2:0:0:0:
402,192,101177,1,0,0:0:0:0:
475,192,101603,1,8,1:0:0:0:
109,192,101603,1,0,0:0:0:0:
256,192,102029,1,4,2:0:0:0:
36,192,102029,1,0,0:0:0:0:
329,192,102455,1,4,2:0:0:0:
109,192,102455,1,0,0:0:0:0:
402,192,102881,1,4,2:0:0:0:
182,192,102881,1,0,0:0:0:0:
329,192,103306,1,4,2:0:0:0:
109,192,103306,1,0,0:0:0:0:
256,192,103732,1,2,0:0:0:0:
475,192,103732,1,0,0:0:0:0:
182,192,104158,1,2,0:0:0:0:
109,192,104584,1,2,0:0:0:0:
36,192,105010,1,2,0:0:0:0:
402,192,105445,1,8,1:0:0:0:
109,192,105445,1,4,0:0:0:0:
475,192,105870,1,8,1:0:0:0:
36,192,105870,1,0,0:0:0:0:
182,192,106296,1,8,1:0:0:0:
329,192,106722,1,2,0:0:0:0:
475,192,106722,1,8,1:0:0:0:
182,192,107148,1,2,0:0:0:0:
36,192,107148,1,8,1:0:0:0:
329,192,107574,1,8,1:0:0:0:
475,192,107574,1,0,0:0:0:0:
36,192,108000,1,8,1:0:0:0:
329,192,108425,1,8,1:0:0:0:
475,192,108425,1,0,0:0:0:0:
182,192,108638,1,8,1:0:0:0:
109,192,108851,1,2,0:0:0:0:
402,192,108851,1,8,1:0:0:0:
329,192,109277,1,8,1:0:0:0:
36,192,109277,1,0,0:0:0:0:
109,192,109703,1,8,1:0:0:0:
256,192,110129,1,2,0:0:0:0:
182,192,110129,1,8,1:0:0:0:
402,192,110555,1,2,0:0:0:0:
475,192,110555,1,8,1:0:0:0:
329,192,110980,1,8,1:0:0:0:
256,192,110980,1,0,0:0:0:0:
36,192,111406,1,8,1:0:0:0:
182,192,111832,1,8,1:0:0:0:
402,192,111832,1,0,0:0:0:0:
475,192,112045,1,8,1:0:0:0:
109,192,112258,1,2,0:0:0:0:
256,192,112258,1,4,2:0:0:0:
329,192,112684,1,8,1:0:0:0:
36,192,112684,1,0,0:0:0:0:
256,192,113110,1,8,1:0:0:0:
182,192,113535,1,8,1:0:0:0:
402,192,113535,1,0,0:0:0:0:
475,192,113961,1,2,0:0:0:0:
256,192,113961,1,8,1:0:0:0:
402,192,114387,1,8,1:0:0:0:
182,192,114387,1,0,0:0:0:0:
256,192,114813,1,8,1:0:0:0:
109,192,115239,1,8,1:0:0:0:
475,192,115239,1,0,0:0:0:0:
329,192,115452,1,8,1:0:0:0:
36,192,115665,1,2,0:0:0:0:
256,192,115665,1,8,1:0:0:0:
475,192,116090,1,8,1:0:0:0:
182,192,116090,1,0,0:0:0:0:
256,192,116516,1,8,1:0:0:0:
36,192,116942,1,8,1:0:0:0:
402,192,116942,1,0,0:0:0:0:
256,192,117368,1,8,1:0:0:0:
256,192,117794,1,8,1:0:0:0:
256,192,118220,1,8,1:0:0:0:
256,192,118645,1,8,1:0:0:0:
402,192,119071,1,8,1:0:0:0:
109,192,119071,1,4,0:0:0:0:
329,192,119497,1,8,1:0:0:0:
182,192,119497,1,0,0:0:0:0:
109,192,119923,1,8,1:0:0:0:
329,192,120349,1,8,1:0:0:0:
256,192,120349,1,0,0:0:0:0:
402,192,120775,1,8,1:0:0:0:
182,192,121200,1,8,1:0:0:0:
36,192,121200,1,0,0:0:0:0:
402,192,121626,1,8,1:0:0:0:
182,192,122052,1,8,1:0:0:0:
256,192,122052,1,0,0:0:0:0:
109,192,122478,1,8,1:0:0:0:
329,192,122904,1,8,1:0:0:0:
475,192,122904,1,0,0:0:0:0:
109,192,123330,1,8,1:0:0:0:
329,192,123755,1,8,1:0:0:0:
182,192,123755,1,0,0:0:0:0:
402,192,124181,1,8,1:0:0:0:
182,192,124607,1,8,1:0:0:0:
36,192,124607,1,0,0:0:0:0:
402,192,125033,1,8,1:0:0:0:
182,192,125459,1,8,1:0:0:0:
329,192,125459,1,0,0:0:0:0:
109,192,125672,1,8,1:0:0:0:
256,192,125885,128,2,127588:0:0:0:0:
475,192,125885,1,8,1:0:0:0:
36,192,125885,1,0,0:0:0:0:
329,192,126310,1,8,1:0:0:0:
109,192,126310,1,0,0:0:0:0:
36,192,126736,1,8,1:0:0:0:
182,192,127162,1,8,1:0:0:0:
475,192,127162,1,0,0:0:0:0:
402,192,127588,1,8,1:0:0:0:
329,192,128014,1,8,1:0:0:0:
182,192,128014,1,0,0:0:0:0:
109,192,128440,1,8,1:0:0:0:
182,192,128865,1,8,1:0:0:0:
402,192,128865,1,0,0:0:0:0:
256,192,129078,1,8,1:0:0:0:
36,192,129291,128,2,130995:0:0:0:0:
329,192,129291,1,4,0:0:0:0:
475,192,129291,1,0,0:0:0:0:
402,192,129717,1,8,1:0:0:0:
109,192,129717,1,0,0:0:0:0:
182,192,130143,1,4,0:0:0:0:
109,192,130569,1,8,1:0:0:0:
329,192,130569,1,0,0:0:0:0:
256,192,130995,128,2,132698:0:0:0:0:
475,192,130995,1,4,0:0:0:0:
182,192,130995,1,0,0:0:0:0:
329,192,131420,1,4,0:0:0:0:
109,192,131420,1,0,0:0:0:0:
182,192,131846,1,4,0:0:0:0:
36,192,132272,1,4,0:0:0:0:
402,192,132272,1,0,0:0:0:0:
475,192,132485,1,8,1:0:0:0:
329,192,132698,1,4,1:0:0:0:
109,192,132698,1,8,1:0:0:0:
402,192,133124,1,8,1:0:0:0:
182,192,133124,1,0,0:0:0:0:
109,192,133550,1,8,1:0:0:0:
402,192,133975,1,8,1:0:0:0:
256,192,133975,1,0,0:0:0:0:
182,192,134401,1,8,1:0:0:0:
475,192,134827,1,8,1:0:0:0:
329,192,134827,1,0,0:0:0:0:
182,192,135253,1,8,1:0:0:0:
475,192,135679,1,8,1:0:0:0:
402,192,135679,1,0,0:0:0:0:
256,192,135892,1,8,1:0:0:0:
109,192,136105,1,8,1:0:0:0:
329,192,136105,1,0,0:0:0:0:
402,192,136530,1,8,1:0:0:0:
182,192,136530,1,0,0:0:0:0:
109,192,136956,1,8,1:0:0:0:
402,192,137382,1,8,1:0:0:0:
256,192,137382,1,0,0:0:0:0:
36,192,137808,1,8,1:0:0:0:
329,192,138234,1,8,1:0:0:0:
182,192,138234,1,0,0:0:0:0:
36,192,138660,1,8,1:0:0:0:
329,192,139085,1,8,1:0:0:0:
475,192,139085,1,0,0:0:0:0:
109,192,139298,1,8,1:0:0:0:
256,192,139511,128,2,141215:0:0:0:0:
182,192,139511,1,8,1:0:0:0:
36,192,139511,1,0,0:0:0:0:
475,192,139937,1,8,1:0:0:0:
109,192,139937,1,0,0:0:0:0:
329,192,140363,1,8,1:0:0:0:
36,192,140789,1,8,1:0:0:0:
402,192,140789,1,0,0:0:0:0:
182,192,141215,1,8,1:0:0:0:
402,192,141640,1,8,1:0:0:0:
109,192,141640,1,0,0:0:0:0:
329,192,142066,1,8,1:0:0:0:
109,192,142492,1,8,1:0:0:0:
36,192,142492,1,0,0:0:0:0:
182,192,142705,1,8,1:0:0:0:
475,192,142918,128,2,144621:0:0:0:0:
256,192,142918,1,4,0:0:0:0:
402,192,142918,1,0,0:0:0:0:
36,192,143344,1,8,1:0:0:0:
182,192,143344,1,0,0:0:0:0:
329,192,143770,1,4,0:0:0:0:
109,192,144195,1,8,1:0:0:0:
256,192,144195,1,0,0:0:0:0:
36,192,144621,128,2,146325:0:0:0:0:
402,192,144621,1,4,0:0:0:0:
256,192,145047,1,4,0:0:0:0:
182,192,145047,1,0,0:0:0:0:
109,192,145473,1,4,0:0:0:0:
256,192,145899,1,4,0:0:0:0:
475,192,145899,1,0,0:0:0:0:
402,192,146112,1,0,0:0:0:0:
182,192,146325,1,8,1:0:0:0:
329,192,146325,1,4,1:0:0:0:
109,192,146750,1,8,1:0:0:0:
475,192,146750,1,0,0:0:0:0:
402,192,147176,1,8,1:0:0:0:
256,192,147176,1,2,0:0:0:0:
36,192,147602,1,8,1:0:0:0:
329,192,147602,1,0,0:0:0:0:
475,192,148028,1,8,1:0:0:0:
182,192,148028,1,2,0:0:0:0:
109,192,148454,1,8,1:0:0:0:
329,192,148454,1,0,0:0:0:0:
402,192,148880,1,8,1:0:0:0:
256,192,148880,1,2,0:0:0:0:
182,192,149305,1,8,1:0:0:0:
475,192,149305,1,0,0:0:0:0:
256,192,149731,1,2,0:0:0:0:
256,192,150370,1,2,0:0:0:0:
109,192,151222,1,8,1:0:0:0:
256,192,151435,1,2,0:0:0:0:
256,192,152073,1,2,0:0:0:0:
329,192,153138,1,2,0:0:0:0:
182,192,153138,1,2,1:0:0:0:
