osu file format v5

[General]
AudioFilename: [172] Fiesta.mp3
AudioLeadIn: 0
PreviewTime: -1
Countdown: 1
SampleSet: Soft
StackLeniency: 0.3
Mode: 0
LetterboxInBreaks: 1
EditorBookmarks: 19944

[Metadata]
Title:Fiesta
Artist:BeautifulDay
Creator:darrihuka
Version:Relaxing
Source:
Tags:

[Difficulty]
HPDrainRate:5
CircleSize:4
OverallDifficulty:5
SliderMultiplier:1.7
SliderTickRate:4

[Events]
//Background and Video events
0,0,"Fiesta.jpg"
//Break Periods
//Storyboard Layer 0 (Background)
//Storyboard Layer 1 (Failing)
//Storyboard Layer 2 (Passing)
//Storyboard Layer 3 (Foreground)
//Storyboard Sound Samples
//Background Colour Transformations
3,100,163,162,255

[TimingPoints]
1890,451.127819548872,4,2,0,100,1

[Colours]
Combo1 : 255,236,0
Combo2 : 5,240,5
Combo3 : 244,0,0
Combo4 : 0,240,240
Combo5 : 255,150,0

[HitObjects]
56,64,1889,1,0
176,64,2341,1,0
296,64,2792,1,0
416,64,3243,1,0
360,168,3694,6,2,B|224:168,1,127.5
104,168,4596,2,2,B|240:168,1,127.5
456,320,5499,5,0
336,320,5950,1,0
216,320,6401,1,0
96,320,6852,1,0
152,216,7303,6,2,B|288:216,1,127.5
408,216,8205,2,2,B|272:216,1,127.5
352,80,9108,6,0,B|406:106|409:184|360:232,1,170
264,160,10010,2,0,B|226:204|232:272|296:304,1,170
408,272,10912,2,0,B|440:232|496:240,3,85
482,238,11814,2,2,B|446:337|328:328,1,170
256,256,12717,6,0,B|320:208|328:152|296:96,1,170
208,32,13619,2,0,B|114:85|160:184,1,170
256,240,14521,6,0,B|256:328,3,85,0|2|0|2
256,325,15423,5,2
256,325,15874,1,2
144,280,16326,6,0,B|200:200|312:216,1,170,0|2
408,232,17228,2,0,B|352:312|240:296,1,170,0|2
144,288,18130,2,0,B|40:288,3,85
59,288,19032,2,2,B|97:199|232:184,1,170
264,96,19935,6,0,B|208:176|96:160,1,170,0|2
0,144,20837,2,0,B|56:64|168:80,1,170,0|2
264,72,21739,5,0
184,160,22190,1,2
304,176,22641,1,0
280,232,22867,1,0
256,288,23093,1,2
368,280,23544,6,0,B|312:200|200:216,1,170,0|2
104,232,24446,2,0,B|160:312|272:296,1,170,0|2
368,288,25348,2,0,B|472:288,3,85
453,288,26250,2,0,B|415:199|280:184,1,170,0|2
248,96,27153,6,0,B|304:176|416:160,1,170,0|2
512,144,28055,2,0,B|456:64|344:80,1,170,0|2
248,72,28957,5,0
352,136,29408,1,0
248,200,29859,1,0
144,136,30311,1,0
248,72,30762,5,0
432,216,31889,6,0,B|432:128,2,85
432,272,32566,1,0
208,200,33468,5,0
144,304,33920,1,2
88,200,34371,2,0,B|88:24,1,170
208,32,35273,2,0,B|208:208,1,170
272,104,36175,5,0
312,184,36514,1,0
392,208,36852,1,0
448,216,37077,2,2,B|467:257|432:299|376:311|341:264,1,170,0|2
224,288,37980,6,0,B|224:232,4,42.5,0|0|0|0|2
112,248,38882,6,0,B|112:296,4,42.5,0|0|0|0|2
112,128,39784,6,0,B|64:128,4,42.5,0|0|0|0|2
232,128,40686,6,0,B|232:80,4,42.5,0|0|0|0|2
328,64,41589,5,0
440,96,42040,1,2
328,144,42491,1,0
440,176,42942,1,2
328,224,43393,6,0,B|328:312,1,85,0|2
264,312,43844,2,0,B|264:224,1,85,0|2
256,192,44296,12,2,44972
128,128,45423,1,0
328,72,46213,1,2
328,72,46551,2,2,B|432:72|464:176,1,170
464,216,47228,5,0
264,272,48018,1,2
264,272,48356,2,2,B|206:287|152:232,1,85
136,216,48807,6,2,B|136:120,1,85
184,96,49258,2,0,B|184:192,1,85
232,216,49709,2,2,B|232:128,1,85
280,96,50160,2,0,B|280:192,1,85
328,216,50611,5,0
328,216,50837,1,2
368,176,51062,1,0
368,176,51288,1,2
408,216,51514,1,0
408,216,51739,1,2
448,176,51965,1,2
448,176,52190,1,2
368,88,52641,5,0
168,32,53431,1,2
168,32,53769,2,2,B|64:32|32:136,1,170
32,176,54446,5,0
232,232,55236,1,2
232,232,55574,2,2,B|290:247|344:192,1,85
360,176,56025,6,2,B|360:80,1,85
312,56,56476,2,0,B|312:152,1,85
264,176,56927,2,2,B|264:88,1,85
216,56,57378,2,0,B|216:152,1,85
168,176,57829,5,0
168,176,58055,1,2
128,136,58280,1,0
128,136,58506,1,2
88,176,58732,1,0
88,176,58957,1,2
48,136,59183,1,2
48,136,59408,1,2
8,88,59634,5,2
96,88,59972,1,0
160,144,60311,1,0
216,144,60536,1,2
288,200,60874,1,0
216,256,61213,1,0
160,256,61438,1,2
88,312,61777,1,0
160,368,62115,1,0
216,368,62341,1,2
288,312,62679,1,0
360,256,63017,1,0
416,256,63243,5,2
488,200,63581,1,0
416,144,63920,1,0
360,144,64145,5,2
288,200,64483,1,0
216,144,64822,1,0
256,192,65047,12,0,66626
152,104,67077,5,0
72,192,67529,1,0
152,280,67980,1,0
272,288,68431,1,0
384,256,68882,1,0
440,152,69333,1,0
336,88,69784,1,0
224,128,70235,1,0
208,248,70686,1,0
328,248,71138,1,0
296,136,71589,1,0
192,192,72040,1,0
192,192,72265,6,2,B|288:192,1,85
280,248,72717,2,2,B|192:248,1,85
136,248,73168,6,2,B|162:156|269:116|358:154|392:256,1,340
112,112,76100,5,0
161,145,76326,1,0
217,163,76551,1,0
275,171,76777,1,0
334,171,77002,1,0
391,156,77228,1,0
443,127,77453,1,0
483,83,77679,1,0
277,74,78807,5,0
242,122,79032,1,0
241,181,79258,1,0
268,233,79483,1,0
434,296,80160,5,0
399,247,80386,1,0
348,215,80611,1,0
290,200,80837,1,0
230,200,81062,1,0
173,220,81288,6,0,B|71:212|29:120,1,170,0|2
34,73,81965,1,0
93,73,82190,2,0,B|188:69|252:170,1,170,0|2
248,207,82867,1,0
305,221,83093,5,0
363,229,83318,1,2
305,221,83544,1,0
296,279,83769,1,2
305,221,83995,1,0
258,88,84897,6,0,B|316:87|354:131|365:185|341:227,1,170,0|2
320,255,85574,1,0
265,278,85799,2,0,B|207:279|169:235|158:181|182:139,1,170,0|2
203,111,86476,1,0
256,88,86702,6,0,B|344:88,1,85,0|2
344,144,87153,2,0,B|256:144,1,85,0|2
256,200,87604,2,0,B|344:200,1,85,0|2
344,256,88055,2,0,B|248:256,1,85,0|2
200,256,88506,6,0,B|256:176|368:192,1,170,0|2
464,208,89408,2,0,B|408:288|296:272,1,170,0|2
200,272,90310,2,0,B|96:272,3,85
56,272,91212,2,0,B|94:183|229:168,1,170,0|2
248,72,92115,6,0,B|304:152|416:136,1,170,0|2
512,120,93017,2,0,B|456:40|344:56,1,170,0|2
248,48,93919,5,0
328,136,94370,1,2
208,152,94821,1,0
232,208,95047,1,0
256,264,95273,1,2
144,256,95724,6,0,B|200:176|312:192,1,170,0|2
408,208,96626,2,0,B|352:288|240:272,1,170,0|2
144,264,97528,2,0,B|40:264,3,85
59,264,98430,2,0,B|97:175|232:160,1,170,0|2
264,72,99333,6,0,B|208:152|96:136,1,170,0|2
0,120,100235,2,0,B|56:40|168:56,1,170,0|2
264,48,101137,5,2
160,112,101588,1,2
264,176,102039,1,2
368,112,102491,1,2
264,48,102942,6,2,B|264:192,1,127.5
264,264,103619,5,2
264,320,103844,2,2,B|264:184,1,127.5
