osu file format v5

[General]
AudioFilename: [172] Fiesta.mp3
AudioLeadIn: 0
PreviewTime: -1
Countdown: 1
SampleSet: Soft
StackLeniency: 0.3
Mode: 0
LetterboxInBreaks: 1

[Metadata]
Title:Fiesta
Artist:BeautifulDay
Creator:darrihuka
Version:DaRRi MIx
Source:
Tags:

[Difficulty]
HPDrainRate:6
CircleSize:5
OverallDifficulty:8
SliderMultiplier:2
SliderTickRate:4

[Events]
//Background and Video events
0,0,"Fiesta.jpg"
//Break Periods
2,73715,75096
//Storyboard Layer 0 (Background)
//Storyboard Layer 1 (Failing)
//Storyboard Layer 2 (Passing)
//Storyboard Layer 3 (Foreground)
//Storyboard Sound Samples
//Background Colour Transformations
3,100,163,162,255

[TimingPoints]
1890,451.127819548872,4,2,0,100,1

[Colours]
Combo1 : 255,236,0
Combo2 : 5,240,5
Combo3 : 244,0,0
Combo4 : 0,240,240
Combo5 : 255,150,0

[HitObjects]
79,45,1887,2,0,B|42:53|38:83,3,50
41,98,2341,2,2,B|78:106|82:136,3,50
78,151,2792,2,0,B|41:159|37:189,3,50
41,204,3243,2,2,B|78:212|82:242,3,50
104,235,3694,6,2,B|131:212|176:208|229:211|260:250,1,150
316,301,4596,6,2,B|289:324|244:328|191:325|160:286,1,150
433,339,5499,6,2,B|470:331|474:301,3,50
471,286,5950,2,0,B|434:278|430:248,3,50
434,233,6401,2,2,B|471:225|475:195,3,50
471,180,6852,2,0,B|434:172|430:142,3,50
408,149,7303,6,2,B|381:172|336:176|283:173|252:134,1,150
196,83,8205,6,2,B|223:60|268:56|321:59|352:98,1,150
228,146,9108,6,0,B|273:120|329:148|397:187|442:141,1,200
340,212,10010,6,0,B|295:186|239:214|171:253|126:207,1,200
202,220,10686,5,0
193,196,10799,1,0
184,172,10912,1,0
175,148,11025,1,0
167,126,11138,2,0,B|110:136|84:204,2,100
224,122,11814,6,2,B|268:169|221:215|180:257|233:316,1,200
326,311,12717,5,0
358,299,12829,1,0
391,287,12942,1,0
424,275,13055,1,0
457,263,13168,5,2
425,247,13280,1,2
393,231,13393,1,2
361,215,13506,1,2
326,194,13619,5,0
358,182,13731,1,0
391,170,13844,1,0
424,158,13957,1,0
457,146,14070,5,2
425,130,14182,1,2
393,114,14295,1,2
361,98,14408,1,2
325,99,14521,2,0,B|213:99,3,100
187,158,15423,5,2
255,199,15574,1,2
323,157,15724,1,2
328,232,15874,2,2,B|321:262|298:282|270:292|248:296,1,100
129,292,16326,6,0,B|67:253|56:199|88:150|138:121,1,200
94,90,17002,5,0
76,72,17115,1,0
57,55,17228,2,0,B|111:32|173:40|206:64|231:115,1,200
262,147,17905,5,0
284,158,18017,1,0
306,146,18130,2,0,B|417:146,3,100
456,148,19032,6,2,B|453:203|412:253|368:283|326:298,1,200
284,296,19709,1,0
234,295,19935,6,0,B|172:256|161:202|193:153|243:124,1,200
230,82,20611,5,0
230,56,20724,1,0
230,30,20837,2,2,B|176:7|114:15|81:39|56:90,1,200
168,148,21965,6,2,B|118:148,2,50
169,209,22416,2,0,B|219:209,2,50
271,267,22867,2,2,B|221:267,2,50
384,334,23544,6,0,B|446:295|457:241|425:192|375:163,1,200
419,132,24220,5,0
437,114,24333,1,0
456,97,24446,2,0,B|402:74|340:82|307:106|282:157,1,200
251,189,25123,5,0
230,167,25235,1,0
207,188,25348,2,0,B|96:188,3,100
57,190,26250,6,2,B|60:245|101:295|145:325|187:340,1,200
229,338,26927,1,0
279,337,27153,6,0,B|341:298|352:244|320:195|270:166,1,200
283,124,27829,5,0
283,98,27942,1,0
283,72,28055,2,2,B|337:49|399:57|432:81|457:132,2,200
345,190,29183,6,2,B|395:190,2,50
344,251,29634,2,0,B|294:251,2,50
242,190,30085,2,2,B|292:190,2,50
181,192,30536,5,2
150,192,30649,1,2
121,191,30762,2,0,B|123:119|160:73|226:48|296:47|348:80|390:130|386:209,1,400
376,248,31889,5,0
362,274,32002,1,0
339,294,32115,1,0
362,274,32228,1,0
376,248,32341,1,0
362,274,32453,1,0
339,294,32566,2,2,B|298:335|252:352|175:330|153:293|146:259,1,200
76,209,33468,6,0,B|109:212|121:193,2,50
77,279,33920,2,2,B|132:258|185:306|239:326|286:266,1,200
338,284,34596,2,2,B|385:317,1,50
449,314,34935,2,2,B|514:276,1,50
436,228,35386,5,2
458,207,35499,1,2
466,178,35611,1,2
457,149,35724,2,2,B|466:97|444:49,2,100
403,179,36401,6,2,B|353:214,1,50
311,208,36739,2,2,B|254:167,1,50
220,180,37077,2,2,B|166:221,1,50
149,212,37303,5,0
124,194,37416,1,0
105,170,37529,1,0
90,144,37641,1,0
81,115,37754,1,0
79,84,37867,1,0
88,55,37980,5,0
112,37,38093,1,0
134,56,38205,1,0
157,37,38318,1,0
180,55,38431,2,2,B|246:79|322:30|384:55,1,200
379,83,38995,5,0
379,113,39108,1,0
380,142,39220,1,0
380,172,39333,2,2,B|303:172|263:172|225:172|171:172,1,200
157,152,39897,5,0
137,129,40010,1,0
118,152,40123,1,0
136,175,40235,2,2,B|102:244|136:287|161:312|135:377,1,200
114,349,40799,5,0
138,331,40912,1,0
161,350,41025,1,0
191,350,41138,2,2,B|272:344|324:297|348:255|353:224,1,200
349,212,41702,6,2,B|411:212,2,50
328,190,42040,2,0,B|281:151,1,50
311,137,42265,2,0,B|353:95,1,50
317,91,42491,6,2,B|261:73,3,50
241,86,42942,2,0,B|173:111,1,50
207,130,43168,2,2,B|240:177,1,50
216,194,43393,6,0,B|127:194,3,50
136,196,43844,1,2
105,196,43957,1,2
74,196,44070,1,0
43,197,44183,1,0
12,198,44296,2,2,B|11:116|77:73|121:74|154:80,1,200
319,54,45423,5,0
459,52,46213,1,0
459,111,46551,2,2,B|482:168|459:214|427:251|470:325,1,200
402,309,47228,5,0
256,310,48017,1,0
195,310,48356,1,2
155,312,48581,1,2
116,301,48807,6,2,B|64:264,3,50
86,255,49258,6,0,B|119:197,3,50
128,201,49709,6,2,B|196:179,3,50
163,169,50160,6,0,B|113:108,3,50
119,113,50611,5,0
136,103,50724,1,0
153,93,50837,1,0
170,83,50950,1,0
184,96,51062,5,2
203,91,51175,1,2
222,86,51288,1,0
241,81,51401,1,2
246,100,51514,5,0
265,97,51626,1,2
284,93,51739,1,2
303,90,51852,1,0
306,109,51965,5,2
325,106,52077,1,2
344,104,52190,1,2
363,102,52303,1,2
407,189,52641,5,0
409,329,53431,1,0
350,329,53769,2,2,B|293:352|247:329|210:297|136:340,1,200
154,273,54446,5,0
151,126,55235,1,0
211,126,55574,1,2
250,126,55799,1,0
289,121,56025,6,2,B|343:90,3,50
347,109,56476,6,0,B|386:176,3,50
385,166,56927,6,2,B|452:205,3,50
420,209,57378,6,0,B|394:275,3,50
391,276,57829,5,0
374,286,57942,1,0
357,296,58055,1,0
340,306,58168,1,0
326,293,58280,5,2
307,298,58393,1,2
288,303,58506,1,0
269,308,58619,1,2
264,289,58732,5,0
245,292,58844,1,2
226,296,58957,1,2
207,299,59070,1,0
204,280,59183,5,2
185,283,59295,1,2
166,285,59408,1,2
147,287,59521,1,2
127,290,59634,5,0
221,194,59972,1,0
221,194,60311,1,0
128,112,60536,1,0
221,194,60874,1,0
221,194,61213,1,0
328,138,61438,6,0,B|278:166,1,50
221,194,61777,1,0
221,194,62115,1,0
288,288,62341,1,0
221,194,62679,1,0
221,194,63017,1,0
160,288,63243,5,2
221,194,63581,1,0
221,194,63920,1,0
90,145,64145,2,2,B|142:166,1,50
221,194,64483,1,0
221,194,64822,1,0
254,110,65047,6,2,B|364:140,1,100
351,196,65499,6,2,B|242:231,1,100
306,259,65950,6,2,B|344:317,7,50
417,215,67077,5,0
330,80,67529,1,0
170,87,67980,1,0
74,215,68431,1,0
173,340,68882,1,0
332,325,69333,1,0
388,175,69784,1,0
252,89,70235,1,0
131,194,70686,1,0
261,286,71138,1,0
298,130,71589,1,0
229,171,71814,2,0,B|237:199|274:204,3,50
304,205,72265,6,2,B|456:241,1,150
416,262,72717,6,2,B|252:222,1,150
210,229,73168,5,2
242,145,73318,1,2
302,211,73468,1,2
252,197,73619,1,2
125,108,75987,5,0
113,130,76100,1,0
104,153,76213,1,0
101,177,76326,1,0
101,201,76438,1,0
106,225,76551,1,0
115,248,76664,1,0
129,268,76777,1,0
146,285,76889,1,0
166,299,77002,1,0
189,308,77115,1,0
212,315,77228,1,0
236,318,77341,1,0
260,320,77453,1,0
284,317,77566,1,0
308,310,77679,1,0
344,87,78694,5,0
320,94,78807,1,0
298,106,78920,1,0
279,123,79032,1,0
263,142,79145,1,0
253,164,79258,1,0
248,188,79371,1,0
249,212,79483,1,0
275,308,80048,5,0
299,304,80160,1,0
323,296,80273,1,0
345,285,80386,1,0
366,271,80499,1,0
384,253,80612,1,0
400,234,80724,1,0
412,212,80837,1,0
359,127,81288,6,2,B|197:127,1,150
158,128,81852,1,2
108,128,82077,1,2
108,128,82190,6,2,B|299:129,1,150
308,130,82754,1,2
358,131,82980,1,2
406,162,83205,5,0
383,172,83318,1,0
364,189,83431,1,0
351,210,83544,1,0
334,228,83656,1,0
313,241,83769,1,0
289,250,83882,1,0
264,255,83995,1,0
212,61,84897,6,2,B|155:77|122:121|113:188,2,150
300,61,85799,6,2,B|357:77|390:121|399:188,2,150
278,133,86814,5,0
256,146,86927,1,0
235,160,87040,1,0
235,209,87265,5,2
255,223,87378,1,2
274,238,87491,1,2
274,288,87717,5,0
254,303,87829,1,0
234,319,87942,1,0
214,303,88055,1,2
194,287,88168,1,2
175,304,88280,1,2
156,321,88393,1,2
136,305,88506,6,0,B|74:266|63:212|95:163|145:134,1,200
101,103,89182,5,0
83,85,89295,1,0
64,68,89408,2,0,B|118:45|180:53|213:77|238:128,1,200
350,104,90311,6,0,B|405:79,1,50
396,138,90536,2,0,B|474:128,1,50
423,182,90762,2,0,B|505:203,1,50
436,237,90987,2,0,B|480:286,1,50
414,283,91213,2,0,B|427:334,1,50
376,308,91438,2,0,B|366:366,1,50
328,306,91664,2,0,B|289:364,1,50
282,279,91889,2,0,B|232:314,1,50
241,308,92115,6,0,B|179:269|168:215|200:166|250:137,1,200
237,95,92791,5,0
237,69,92904,1,0
237,43,93017,2,2,B|183:20|121:28|88:52|63:103,1,200
69,188,93920,6,0,B|121:207,1,50
84,250,94145,2,0,B|160:256,1,50
120,298,94371,2,0,B|190:284,1,50
168,332,94596,2,0,B|232:303,1,50
226,352,94822,2,0,B|273:314,1,50
285,360,95047,2,0,B|316:313,1,50
341,358,95273,2,0,B|355:305,1,50
399,346,95499,2,0,B|406:284,1,50
405,296,95724,6,2,B|467:257|478:203|446:154|396:125,1,200
440,94,96400,5,0
458,76,96513,1,0
477,59,96626,2,2,B|423:36|361:44|328:68|303:119,1,200
190,96,97529,6,0,B|135:71,1,50
94,123,97754,2,0,B|144:130,1,50
117,174,97980,2,0,B|35:195,1,50
70,266,98205,2,0,B|104:229,1,50
126,275,98431,2,0,B|113:326,1,50
172,349,98656,2,0,B|164:300,1,50
212,298,98882,2,0,B|251:356,1,50
298,299,99107,2,0,B|258:271,1,50
257,270,99333,6,2,B|319:231|330:177|298:128|248:99,1,200
261,57,100009,5,0
261,31,100122,1,0
261,5,100235,2,2,B|315:-18|377:-10|410:14|435:65,1,200
335,100,101138,6,0,B|382:83,1,50
367,145,101363,2,0,B|291:151,1,50
281,183,101589,2,0,B|331:193,1,50
283,227,101814,2,0,B|219:198,1,50
186,215,102040,2,0,B|225:247,1,50
166,255,102265,2,0,B|135:208,1,50
97,204,102491,2,0,B|110:253,1,50
52,241,102717,2,0,B|45:179,1,50
89,190,102942,6,2,B|134:137|209:153|227:206,1,150
338,196,103619,5,2
384,196,103732,1,2
423,194,103844,2,2,B|378:247|303:231|285:178,1,150
