osu file format v5

[General]
AudioFilename: [149] Blade.mp3
AudioLeadIn: 0
PreviewTime: -1
Countdown: 1
SampleSet: Soft
StackLeniency: 0.7
Mode: 0
LetterboxInBreaks: 1

[Metadata]
Title:Blade
Artist:BeautifulDay
Creator:darrihuka
Version:Normal
Source:
Tags:

[Difficulty]
HPDrainRate:5
CircleSize:4
OverallDifficulty:3
SliderMultiplier:1.9
SliderTickRate:4

[Events]
//Background and Video events
0,0,"BLADE.jpg"
//Break Periods
//Storyboard Layer 0 (Background)
//Storyboard Layer 1 (Failing)
//Storyboard Layer 2 (Passing)
//Storyboard Layer 3 (Foreground)
//Storyboard Sound Samples
//Background Colour Transformations
3,100,163,162,255

[TimingPoints]
4626,521.739130434783,4,2,0,100,1

[HitObjects]
256,192,2019,12,0,4105
435,79,4618,1,0
302,76,5147,1,2
302,143,5408,1,0
302,143,5669,1,0
168,143,6191,1,2
35,143,6712,5,0
167,143,7233,1,2
166,210,7494,1,0
166,210,7755,1,0
299,209,8277,1,2
432,208,8799,5,0
320,160,9321,1,0
320,160,9582,1,0
320,161,9843,2,0,B|264:141|236:92|214:64|150:47,1,190
73,157,10886,6,2,B|126:120|140:123|184:137|200:168,2,142.5
73,225,11930,5,0
232,224,12452,1,0
376,228,12973,6,2,B|460:294,3,95
376,308,14017,2,0,B|324:275|273:310|237:348|183:310,1,190
112,264,15060,5,0
112,264,15321,1,0
162,225,15582,1,2
111,265,15843,1,0
111,265,16104,2,2,B|69:210|64:157|75:104|128:80,1,190
208,105,17147,5,0
208,105,17408,1,0
257,185,17669,5,0
257,185,17930,1,0
336,136,18191,5,2
336,136,18452,1,2
432,144,18712,5,2
432,144,18973,1,2
408,232,19234,5,0
374,232,19365,1,0
279,230,19626,1,0
185,228,19886,1,0
90,226,20147,1,0
179,154,20799,5,2
247,136,21321,6,2,B|243:115|214:86|176:73|128:82|87:126,1,190
86,189,22104,5,0
86,190,22365,1,0
174,239,22886,1,2
86,288,23408,5,0
174,238,23930,1,2
224,281,24191,2,0,B|240:250|241:224|220:189,3,95,0|0|0|0
60,115,25495,6,2,B|112:84|152:102|228:139|272:88,1,190
293,88,26278,2,0,B|339:64|392:92,2,95
337,142,27060,1,0
436,180,27582,6,0,B|386:234|351:244|312:232|282:221|266:204,1,190
227,173,28365,2,0,B|215:127|176:91|113:81|65:120|62:184|120:256,1,285
184,218,29669,6,0,B|249:208|322:217|372:259,1,190
436,227,30452,2,2,B|464:186|457:129|424:86|365:58|295:74|271:130,1,285
328,166,31756,6,0,B|263:176|210:172|136:124,1,190
76,157,32539,2,2,B|48:198|55:255|88:298|147:326|217:310|241:254,1,285
328,268,33843,5,0
438,238,34365,1,2
421,184,34626,1,0
403,139,34886,1,0
361,56,35408,1,2
259,59,35930,5,0
258,157,36452,1,0
208,188,36712,1,0
157,215,36973,1,0
73,278,37495,1,2
203,302,38017,6,2,B|260:294,1,47.5
222,213,38408,1,2
308,218,38669,1,2
310,132,38930,1,2
365,62,40104,6,2,B|313:73,1,47.5
320,160,40495,1,2
234,155,40756,1,2
232,241,41017,1,2
256,192,42191,12,0,45842
106,189,46365,2,0,B|63:224|64:291|93:335|163:335,1,190
192,330,47147,1,0
280,293,47669,2,0,B|309:248|384:260,1,95
408,239,48191,1,0
442,207,48452,6,0,B|473:148|468:107|437:69|361:63,1,190
333,73,49234,2,0,B|284:90|242:111|201:112|179:76|158:83|109:60|47:88,1,285
40,124,50278,1,0
40,124,50539,1,0
102,294,51060,5,0
103,217,51321,1,0
103,140,51582,2,2,B|140:38|249:34,1,190
244,110,52365,5,0
241,185,52626,2,0,B|282:293|404:317,1,190
376,233,53408,1,0
376,156,53669,2,0,B|376:57,1,95
291,92,54191,6,0,B|276:141,4,47.5
167,120,55104,5,2
129,242,55495,5,0
222,330,55886,5,2
347,297,56278,5,0
380,173,56669,5,2
255,196,57060,5,2
256,192,57191,12,6,60452
346,116,60973,5,0
191,187,61495,1,0
359,220,62017,1,0
236,102,62539,1,0
251,272,63060,1,0
352,133,63582,1,0
186,171,64104,1,0
333,259,64626,1,0
438,123,65147,5,0
282,53,65669,1,0
116,90,66191,1,0
35,240,66712,1,0
175,339,67234,1,0
346,325,67756,1,0
452,190,68278,1,0
295,123,68799,1,0
131,75,69321,5,0
132,161,69843,5,0
129,247,70365,5,0
129,333,70886,5,0
202,289,71408,5,0
274,336,71930,5,0
344,288,72452,5,0
413,238,72973,5,0
415,152,73495,6,0,B|400:135|369:142,2,47.5
332,175,74017,1,0
265,111,74539,5,0
188,151,75060,5,0
99,106,75582,6,0,B|117:127|92:153,2,47.5
81,190,76104,1,0
139,258,76626,6,0,B|164:336|284:305|247:204,1,190
153,195,77669,5,0
153,195,78060,1,0
88,232,78452,2,0,B|57:188|91:143,2,95
258,275,79756,5,0
258,275,80147,1,0
295,339,80539,2,0,B|251:371|206:337,2,95
335,301,81321,1,0
355,247,81582,1,0
359,189,81843,5,0
359,189,82234,1,0
423,151,82626,2,0,B|455:196|421:241,2,95
254,109,83930,5,0
254,109,84321,1,0
254,109,84712,1,0
316,160,84973,2,0,B|339:120|332:69|295:25|231:34,1,190
393,40,86017,6,0,B|418:40|435:80,3,47.5
322,62,86669,1,0
342,132,86930,1,0
270,122,87191,1,0
256,192,87452,1,0
183,170,88104,6,2,B|207:122|244:112|264:113|288:119|319:140|330:177,1,190
329,214,89147,2,2,B|305:262|268:272|248:271|224:265|193:244|182:207,1,190
119,344,90191,6,0,B|94:344|77:304,3,47.5
190,322,90843,1,0
170,252,91104,1,0
242,262,91365,1,0
256,192,91626,1,0
183,170,92278,6,2,B|207:122|244:112|264:113|288:119|319:140|330:177,3,190
256,192,94365,6,2,B|302:172|345:194|389:215|451:193,1,190
443,64,95408,6,2,B|397:44|354:66|310:87|248:65,1,190
160,65,96452,6,2,B|165:91|128:112,4,47.5
73,74,97234,1,2
72,144,97495,2,2,B|113:192|112:270|71:333,1,190
180,325,98539,6,2,B|200:279|178:236|157:192|179:130,1,190
242,137,99321,1,2
308,138,99582,6,2,B|328:184|306:227|285:271|307:333,1,190
432,245,100626,6,2,B|387:197|332:177|268:212|253:253,3,190
256,192,102713,6,2,B|210:212|167:190|123:169|61:191,1,190
69,320,103756,6,2,B|115:340|158:318|202:297|264:319,1,190
352,319,104800,6,2,B|347:293|384:272,4,47.5
439,310,105582,1,2
440,240,105843,2,2,B|399:192|400:114|444:48,1,190
332,59,106887,6,2,B|312:105|334:148|355:192|333:254,1,190
270,247,107669,1,2
204,246,107930,6,2,B|184:200|206:157|227:113|205:51,1,190
126,63,108973,6,2,B|93:119,1,47.5
96,192,109365,1,2
221,178,109626,1,2
259,311,109886,1,6
