osu file format v9

[General]
AudioFilename: beautifulday.mp3
AudioLeadIn: 0
PreviewTime: 98433
Countdown: 0
SampleSet: Soft
StackLeniency: 0.4
Mode: 1
LetterboxInBreaks: 1

[Editor]
Bookmarks: 99505
DistanceSpacing: 0.6
BeatDivisor: 4
GridSize: 8

[Metadata]
Title:Beautiful Day
Artist:BeautifulDay
Creator:Natteke
Version:lepidon! - Taiko Oni
Source:O2Jam
Tags:lepidopodus

[Difficulty]
HPDrainRate:5
CircleSize:5
OverallDifficulty:5
ApproachRate:5
SliderMultiplier:1.4
SliderTickRate:2

[Events]
//Background and Video events
0,0,"bg.jpg"
//Break Periods
//Storyboard Layer 0 (Background)
//Storyboard Layer 1 (Fail)
//Storyboard Layer 2 (Pass)
//Storyboard Layer 3 (Foreground)
//Storyboard Sound Samples
//Background Colour Transformations
3,100,163,162,255

[TimingPoints]
15511,428.571428571429,4,2,0,50,1,0
15612,-100,4,2,0,70,0,0
29112,-100,4,2,0,90,0,0
99505,-100,4,2,0,90,0,1
126939,-100,4,2,0,90,0,0

[Colours]
Combo1 : 17,254,176
Combo2 : 173,255,95
Combo3 : 255,88,100
Combo4 : 255,94,55

[HitObjects]
285,277,3510,1,0
285,277,3725,1,0
128,290,6939,1,0
128,290,7153,1,0
259,272,10368,1,0
259,272,10582,1,0
304,311,13796,1,0
304,311,14010,1,0
12,143,15725,5,0
48,163,15939,1,8
84,184,16153,1,0
120,205,16368,1,8
83,184,16582,1,8
119,204,16796,1,0
81,184,17010,1,8
12,143,17439,1,0
48,163,17653,1,8
84,184,17868,1,0
120,205,18082,1,8
83,184,18296,1,8
119,204,18510,1,0
81,184,18725,1,8
12,143,19153,1,0
48,163,19368,1,8
84,184,19582,1,0
120,205,19796,1,8
83,184,20011,1,8
119,204,20225,1,0
81,184,20439,1,8
12,143,20868,1,0
32,146,20975,1,0
48,163,21082,1,8
84,184,21296,1,0
120,205,21511,1,8
83,184,21725,1,0
119,204,21939,1,8
81,184,22153,1,8
116,160,22368,5,8
151,137,22582,1,8
187,158,22796,1,0
223,179,23011,1,0
293,224,23439,1,8
327,247,23653,1,8
362,270,23868,1,0
240,237,24511,1,0
199,226,24725,1,8
158,215,24939,1,8
117,203,25153,1,8
76,192,25368,1,0
35,181,25582,1,8
117,166,26011,1,0
137,162,26118,1,0
157,158,26225,1,8
198,151,26439,1,0
233,173,26653,1,8
268,196,26868,1,8
303,218,27082,1,0
337,241,27296,1,8
256,192,27511,12,0,29011
122,154,29225,5,4
132,216,29546,1,0
132,216,29653,1,8
132,216,29868,1,0
173,223,30082,1,0
193,226,30189,1,0
234,233,30403,1,0
254,236,30511,1,8
295,244,30725,1,0
274,207,30939,1,0
253,170,31153,1,0
231,133,31368,1,8
231,133,31582,1,0
256,166,31796,1,0
268,182,31903,1,0
293,215,32118,1,8
305,231,32225,1,0
330,264,32439,1,8
288,256,32653,1,0
225,244,32975,1,0
204,240,33082,1,8
162,232,33296,1,0
120,225,33511,1,0
99,221,33618,1,0
57,214,33832,1,0
57,214,33939,1,8
57,214,34153,1,0
96,198,34368,1,0
135,183,34582,1,0
174,168,34796,1,8
213,153,35011,1,0
242,183,35225,1,8
256,198,35332,1,0
285,228,35546,1,0
299,243,35653,1,8
328,273,35868,1,8
289,256,36082,5,0
249,243,36189,1,0
229,236,36403,1,0
208,229,36511,1,8
167,216,36725,1,0
126,203,36939,1,8
105,196,37046,1,0
64,183,37261,1,8
64,183,37368,1,0
101,164,37582,1,8
138,145,37796,1,0
176,127,38011,1,0
179,168,38225,1,8
182,209,38439,1,0
184,229,38653,1,0
184,229,38761,1,8
184,229,38975,1,0
184,229,39082,1,8
138,145,39296,1,0
66,213,39511,1,0
66,213,39725,1,0
66,213,39939,1,0
66,213,40153,1,0
106,224,40368,1,0
126,229,40475,1,0
146,235,40582,1,0
186,247,40796,1,0
206,253,40903,1,0
226,259,41011,1,0
267,263,41225,1,0
287,265,41332,1,0
307,267,41439,1,0
327,269,41546,1,0
327,269,41653,1,0
327,269,41868,1,0
306,264,41975,1,0
285,259,42082,1,0
264,254,42189,1,0
222,245,42296,1,0
179,241,42403,1,0
201,243,42511,1,0
122,154,42939,5,4
132,216,43260,1,0
132,216,43368,1,8
132,216,43582,1,0
173,223,43796,1,0
193,226,43903,1,0
234,233,44118,1,0
254,236,44225,1,8
295,244,44439,1,0
274,207,44653,1,0
253,170,44868,1,0
231,133,45082,1,8
231,133,45296,1,0
214,146,45403,1,0
256,166,45510,1,0
268,182,45618,1,0
293,215,45832,1,8
305,231,45939,1,0
330,264,46153,1,8
288,256,46368,1,0
225,244,46689,1,0
204,240,46796,1,8
162,232,47010,1,0
120,225,47225,1,0
99,221,47332,1,0
57,214,47546,1,0
57,214,47653,1,8
57,214,47868,1,0
96,198,48082,1,0
135,183,48296,1,0
174,168,48510,1,8
213,153,48725,1,0
285,228,48832,1,0
242,183,48939,1,8
256,198,49046,1,0
285,228,49260,1,0
299,243,49368,1,8
328,273,49582,1,8
289,256,49796,5,0
249,243,49903,1,0
229,236,50118,1,0
208,229,50225,1,8
167,216,50439,1,0
126,203,50653,1,8
105,196,50760,1,0
64,183,50975,1,8
64,183,51082,1,0
101,164,51296,1,8
138,145,51510,1,0
176,127,51725,1,0
179,168,51939,1,8
182,209,52153,1,0
199,220,52260,1,0
184,229,52368,1,0
184,229,52475,1,8
184,229,52689,1,0
184,229,52796,1,8
138,145,53010,1,8
179,154,53225,1,4
260,175,53653,1,4
229,297,54296,1,4
239,256,54510,1,4
163,218,54939,1,0
144,208,55046,1,0
125,198,55153,1,0
105,189,55260,1,0
86,180,55368,1,0
66,171,55475,1,0
66,171,55582,1,0
66,171,55689,1,0
66,171,55796,1,0
86,172,55903,1,0
107,173,56010,1,0
107,173,56118,1,0
107,173,56225,1,0
169,116,56653,5,4
162,157,56868,1,0
155,198,57082,1,8
148,239,57296,1,0
142,280,57510,1,0
142,280,57618,1,0
142,280,57725,1,0
142,280,57939,1,0
142,280,58046,1,0
142,280,58153,1,0
183,272,58368,1,0
224,264,58582,1,0
265,256,58796,1,8
306,249,59010,1,0
336,278,59225,1,0
351,292,59332,1,0
365,306,59439,1,8
394,335,59653,1,0
379,320,59760,1,8
379,320,59868,1,8
344,295,60082,1,0
309,270,60296,1,0
274,245,60510,1,8
239,220,60725,1,0
365,306,60939,1,0
365,306,61046,1,0
365,306,61153,1,0
365,306,61368,1,0
365,306,61475,1,0
365,306,61582,1,8
348,267,61796,1,0
331,228,62010,1,0
314,189,62225,1,8
272,190,62439,1,0
331,228,62653,1,0
331,228,62760,1,0
331,228,62868,1,0
331,228,63082,1,8
331,228,63189,1,8
331,228,63296,1,8
291,213,63510,5,0
251,198,63725,1,0
211,183,63939,1,8
184,150,64153,1,0
223,163,64368,1,0
242,169,64475,1,0
261,176,64582,1,8
300,190,64796,1,0
319,197,64903,1,0
338,203,65010,1,8
296,195,65225,1,0
254,187,65439,1,8
212,179,65653,1,8
170,171,65868,1,0
210,161,66082,1,0
230,156,66189,1,0
250,151,66296,1,8
291,142,66510,1,0
311,138,66618,1,8
331,134,66725,1,8
296,152,66939,1,8
280,160,67046,1,8
264,168,67153,1,0
224,184,67368,1,8
208,192,67475,1,8
192,200,67582,1,0
152,224,67796,1,8
136,232,67903,1,8
136,232,68010,1,0
136,232,68225,1,8
136,232,68332,1,8
136,232,68439,1,0
112,200,68653,1,0
80,168,68868,1,0
80,168,69082,1,0
80,168,69296,1,0
80,168,69510,1,0
80,168,69618,1,0
80,168,69725,1,0
80,168,69939,1,0
80,168,70046,1,0
80,168,70153,1,0
169,116,70368,5,4
162,157,70582,1,0
155,198,70796,1,8
148,239,71010,1,0
142,280,71225,1,0
142,280,71332,1,0
142,280,71439,1,0
142,280,71653,1,0
142,280,71760,1,0
142,280,71868,1,0
336,278,71975,1,8
183,272,72082,1,0
224,264,72296,1,0
265,256,72510,1,8
306,249,72725,1,0
336,278,72939,1,0
351,292,73046,1,0
365,306,73153,1,8
394,335,73368,1,0
379,320,73475,1,8
379,320,73582,1,8
351,292,73689,1,8
344,295,73796,1,0
309,270,74010,1,0
274,245,74225,1,8
239,220,74439,1,0
365,306,74653,1,0
365,306,74760,1,0
365,306,74868,1,0
365,306,75082,1,0
365,306,75189,1,0
365,306,75296,1,8
345,311,75403,1,8
348,267,75510,1,0
331,228,75725,1,0
314,189,75939,1,8
272,190,76153,1,0
331,228,76368,1,0
331,228,76475,1,0
331,228,76582,1,0
331,228,76796,1,8
331,228,76903,1,8
331,228,77010,1,8
324,247,77118,1,8
291,213,77225,5,0
251,198,77439,1,0
211,183,77653,1,8
184,150,77868,1,0
223,163,78082,1,0
242,169,78189,1,0
261,176,78296,1,8
300,190,78510,1,0
319,197,78618,1,0
338,203,78725,1,8
338,223,78832,1,8
296,195,78939,1,0
254,187,79153,1,8
212,179,79368,1,8
170,171,79582,1,0
210,161,79796,1,0
230,156,79903,1,0
250,151,80010,1,8
291,142,80225,1,0
311,138,80332,1,8
331,134,80439,1,8
331,154,80546,1,8
319,171,80653,1,0
297,207,80868,1,0
275,243,81082,1,0
275,243,81296,1,0
275,243,81510,1,0
275,243,81618,1,0
275,243,81725,1,0
275,243,81939,1,0
275,243,82046,1,0
275,243,82153,1,0
305,271,82368,1,0
320,285,82475,1,0
335,299,82582,1,0
350,313,82689,1,0
365,326,82796,1,0
365,326,82903,1,0
365,326,83010,1,0
365,326,83118,1,0
365,326,83225,1,0
365,326,83332,1,0
365,326,83439,1,0
365,326,83546,1,0
365,326,83653,1,0
297,275,84082,5,4
213,286,84510,1,8
213,286,84725,1,8
213,286,84939,1,8
213,286,85153,1,8
180,164,85796,1,8
208,265,86225,1,8
291,259,86653,1,8
374,253,86868,1,8
176,180,87939,1,8
136,165,88153,1,8
96,151,88368,1,8
96,151,88796,1,8
114,188,89010,1,8
232,144,89653,1,8
312,118,90082,1,8
232,144,90510,1,8
190,146,90725,1,8
169,147,90832,1,8
148,148,90939,5,0
144,189,91153,1,8
144,189,91368,1,0
144,189,91582,1,8
144,189,91796,1,0
144,189,92010,1,8
144,189,92225,1,0
144,189,92439,1,8
144,189,92653,1,0
170,156,92868,1,8
196,123,93082,1,0
223,90,93296,1,8
210,106,93403,1,8
210,106,93510,1,0
210,106,93725,1,8
210,106,93939,1,0
210,106,94153,1,8
192,112,94260,1,8
471,263,94368,1,0
450,258,94475,1,0
429,253,94582,1,8
388,243,94796,1,0
346,234,94903,1,0
346,234,95010,1,8
346,234,95225,1,0
346,234,95332,1,0
346,234,95439,1,8
346,234,95653,1,0
346,234,95760,1,0
346,234,95868,1,8
304,228,96082,1,0
283,225,96189,1,0
262,222,96296,1,0
220,217,96510,1,0
199,214,96618,1,0
178,212,96725,1,0
136,208,96939,1,0
136,208,97046,1,0
136,208,97153,1,0
136,208,97260,1,0
136,208,97368,1,0
136,208,97475,1,0
136,208,97582,1,0
136,208,97689,1,0
136,208,97796,1,0
122,154,99510,5,4
132,216,99832,1,0
132,216,99939,1,8
132,216,100153,1,0
128,232,100260,1,0
173,223,100368,1,0
193,226,100475,1,0
234,233,100689,1,0
254,236,100796,1,8
295,244,101010,1,0
274,207,101225,1,0
253,170,101439,1,0
231,133,101653,1,8
231,133,101868,1,0
248,152,101975,1,0
256,166,102082,1,0
268,182,102189,1,0
293,215,102403,1,8
305,231,102510,1,0
330,264,102725,1,8
288,256,102939,1,0
225,244,103260,1,0
204,240,103368,1,8
162,232,103582,1,0
184,240,103689,1,0
120,225,103796,1,0
99,221,103903,1,0
57,214,104118,1,0
57,214,104225,1,8
57,214,104439,1,0
96,198,104653,1,0
135,183,104868,1,0
174,168,105082,1,8
213,153,105296,1,0
232,168,105403,1,0
242,183,105510,1,8
256,198,105618,1,0
285,228,105832,1,0
299,243,105939,1,8
328,273,106153,1,8
289,256,106368,5,0
249,243,106475,1,0
229,236,106689,1,0
208,229,106796,1,8
167,216,107010,1,0
184,224,107118,1,0
126,203,107225,1,8
105,196,107332,1,0
64,183,107546,1,8
64,183,107653,1,0
101,164,107868,1,8
138,145,108082,1,0
176,127,108296,1,0
179,168,108510,1,8
182,209,108725,1,0
200,216,108832,1,0
184,229,108939,1,0
184,229,109046,1,8
184,229,109260,1,0
184,229,109368,1,8
138,145,109582,1,0
66,213,109796,1,0
88,224,109903,1,0
66,213,110010,1,0
66,213,110225,1,0
88,224,110332,1,0
66,213,110439,1,0
106,224,110653,1,0
126,229,110760,1,0
146,235,110868,1,0
168,240,110975,1,0
186,247,111082,1,0
206,253,111189,1,0
226,259,111296,1,0
267,263,111510,1,0
287,265,111618,1,0
307,267,111725,1,0
327,269,111832,1,0
327,269,111939,1,0
304,272,112046,1,0
327,269,112153,1,0
306,264,112260,1,0
285,259,112368,1,0
264,254,112475,1,0
222,245,112582,1,0
179,241,112689,1,0
201,243,112796,1,0
122,154,113225,5,4
132,216,113546,1,0
132,216,113653,1,8
132,216,113868,1,0
144,232,113975,1,0
173,223,114082,1,0
193,226,114189,1,0
234,233,114403,1,0
254,236,114510,1,8
295,244,114725,1,0
274,207,114939,1,0
253,170,115153,1,0
231,133,115368,1,8
231,133,115582,1,0
214,146,115689,1,0
256,166,115796,1,0
268,182,115903,1,0
293,215,116118,1,8
305,231,116225,1,0
312,248,116332,1,0
330,264,116439,1,8
288,256,116653,1,0
225,244,116975,1,0
204,240,117082,1,8
162,232,117296,1,0
288,256,117403,1,0
120,225,117510,1,0
99,221,117618,1,0
57,214,117832,1,0
57,214,117939,1,8
57,214,118153,1,0
96,198,118368,1,0
135,183,118582,1,0
174,168,118796,1,8
213,153,119010,1,0
285,228,119118,1,0
242,183,119225,1,8
256,198,119332,1,0
285,228,119546,1,0
299,243,119653,1,8
320,248,119760,1,8
328,273,119868,1,8
289,256,120082,5,0
249,243,120189,1,0
229,236,120403,1,0
208,229,120510,1,8
167,216,120725,1,0
160,232,120832,1,0
126,203,120939,1,8
105,196,121046,1,0
64,183,121260,1,8
64,183,121368,1,0
101,164,121582,1,8
138,145,121796,1,0
176,127,122010,1,0
179,168,122225,1,8
182,209,122439,1,0
199,220,122546,1,0
184,229,122653,1,0
184,229,122760,1,8
184,229,122975,1,0
184,229,123082,1,8
200,232,123189,1,8
138,145,123296,1,0
179,154,123510,1,4
260,175,123939,1,4
229,297,124582,1,4
239,256,124796,1,4
163,218,125225,1,0
144,208,125332,1,0
125,198,125439,1,0
105,189,125546,1,0
86,180,125653,1,0
66,171,125760,1,0
66,171,125868,1,0
66,171,125975,1,0
66,171,126082,1,0
86,172,126189,1,0
107,173,126296,1,0
107,173,126403,1,0
107,173,126510,1,0
168,112,126939,5,4
208,120,127153,1,0
248,136,127368,1,8
288,144,127582,1,0
320,176,127796,1,0
336,192,127903,1,0
352,208,128010,1,0
384,240,128225,1,0
400,256,128332,1,0
416,272,128439,1,8
376,256,128653,1,0
336,240,128868,1,0
296,224,129082,1,8
256,208,129296,1,0
248,168,129510,1,0
240,144,129618,1,0
232,120,129725,1,8
224,80,129939,1,0
224,80,130046,1,8
224,80,130153,1,8
256,112,130368,1,0
288,144,130582,1,8
320,176,130796,1,8
352,208,131010,1,0
312,200,131225,1,0
288,200,131332,1,0
264,200,131439,1,0
224,192,131653,1,0
200,192,131760,1,0
176,192,131868,1,8
216,168,132082,1,0
232,160,132189,1,8
248,152,132296,1,8
280,128,132510,1,8
296,120,132618,1,8
312,112,132725,1,8
320,152,132939,1,8
328,232,133368,1,8
320,192,133582,1,8
168,112,133796,5,0
208,120,134010,1,0
248,136,134225,1,8
288,144,134439,1,0
320,176,134653,1,0
336,192,134760,1,0
352,208,134868,1,0
384,240,135082,1,0
400,256,135189,1,0
416,272,135296,1,8
376,256,135510,1,0
336,240,135725,1,0
296,224,135939,1,8
256,208,136153,1,0
248,168,136368,1,0
240,144,136475,1,0
232,120,136582,1,8
224,80,136796,1,0
224,80,136903,1,8
224,80,137010,1,8
256,112,137225,1,0
288,144,137439,1,8
320,176,137653,1,8
352,208,137868,1,0
312,200,138082,1,0
288,200,138189,1,0
264,200,138296,1,0
224,192,138510,1,0
200,192,138618,1,0
176,192,138725,1,8
216,168,138939,1,0
232,160,139046,1,8
248,152,139153,1,8
280,128,139368,1,8
296,120,139475,1,8
312,112,139582,1,8
320,152,139796,1,8
328,232,140225,1,8
320,192,140439,1,8
280,176,140653,5,4
160,144,141296,1,4
40,104,141939,1,4
280,168,143225,1,12
360,192,143653,1,12
360,192,144082,1,4
232,216,144725,1,4
104,232,145368,1,4
80,64,146225,1,12
88,144,146653,1,12
168,160,147082,1,12
208,168,147296,1,12
248,176,147511,5,4
128,152,148153,1,4
8,120,148796,1,4
248,192,150082,1,12
328,216,150511,1,12
408,240,150939,1,4
288,216,151582,1,4
168,192,152225,1,4
304,288,153082,1,12
304,288,153511,1,12
304,288,153939,1,12
304,288,154153,1,12
272,256,154368,5,4
