osu file format v9

[General]
AudioFilename: beautifulday.mp3
AudioLeadIn: 0
PreviewTime: 98433
Countdown: 0
SampleSet: Soft
StackLeniency: 0.4
Mode: 0
LetterboxInBreaks: 1

[Editor]
Bookmarks: 99505
DistanceSpacing: 0.6
BeatDivisor: 4
GridSize: 8

[Metadata]
Title:Beautiful Day
Artist:BeautifulDay
Creator:Natteke
Version:Hard
Source:O2Jam
Tags:lepidopodus

[Difficulty]
HPDrainRate:7
CircleSize:4
OverallDifficulty:7
ApproachRate:8
SliderMultiplier:1.9
SliderTickRate:2

[Events]
//Background and Video events
0,0,"bg.jpg"
//Break Periods
//Storyboard Layer 0 (Background)
//Storyboard Layer 1 (Fail)
//Storyboard Layer 2 (Pass)
//Storyboard Layer 3 (Foreground)
//Storyboard Sound Samples
//Background Colour Transformations
3,100,163,162,255

[TimingPoints]
15511,428.571428571429,4,2,0,80,1,0
27403,-100,4,2,0,0,0,0
29112,-100,4,1,0,70,0,0
70362,-100,4,1,0,79,0,1
84076,-100,4,1,0,79,0,0
84183,-100,4,2,0,79,0,0
90826,-100,4,1,0,61,0,0
91040,-100,4,2,0,79,0,0
91254,-100,4,1,0,59,0,0
91468,-100,4,2,0,79,0,0
91682,-100,4,1,0,60,0,0
91896,-100,4,2,0,79,0,0
92110,-100,4,1,0,60,0,0
92324,-100,4,2,0,79,0,0
92538,-100,4,1,0,61,0,0
92752,-100,4,2,0,79,0,0
92966,-100,4,1,0,60,0,0
93180,-100,4,2,0,79,0,0
93394,-100,4,1,0,60,0,0
93608,-100,4,2,0,79,0,0
93822,-100,4,1,0,60,0,0
94036,-100,4,2,0,79,0,0
94250,-100,4,1,0,79,0,0
112261,-100,4,2,0,79,0,0
113219,-100,4,1,0,69,0,1
126939,-100,4,1,0,69,0,0
132840,-100,4,2,0,40,0,0
133689,-100,4,1,0,70,0,0
139698,-100,4,2,0,39,0,0
140555,-100,4,1,0,70,0,0
140769,-100,4,2,0,50,0,0
142269,-100,4,1,0,50,0,0
142483,-100,4,2,0,50,0,0
142697,-100,4,1,0,50,0,0
142911,-100,4,2,0,50,0,0
143125,-100,4,1,0,50,0,0
143339,-100,4,2,0,50,0,0
143553,-100,4,1,0,50,0,0
143767,-100,4,2,0,50,0,0
143983,-100,4,1,0,50,0,0
144197,-100,4,2,0,50,0,0
145269,-100,4,1,0,50,0,0
147626,-100,4,2,0,50,0,0
149126,-100,4,1,0,50,0,0
149340,-100,4,2,0,50,0,0
149554,-100,4,1,0,50,0,0
149768,-100,4,2,0,50,0,0
149982,-100,4,1,0,50,0,0
150196,-100,4,2,0,50,0,0
150410,-100,4,1,0,50,0,0
150624,-100,4,2,0,50,0,0
150838,-100,4,1,0,50,0,0

[Colours]
Combo1 : 17,254,176
Combo2 : 173,255,95
Combo3 : 255,88,100
Combo4 : 255,94,55

[HitObjects]
96,96,15725,5,0
184,80,15939,1,2
200,168,16153,1,0
112,184,16368,2,0,B|16:200,2,95,2|0|0
200,168,17010,1,2
416,288,17439,5,0
328,304,17653,1,2
312,216,17868,1,0
400,200,18082,2,0,B|496:184,2,95,2|0|0
312,216,18725,1,2
96,288,19153,5,0
184,304,19368,1,2
200,216,19582,1,0
112,200,19796,2,0,B|16:184,2,95,2|0|0
200,216,20439,1,2
416,96,20868,5,0
370,88,20975,1,0
328,80,21082,1,2
312,168,21296,1,0
400,184,21511,2,0,B|496:200,2,95,2|0|0
312,168,22153,1,2
376,272,22368,6,0,B|360:320|360:320|304:320,1,95,2|0
256,240,22796,1,0
196,320,23011,2,0,B|152:320|152:320|136:272,2,95,2|0|2
256,240,23653,1,2
200,168,23868,1,2
416,112,24511,5,0
336,72,24725,1,0
256,48,24939,1,2
176,72,25153,1,0
96,112,25368,1,0
256,168,25582,5,2
88,296,26011,5,0
80,272,26118,1,0
72,248,26225,1,2
88,136,26439,1,0
168,216,26653,1,2
168,104,26868,1,0
248,184,27082,1,0
256,72,27296,1,2
256,192,27511,12,0,29011
368,128,29225,6,0,B|376:240,1,95,4|0
280,288,29653,2,0,B|176:296,1,95,8|0
96,224,30082,2,0,B|80:24,2,190,0|8|0
208,208,31153,5,0
208,208,31261,1,0
208,208,31368,1,8
320,192,31582,1,0
320,192,31689,1,8
296,80,31903,1,8
296,80,32011,1,0
184,96,32225,1,8
184,96,32439,1,8
416,56,32653,6,0,B|504:128|432:224,1,190,0|8
320,240,33296,1,0
208,256,33511,2,0,B|0:288,2,190,0|8|0
184,144,34582,1,0
184,144,34796,2,0,B|160:88|192:48,1,95,8|0
304,64,35225,5,8
440,256,35439,1,0
440,256,35546,1,8
208,320,35761,1,0
208,320,35868,1,8
208,320,35975,1,8
208,320,36082,6,0,B|192:224,1,95
304,208,36511,2,0,B|408:184,1,95,8|0
171,58,36939,2,0,B|99:154|219:250,1,190,0|8
304,208,37582,1,0
304,208,37689,1,8
304,208,37796,5,0
384,128,38011,2,0,B|424:160|416:216,1,95,0|8
336,296,38439,1,0
336,296,38546,1,8
224,296,38761,1,8
208,280,38868,1,0
192,264,38975,1,0
176,248,39082,1,8
160,232,39189,1,0
144,216,39296,1,0
464,56,39511,6,0,B|368:48,1,95,4|0
48,160,39939,2,0,B|152:152,1,95
464,264,40368,2,0,B|360:256,1,95
48,360,40796,2,0,B|160:352,1,95
256,360,41225,5,0
248,336,41332,1,0
256,312,41439,1,0
264,288,41546,1,0
256,264,41653,5,0
248,240,41761,1,0
256,216,41868,1,0
264,192,41975,1,0
256,168,42082,5,0
248,144,42189,1,0
256,120,42296,1,0
264,96,42403,1,0
248,80,42511,2,0,B|240:40,7,23.75
272,40,42939,6,2,B|336:80|320:168,2,142.5
160,72,43796,2,2,B|40:72,1,95,2|2
64,152,44118,2,2,B|168:152,1,95,2|2
159,152,44439,1,2
159,152,44653,1,0
312,160,44868,6,2,B|344:208|312:256,2,95
232,208,45510,2,2,B|112:208,1,95,2|2
112,288,45832,2,2,B|216:288,1,95,2|2
224,312,46153,1,0
240,336,46260,1,0
256,360,46368,6,2,B|328:320|432:376,2,142.5
256,24,47225,2,2,B|184:64|80:8,2,142.5
424,192,48082,5,0
312,192,48296,1,2
200,192,48510,1,2
88,192,48725,1,0
88,192,48939,2,2,B|56:232|88:288,1,95,0|2
200,296,49368,1,0
440,64,49582,6,2,B|240:40,1,190
251,41,50225,1,8
64,192,50439,2,2,B|264:216,1,190
252,214,51082,1,8
368,232,51296,6,2,B|456:176|440:56,1,190
441,68,51939,1,8
144,152,52153,2,2,B|56:208|72:328,1,190
70,315,52796,1,8
184,312,53010,1,0
464,192,53225,5,4
48,192,53653,1,4
256,88,54296,5,4
256,296,54510,1,4
256,296,54939,5,4
144,192,55153,5,0
160,192,55260,1,0
176,192,55368,1,0
192,192,55475,1,0
208,192,55582,1,0
224,192,55689,1,0
240,192,55796,1,0
256,192,55903,1,0
272,192,56010,1,0
288,192,56118,1,0
304,192,56225,1,0
320,192,56332,1,0
336,192,56439,1,0
352,192,56546,1,0
368,192,56653,6,0,B|432:96|360:0,2,190,0|8|0
464,248,57725,1,0
288,112,57939,2,0,B|240:136|256:200,1,95,8|0
352,280,58368,6,0,B|152:280,2,190,0|8|0
376,168,59439,1,0
376,168,59546,1,0
376,168,59653,1,8
264,144,59868,1,0
232,256,60082,6,0,B|128:232,1,95
112,88,60510,2,0,B|64:120|80:176,1,95,8|0
264,144,60939,2,0,B|304:48|304:48|408:48,1,190,0|8
472,128,61582,6,0,B|368:128,1,95
472,208,62010,2,0,B|368:208,1,95,0|8
472,288,62439,2,0,B|368:288,1,95,0|8
260,279,62868,1,0
272,288,62975,2,8,B|312:240|264:176,1,95,8|0
272,184,63296,1,8
264,168,63403,1,8
256,152,63510,6,0,B|154:153,1,95
80,104,63939,2,0,B|48:152|80:200,1,95,8|0
168,64,64368,2,0,B|376:64,1,190,0|8
448,288,65010,6,0,B|424:328|424:328|368:328,1,95
136,328,65439,2,0,B|88:328|88:328|64:288,1,95,0|8
64,96,65868,2,0,B|88:56|88:56|144:56,1,95
375,56,66296,2,0,B|424:56|424:56|448:96,1,95,0|8
504,192,66725,1,0
392,192,66939,6,2,B|368:288,1,95,2|0
304,192,67368,2,2,B|264:96,1,95,10|0
216,192,67796,1,0
216,192,68010,2,2,B|192:288,1,95,2|10
128,192,68439,6,2,B|72:176|48:144|48:144|72:104|144:96,1,190
240,96,69082,1,0
336,248,69296,1,0
320,88,69510,1,0
336,112,69618,1,0
346,131,69725,1,0
357,151,69832,1,0
368,171,69939,1,0
440,248,70153,1,0
440,248,70260,1,0
440,248,70368,5,4
392,352,70582,1,0
280,352,70796,2,0,B|256:304|288:256,1,95,8|0
284,261,71225,1,2
32,256,71546,1,2
284,261,71868,1,2
72,136,72082,5,0
120,32,72296,1,0
232,32,72510,2,0,B|256:80|224:128,1,95,8|0
227,122,72939,1,2
480,128,73260,1,2
227,122,73582,1,2
448,208,73796,6,0,B|424:264|424:264|496:264,1,95
458,264,74225,1,8
344,264,74439,1,0
232,264,74653,1,2
72,336,74975,1,2
80,168,75296,1,2
136,272,75510,5,0
80,168,75725,2,0,B|80:120|80:120|112:88,1,95,0|8
432,216,76153,2,0,B|432:264|432:264|400:296,1,95,0|8
288,296,76582,1,8
256,184,76796,1,8
256,184,76903,1,8
256,72,77118,1,8
256,72,77225,6,0,B|168:16|48:80,1,190,0|8
48,176,77868,2,0,B|16:224|48:280,2,95
160,176,78510,2,0,B|192:224|160:280,1,95,8|0
392,264,79153,2,0,B|416:160,2,95,0|8|0
320,176,79796,1,0
248,264,80010,2,0,B|224:160,2,95,0|8|0
144,216,80653,1,0
40,264,80868,2,0,B|64:160,2,95,0|8|0
144,304,81510,5,0
168,304,81618,1,0
192,304,81725,1,0
216,304,81832,1,0
240,304,81939,1,0
264,304,82046,1,0
288,304,82153,1,0
312,304,82260,1,0
336,304,82368,5,0
344,280,82475,1,0
352,256,82582,1,0
360,232,82689,1,0
368,208,82796,1,0
376,184,82903,1,0
384,160,83010,1,0
392,136,83118,1,0
400,112,83225,2,0,B|416:48,8,47.5,0|0|0|0|0|0|0|0|4
168,104,84510,5,8
80,176,84725,2,0,B|80:328,2,142.5,0|0|8
168,248,85582,1,0
256,176,85796,5,0
328,192,86010,1,0
368,256,86225,1,8
328,320,86439,1,0
256,336,86653,1,0
184,320,86868,1,0
144,256,87082,1,8
184,192,87296,1,0
256,176,87510,5,0
144,56,87939,2,0,B|104:144,2,95,8|0|0
256,80,88582,1,0
368,56,88796,2,0,B|408:144,2,95,8|0|0
256,112,89439,1,0
144,128,89653,2,0,B|104:216,2,95,8|0|0
256,144,90296,1,0
368,128,90510,2,0,B|408:216,2,95,8|0|0
304,208,91153,6,0,B|352:312,1,95,2|0
200,192,91582,2,0,B|240:280,1,95,2|0
144,280,92010,2,0,B|192:384,1,95,2|0
32,240,92439,2,0,B|72:328,1,95,2|0
96,176,92868,6,0,B|48:72,1,95,2|0
200,192,93296,2,0,B|160:104,1,95,2|0
256,104,93725,2,0,B|208:0,1,95,2|0
368,144,94153,2,0,B|328:56,1,95,2|0
328,57,94582,5,0
183,57,94796,1,0
144,192,95010,5,0
368,192,95225,1,0
328,326,95439,5,0
183,326,95653,1,0
256,232,95868,5,0
368,192,96082,1,0
256,136,96296,1,0
144,192,96510,1,0
256,232,96725,5,0
368,192,96939,1,0
256,136,97153,1,0
144,192,97368,1,0
256,232,97582,1,0
256,232,97689,1,0
256,232,97796,1,0
88,120,99510,6,0,B|136:96|192:128,1,95,4|0
208,232,99939,2,0,B|251:257|299:233,1,95,8|0
328,216,100260,2,0,B|376:192|432:224,2,95
304,184,100796,2,0,B|256:160|213:185,1,95,8|0
96,192,101225,2,0,B|64:96,1,95
256,296,101653,2,0,B|160:328,1,95,8|0
416,192,102082,2,0,B|448:288,1,95
256,88,102510,2,0,B|352:56,1,95,8|0
256,192,102939,5,0
144,160,103153,1,0
256,192,103368,1,8
368,160,103582,1,0
392,184,103689,2,0,B|424:232|392:280,1,95
144,288,104118,1,0
120,264,104225,2,0,B|88:216|120:168,1,95,8|0
208,88,104653,6,0,B|112:72,1,95
304,88,105082,2,0,B|184:88,1,95,8|0
397,72,105510,2,0,B|304:88,1,95
256,192,105939,1,8
200,296,106153,6,0,B|128:296|88:200|152:136,1,190
137,154,106689,1,0
137,154,106796,1,8
312,88,107010,2,0,B|384:88|424:184|360:248,1,190
256,192,107653,1,8
137,154,107868,6,2,B|81:138|57:106|57:106|81:66|153:58,1,190
256,32,108510,1,8
374,60,108725,2,2,B|431:66|455:106|455:106|431:138|375:154,1,190
256,192,109368,1,8
256,192,109582,1,0
72,320,109796,6,0,B|32:224,2,95,0|0|8
96,168,110439,2,0,B|288:88,1,190
271,94,111082,1,8
376,144,111296,2,0,B|184:224,1,190
200,217,111939,1,8
256,320,112153,1,0
256,320,112368,6,2,B|328:232|160:136|280:16,1,285
256,48,113225,6,0,B|312:56|328:112,1,95,4|0
328,240,113653,2,0,B|272:232|256:176,1,95,8|0
144,112,114082,2,0,B|130:63|74:55,1,95,0|0
76,190,114510,2,0,B|89:238|145:246,1,95,8|0
144,246,114832,1,0
144,246,114939,1,0
216,360,115153,6,0,B|216:256,1,95,0|8
296,360,115582,2,0,B|296:256,1,95,0|8
256,136,116010,1,0
256,136,116118,1,8
200,48,116332,1,0
232,32,116439,1,8
272,32,116546,1,8
304,48,116653,5,0
376,128,116868,2,0,B|456:208,1,95,0|8
304,248,117296,2,0,B|296:152,1,95
136,128,117725,2,0,B|56:208,1,95,0|8
208,248,118153,2,0,B|215:153,1,95
200,352,118582,5,0
256,192,118796,1,8
304,352,119010,1,0
168,256,119225,1,0
336,256,119439,1,8
336,256,119653,1,8
336,256,119868,6,2,B|432:208|416:56,1,190
418,96,120510,1,8
176,128,120725,2,2,B|80:176|96:328,1,190
93,287,121368,1,8
93,287,121582,6,2,B|72:80,1,190
176,88,122225,1,8
418,96,122439,2,2,B|440:304,1,190
336,296,123082,1,8
336,296,123296,1,0
320,192,123510,6,2,B|216:200,1,95,6|0
304,88,123939,2,2,B|200:96,1,95,6|0
209,95,124368,1,0
56,216,124582,6,0,B|160:208,1,95,6|0
72,320,125010,2,0,B|176:312,1,95,6|0
272,304,125439,1,0
296,288,125546,1,0
320,272,125653,1,0
344,256,125760,1,0
368,240,125868,1,0
392,224,125975,1,0
416,208,126082,2,0,B|416:144,7,47.5
440,168,126939,6,0,B|360:88|224:160,2,190,4|8|0
408,288,128010,1,0
408,288,128118,1,0
408,288,128225,1,8
296,264,128439,1,0
184,232,128653,6,2,B|216:136,1,95
214,141,129082,1,8
88,200,129296,2,2,B|152:16,1,190
256,56,129939,1,8
360,104,130153,1,0
472,320,130368,6,0,B|384:288|264:320,1,190,0|8
284,314,131010,1,0
232,216,131225,2,0,B|248:160|232:112,2,95,0|0|8
144,144,131868,2,2,B|240:176|360:136,1,190
424,80,132510,1,10
424,192,132725,1,0
384,296,132939,2,2,B|336:352|224:304,2,142.5
384,296,133796,6,0,B|392:200,1,95
304,40,134225,2,0,B|296:136,1,95,8|0
200,280,134653,2,2,B|208:184,1,95
120,24,135082,1,8
120,24,135296,6,2,B|24:80|48:224,1,190
200,280,135939,1,8
200,280,136153,2,2,B|296:224|272:80,1,190
276,117,136796,2,0,B|360:72,1,95,8|0
472,104,137225,6,0,B|280:208,1,190,0|8
472,192,137868,2,0,B|384:240,1,95
472,280,138296,2,0,B|384:328,1,95,0|8
272,328,138725,2,2,B|184:328|184:256|64:256,1,190
64,152,139368,1,8
98,258,139582,1,0
152,160,139796,5,2
256,24,140118,1,2
360,160,140439,1,2
410,268,140653,6,0,B|354:268|330:316|330:316|306:268|226:268,1,190,4|2
338,188,141296,2,2,B|282:188|258:140|258:140|234:188|154:188,1,190
255,270,141939,2,0,B|199:270|175:318|175:318|151:270|71:270,1,190,2|0
100,271,142582,1,2
40,176,142796,1,0
96,80,143010,1,2
208,80,143225,5,0
264,176,143439,1,2
208,272,143653,1,0
152,176,143868,1,2
264,176,144082,6,0,B|320:136|336:112|336:112|336:0,1,190,0|2
432,24,144725,2,2,B|432:117|432:117|448:141|504:181,1,190,2|2
384,208,145368,5,0
128,208,145796,1,0
384,208,146225,1,0
128,208,146653,1,0
384,208,147082,1,0
328,304,147296,1,0
432,352,147511,6,0,B|528:280|464:144,1,190,4|2
336,88,148153,2,2,B|296:32|208:32|168:88,1,190
32,182,148796,2,0,B|-16:280|80:352,1,190,2|0
136,256,149439,2,0,B|136:144,1,95,2|0
216,256,149868,2,0,B|216:152,1,95,2|0
296,256,150296,2,0,B|296:152,1,95,2|0
376,256,150725,2,0,B|376:152,1,95,2|0
432,64,151153,6,0,B|384:32|328:64,1,95
72,64,151582,2,0,B|120:96|176:64,1,95
184,184,152011,2,0,B|120:272,1,95
328,184,152439,2,0,B|392:272,1,95
400,280,152761,5,0
376,296,152868,1,0
352,304,152975,1,0
320,304,153082,1,0
288,304,153189,1,0
256,296,153296,1,0
224,304,153403,1,0
192,304,153511,1,0
160,304,153618,1,0
136,296,153725,1,0
112,280,153832,2,0,B|80:240,4,47.5
