osu file format v9

[General]
AudioFilename: beautifulday.mp3
AudioLeadIn: 0
PreviewTime: 98433
Countdown: 0
SampleSet: Soft
StackLeniency: 0.4
Mode: 0
LetterboxInBreaks: 1

[Editor]
Bookmarks: 99505
DistanceSpacing: 1
BeatDivisor: 4
GridSize: 8

[Metadata]
Title:Beautiful Day
Artist:BeautifulDay
Creator:Natteke
Version:Boring
Source:O2Jam
Tags:lepidopodus

[Difficulty]
HPDrainRate:3
CircleSize:3
OverallDifficulty:3
ApproachRate:4
SliderMultiplier:1.3
SliderTickRate:1

[Events]
//Background and Video events
0,0,"bg.jpg"
//Break Periods
//Storyboard Layer 0 (Background)
//Storyboard Layer 1 (Fail)
//Storyboard Layer 2 (Pass)
//Storyboard Layer 3 (Foreground)
//Storyboard Sound Samples
//Background Colour Transformations
3,100,163,162,255

[TimingPoints]
15511,428.571428571429,4,2,0,49,1,0
27397,-100,4,2,0,0,0,0
29112,-100,4,1,0,70,0,0
70362,-100,4,1,0,79,0,1
84076,-100,4,1,0,79,0,0
84183,-100,4,2,0,60,0,0
90826,-100,4,1,0,61,0,0
91040,-100,4,2,0,79,0,0
91254,-100,4,1,0,59,0,0
91896,-100,4,2,0,79,0,0
92110,-100,4,1,0,60,0,0
92752,-100,4,2,0,79,0,0
92966,-100,4,1,0,60,0,0
93608,-100,4,2,0,79,0,0
93822,-100,4,1,0,60,0,0
94147,-200,4,1,0,60,0,0
98005,-100,4,1,0,60,0,0
113219,-100,4,1,0,69,0,1
126939,-100,4,1,0,69,0,0
132840,-100,4,2,0,40,0,0
133689,-100,4,1,0,70,0,0
139698,-100,4,2,0,39,0,0
140555,-100,4,1,0,70,0,0
140769,-100,4,2,0,50,0,0
142269,-100,4,1,0,50,0,0
142483,-100,4,2,0,50,0,0
142697,-100,4,1,0,50,0,0
142911,-100,4,2,0,50,0,0
143125,-100,4,1,0,50,0,0
143339,-100,4,2,0,50,0,0
143553,-100,4,1,0,50,0,0
143767,-100,4,2,0,50,0,0
143983,-100,4,1,0,50,0,0
144197,-100,4,2,0,50,0,0
145269,-100,4,1,0,50,0,0
147626,-100,4,2,0,50,0,0
149126,-100,4,1,0,50,0,0
149340,-100,4,2,0,50,0,0
149554,-100,4,1,0,50,0,0
149768,-100,4,2,0,50,0,0
149982,-100,4,1,0,50,0,0
150196,-100,4,2,0,50,0,0
150410,-100,4,1,0,50,0,0
150624,-100,4,2,0,50,0,0
150838,-100,4,2,0,0,0,0

[Colours]
Combo1 : 17,254,176
Combo2 : 173,255,95
Combo3 : 255,88,100
Combo4 : 255,94,55

[HitObjects]
80,80,15725,2,0,B|216:80,3,130,2|2|2|2
200,184,17439,2,0,B|108:275,3,130,2|2|2|2
312,183,19153,6,0,B|403:275,3,130,2|2|2|2
432,80,20868,2,0,B|302:80,3,130,2|2|2|2
384,184,22582,6,0,B|397:256|333:296,1,130,2|2
177,295,23439,2,0,B|114:256|128:184,1,130,2|2
160,56,24296,6,0,B|222:94|209:167,1,130,2|2
302,166,25153,2,0,B|289:94|352:56,1,130,2|2
424,160,26011,6,0,B|408:248|336:304|176:304|96:248|80:152,1,455,2|0
408,232,29225,5,4
320,328,29653,1,8
192,328,30082,1,0
104,232,30511,1,8
208,152,30939,6,0,B|208:88|208:88|176:72|176:24,1,130,0|8
335,33,31796,2,0,B|336:72|304:88|304:88|304:152,1,130,0|8
432,168,32653,5,0
376,288,33082,1,8
256,232,33511,1,0
136,288,33939,1,8
152,160,34368,6,0,B|120:88|200:40,1,130,0|8
256,48,35011,1,0
320,48,35225,2,0,B|388:88|356:160,1,130,0|8
200,232,36082,6,0,B|144:280|64:256|48:192|56:152,2,195,0|2|0
312,152,37796,2,0,B|368:104|448:128|464:192|456:232,2,195,0|2|0
256,272,39511,6,0,B|256:336,2,65,0|0|8
216,224,40153,2,0,B|136:200|128:48|232:8,1,260
292,13,41225,2,0,B|384:48|376:200|296:224,1,260
256,104,42511,1,0
160,192,42939,6,0,B|48:192,2,97.5,4|8|0
224,192,43796,1,0
288,304,44225,1,8
416,304,44653,1,0
488,192,45082,1,8
416,80,45510,1,0
288,80,45939,1,8
352,192,46368,6,0,B|464:192,2,97.5,0|8|0
288,192,47225,1,0
224,304,47653,1,8
96,304,48082,1,0
24,192,48510,1,8
96,80,48939,1,0
224,80,49368,1,8
160,192,49796,6,0,B|128:272|160:336|256:360|320:304,1,260,2|0
256,192,51082,1,8
352,192,51510,6,0,B|384:112|352:48|256:24|192:80,1,260,2|0
256,192,52796,1,8
128,192,53225,6,4,B|88:256|136:328,1,130
384,192,54296,2,4,B|408:160|376:112,1,65
256,192,54939,12,4,56653
64,96,57510,5,0
152,192,57939,1,8
160,88,58368,1,0
256,192,58796,1,8
256,88,59225,1,0
352,192,59653,1,8
352,88,60082,6,0,B|424:72|488:136|488:224|424:272,1,260
304,264,61368,1,8
176,264,61796,2,0,B|40:264,1,130,0|8
32,136,62653,2,0,B|24:64,2,65,0|0|8
160,136,63510,5,0
256,48,63939,1,8
352,136,64368,1,0
320,248,64796,1,8
192,248,65225,5,0
160,136,65653,1,8
256,48,66082,1,0
352,136,66510,1,8
320,248,66939,6,0,B|456:248,2,130,0|8|0
256,136,68225,1,8
192,248,68653,2,0,B|56:248,2,130,0|8|0
256,136,69939,2,0,B|256:64,2,65,8|0|4
128,136,70796,5,8
384,136,71653,1,8
128,232,72510,5,8
384,232,73368,1,8
256,264,73796,6,0,B|192:232|176:144,1,130,0|8
256,56,74653,2,0,B|320:88|336:176,1,130,0|8
200,168,75510,6,0,B|128:144|80:208,1,130,0|8
312,216,76368,2,0,B|384:240|432:176,1,130,0|8
432,48,77225,5,0
304,48,77653,1,8
256,168,78082,1,0
208,48,78510,1,8
80,48,78939,5,0
208,48,79368,1,8
256,168,79796,1,0
304,48,80225,1,8
432,48,80653,5,4
304,48,81082,2,4,B|207:110|219:234|326:319|439:285,1,390
256,192,82796,12,4,84082
160,136,84939,6,0,B|168:248,2,97.5,0|2|0
224,128,85796,2,0,B|328:120,2,97.5,0|2|0
224,192,86653,6,0,B|232:304,2,97.5,0|2|0
288,184,87510,2,0,B|424:176,2,130,0|2|0
272,56,88796,1,2
224,200,89225,6,0,B|88:208,2,130,0|2|0
240,328,90510,1,2
360,280,90939,6,0,B|384:192,2,65,0|2|0
280,136,91796,2,0,B|256:224,2,65,0|2|0
136,272,92653,6,0,B|160:184,2,65,0|2|0
56,128,93510,2,0,B|32:216,2,65,0|2|0
152,72,94368,6,0,B|192:72,3,32.5,0|0|0|0
120,128,95225,2,0,B|144:160,3,32.5
56,136,96082,2,0,B|56:176,3,32.5
80,72,96939,6,0,B|144:40|208:80,1,130
256,192,98225,12,4,99510
320,56,100368,1,0
408,152,100796,1,8
304,232,101225,6,0,B|304:296|304:296|336:312|336:360,1,130,0|8
177,351,102082,2,0,B|176:312|208:296|208:296|208:232,1,130,0|8
80,216,102939,5,0
136,96,103368,1,8
256,152,103796,1,0
376,96,104225,1,8
360,224,104653,6,0,B|392:296|312:344,1,130,0|8
256,336,105296,1,0
192,336,105510,2,0,B|124:296|156:224,1,130,0|8
312,152,106368,6,0,B|368:104|448:128|464:192|456:232,2,195,2|0|0
200,232,108082,2,0,B|144:280|64:256|48:192|56:152,2,195,2|0|0
256,112,109796,6,0,B|256:48,2,65,2|0|0
296,160,110439,2,0,B|376:184|384:336|280:376,1,260
220,371,111510,2,0,B|128:336|136:184|216:160,2,260,0|0|4
320,288,113653,6,0,B|392:328,2,65,8|0|0
312,160,114510,2,0,B|368:120,2,65,8|0|0
200,160,115368,2,0,B|144:120,2,65,8|0|0
192,288,116225,2,0,B|120:328,2,65,8|0|0
96,192,117082,6,0,B|32:192,2,65,8|0|0
184,96,117939,2,0,B|160:32,2,65,8|0|0
328,96,118796,2,0,B|352:32,2,65,8|0|0
416,192,119653,2,0,B|480:192,2,65,8|0|0
384,320,120510,5,8
256,320,120939,1,0
128,320,121368,1,8
184,200,121796,2,0,B|216:136|184:72|184:72,1,130,0|8
328,200,122653,2,0,B|296:136|328:72|328:72,1,130,0|8
440,136,123510,5,4
328,200,123939,1,4
464,336,124582,2,4,B|392:336,1,65
272,336,125225,1,4
256,192,125439,12,4,126939
88,104,127796,6,0,B|40:168|80:248,1,130,0|8
192,176,128653,2,0,B|216:32,3,130,0|8|0|8
344,55,130368,6,0,B|456:56|456:216|344:216,1,260
256,120,131653,1,8
167,167,132082,2,0,B|56:168|56:328|167:328,2,260,0|0|4
256,264,134225,6,0,B|272:336|352:344,1,130,8|0
368,216,135082,2,0,B|352:144|272:136,1,130,8|0
256,264,135939,6,0,B|240:336|160:344,1,130,8|0
144,216,136796,2,0,B|160:144|240:136,2,130,8|0|8
56,312,138082,2,0,B|0:264|16:192,1,130,0|8
80,80,138939,6,0,B|152:64|216:128|216:216|152:264,2,260
160,256,141296,1,2
352,256,141939,1,2
256,152,142368,6,0,B|256:64,7,65,0|2|0|2|0|2|0|2
256,152,144082,6,0,B|208:240|312:256|248:352,2,195,0|2|0
145,86,145796,6,0,B|184:32|256:8|328:32|366:91,1,260
256,160,147082,1,0
256,288,147511,5,4
152,120,148153,1,2
360,120,148796,1,2
256,200,149225,6,0,B|256:272,7,65,0|2|0|2|0|2|0|2
256,192,150939,12,0,154368
