osu file format v6

[General]
AudioFilename: 7.mp3
AudioLeadIn: 496
PreviewTime: 28677
Countdown: 1
SampleSet: Normal
StackLeniency: 0.7
Mode: 0
LetterboxInBreaks: 1

[Editor]
Bookmarks: 38069,116093,171328
DistanceSpacing: 1
BeatDivisor: 4
GridSize: 8

[Metadata]
Title:V3
Artist:Beautiful Day
Creator:ignorethis
Version:Normal
Source:O2Jam
Tags:O2Jam V3 Beautiful Day osu_cn_yaya

[Difficulty]
HPDrainRate:2
CircleSize:5
OverallDifficulty:5
SliderMultiplier:1
SliderTickRate:1

[Events]
//Background and Video events
0,0,"20050228134819v3.jpg"
//Break Periods
2,77386,82738
//Storyboard Layer 0 (Background)
//Storyboard Layer 1 (Fail)
//Storyboard Layer 2 (Pass)
//Storyboard Layer 3 (Foreground)
//Storyboard Sound Samples
//Background Colour Transformations
3,100,0,0,0

[TimingPoints]
2913,375.117224132541,4,1,0,100,1,0

[Colours]
Combo1 : 255,0,128
Combo2 : 5,240,5
Combo3 : 5,5,240
Combo4 : 240,5,5
Combo5 : 255,150,0

[HitObjects]
160,72,41362,5,0
208,72,41550,1,0
256,72,41737,1,0
304,72,41925,2,0,L|416:72,1,100
440,104,42487,1,0
400,136,42675,2,0,L|336:136,2,50
440,168,43238,1,0
392,192,43425,2,0,L|392:264,2,50
336,200,43988,5,0
280,200,44175,1,0
224,200,44363,1,0
168,200,44551,1,0
168,144,44738,1,0
168,88,44926,2,0,L|232:88,3,50
272,88,45676,1,4
384,88,46051,1,4
384,200,46426,2,4,L|384:296|264:296,1,200
168,296,47551,5,0
120,272,47739,1,0
168,248,47927,2,0,L|104:224|184:192,1,150
232,176,48677,2,0,L|296:152,1,50
328,136,49052,1,0
280,112,49239,1,0
232,136,49427,2,0,L|144:168|80:136,1,150
96,88,50177,1,0
200,64,50552,5,0
200,64,50740,1,0
200,64,50928,1,4
312,64,51303,1,0
312,64,51490,1,0
312,64,51678,1,4
424,64,52053,1,0
424,64,52240,1,0
424,64,52428,2,4,L|424:288,1,200
368,264,53366,5,0
312,264,53553,1,0
256,264,53741,1,0
200,264,53928,2,0,L|200:208,2,50
144,264,54491,1,0
88,264,54679,2,0,L|32:264,2,50
88,208,55241,1,0
88,152,55429,2,0,L|144:152,2,50
88,96,55992,5,0
88,40,56179,1,0
144,40,56367,1,0
200,40,56554,1,0
256,40,56742,1,0
296,72,56929,2,0,L|344:120,1,50
304,152,57304,2,0,L|256:200,1,50
216,192,57680,1,4
152,280,58055,1,4
264,280,58430,1,4
448,120,59555,5,0
400,88,59743,1,0
400,144,59930,2,0,L|304:144|304:208,1,150
304,256,60681,2,0,L|248:256,1,50
200,256,61056,1,0
152,224,61243,1,0
200,200,61431,2,0,L|200:64|224:64,1,150
272,64,62181,2,0,L|336:64,1,50
376,64,62556,5,0
424,96,62744,1,0
376,120,62931,2,0,L|376:192,1,50
352,216,63306,1,0
408,216,63494,1,0
376,256,63681,2,0,L|376:328,1,50
336,344,64057,1,0
336,288,64244,1,0
296,320,64432,1,0
192,64,65370,5,0
248,64,65557,1,0
304,64,65745,1,0
272,112,65932,2,0,L|208:128|216:184,1,100
232,216,66495,1,0
288,216,66682,2,0,L|344:216,3,50
392,216,67433,6,0,L|448:216|448:152,2,100
336,216,68370,1,0
336,160,68558,1,0
288,128,68746,1,0
232,128,68933,6,0,L|176:64|112:104,1,150
72,128,69683,2,0,L|72:240,3,100
184,232,71184,1,4
240,232,71371,2,0,B|240:264,2,25
296,232,71747,1,4
352,232,71934,6,0,L|352:168,2,50
408,232,72497,2,0,L|408:296,2,50
408,176,73059,2,0,L|408:112,1,50
408,72,73435,6,0,L|336:72,2,50
464,72,73997,2,0,L|464:144,2,50
408,72,74560,1,4
352,72,74747,1,4
296,72,74935,6,0,B|264:128|296:184,2,100
184,72,76060,1,0
72,72,76435,1,4
48,120,76623,1,4
72,168,76811,1,4
48,216,76998,1,4
72,264,77186,1,4
48,64,83938,6,0,B|128:48|208:72,1,150
248,72,84688,1,0
360,72,85063,1,0
472,72,85438,6,0,B|504:128|488:240,1,150
472,272,86189,1,0
392,344,86564,1,0
280,344,86939,5,4
224,344,87126,1,0
224,344,87314,1,0
168,344,87501,1,4
112,344,87689,1,0
112,344,87877,1,0
56,344,88064,1,4
56,288,88252,1,0
56,288,88439,1,0
56,232,88627,1,4
56,176,88814,1,0
56,176,89002,1,0
56,120,89189,2,4,B|128:120,1,50,6|4
160,120,89565,2,4,B|216:120,1,50,6|4
256,192,89940,12,4,92941
