osu file format v6

[General]
AudioFilename: 7.mp3
AudioLeadIn: 496
PreviewTime: 28677
Countdown: 1
SampleSet: Soft
StackLeniency: 0.7
Mode: 0
LetterboxInBreaks: 1

[Editor]
Bookmarks: 40424,45676,66307,93503
DistanceSpacing: 1.5
BeatDivisor: 4
GridSize: 8

[Metadata]
Title:V3
Artist:Beautiful Day
Creator:ignorethis
Version:Impossible
Source:O2Jam
Tags:O2Jam V3 Beautiful Day osu_cn_yaya

[Difficulty]
HPDrainRate:2
CircleSize:5
OverallDifficulty:8
SliderMultiplier:2
SliderTickRate:0.5

[Events]
//Background and Video events
0,0,"20050228134819v3.jpg"
//Break Periods
2,27120,29171
//Storyboard Layer 0 (Background)
//Storyboard Layer 1 (Fail)
//Storyboard Layer 2 (Pass)
//Storyboard Layer 3 (Foreground)
//Storyboard Sound Samples
//Background Colour Transformations
3,100,0,0,0

[TimingPoints]
2913,375.117224132541,4,2,0,100,1,0
29921,-100,4,1,0,100,0,0
77186,-50,4,1,0,100,0,0
77561,-100,4,1,0,100,0,0
104944,-100,4,2,0,100,0,0
116948,-100,4,1,0,100,0,0
134202,375.117224132541,4,1,0,100,1,0

[Colours]
Combo1 : 255,0,128
Combo2 : 5,240,5
Combo3 : 5,5,240
Combo4 : 240,5,5
Combo5 : 255,150,0

[HitObjects]
32,192,2912,1,0
480,192,4225,1,0
256,192,4413,1,2
32,192,5726,1,0
256,192,5913,1,2
256,56,6851,1,0
256,192,7039,1,2
256,328,7226,1,0
256,192,7414,6,0,B|368:192,1,100,0|2
256,56,7789,2,0,B|144:56,1,100,0|2
256,192,8164,2,0,B|360:192,1,100,0|2
256,328,8539,2,0,B|184:320|192:240,1,100,0|2
96,320,8914,5,4
208,40,9289,1,2
480,160,9665,1,0
176,144,10040,1,2
384,104,10415,2,0,B|448:200|392:296,1,200,0|2
256,192,10978,1,0
128,104,11165,2,0,B|64:200|120:296,1,200,0|2
320,312,11915,5,0
456,40,12290,1,2
160,96,12666,1,0
440,208,13041,1,2
256,344,13416,6,0,B|256:232,1,100,0|2
256,40,13791,6,0,B|256:152,1,100,0|2
104,192,14166,6,0,B|216:192,1,100,0|2
408,192,14541,6,0,B|296:192,1,100,0|2
312,288,14916,6,0,B|424:328|496:200,2,200,4|0|0
224,240,15854,1,0
144,184,16042,1,2
144,184,16417,1,0
72,120,16604,1,0
168,88,16792,1,0
144,184,16979,1,0
128,280,17167,1,2
224,240,17355,1,0
144,184,17542,1,0
224,240,17730,1,0
240,144,17917,6,0,B|336:72|440:152,3,200,0|0|2|0
336,192,19230,1,0
240,240,19418,2,0,B|336:312|440:232,3,200,0|0|2|0
336,192,20731,1,0
280,112,20918,6,0,B|56:112,1,200
136,304,21668,1,2
336,304,22043,2,0,B|472:280|400:152,2,200,0|0|2
160,128,23263,1,0
424,160,23919,1,2
256,192,24013,12,4,26920
256,48,29921,5,4
256,144,30108,1,0
232,184,30202,1,0
280,184,30296,1,8
256,280,30484,1,0
256,376,30671,1,0
72,56,30953,1,0
440,56,31234,1,0
256,376,31609,5,0
232,336,31703,1,0
280,336,31797,1,8
256,240,31984,1,0
256,136,32172,1,0
48,336,32453,1,0
464,336,32734,1,0
40,192,33109,5,0
88,192,33203,1,0
136,192,33297,1,8
160,96,33485,1,0
240,152,33672,2,0,B|288:64|392:88,2,150
144,192,34422,1,0
456,40,34797,1,6
456,344,35173,1,6
32,192,35548,1,0
72,160,35641,1,0
112,192,35735,1,0
72,224,35829,1,0
32,192,35923,1,4
32,88,36110,6,0,B|88:32,1,50
120,56,36298,2,0,B|240:56,1,100,8|0
320,56,36673,2,0,B|400:48|464:112,2,150
256,192,37423,1,4
192,328,37611,1,0
144,304,37705,1,0
120,256,37798,1,8
256,192,37986,1,0
320,56,38174,2,0,B|480:56,2,150
256,192,38924,1,4
192,56,39111,5,0
144,72,39205,1,0
96,88,39299,1,8
256,192,39486,1,0
96,280,39674,2,0,B|152:336|256:320,2,150
416,104,40424,2,0,B|360:48|256:64,2,150
256,192,41174,1,0
256,192,41362,5,0
392,328,41550,1,8
120,328,41737,1,0
256,192,41925,6,0,B|224:64|384:32,1,200,4|8
392,128,42487,1,0
472,64,42675,2,0,B|472:280,1,200,0|8
472,360,43238,1,0
384,312,43425,2,0,B|288:352|176:312,1,200,0|8
88,344,43988,1,0
48,312,44082,1,0
88,280,44175,5,0
56,184,44363,1,0
152,152,44551,1,8
184,248,44738,1,0
256,176,44926,2,0,B|312:280,1,100
208,264,45301,2,0,B|256:176,1,100,8|0
256,176,45676,1,4
48,48,46051,1,12
464,48,46426,2,4,C|512:80|464:104|512:136|464:160|512:192|464:216|512:240|464:264|512:288,1,500
416,328,47551,1,8
320,296,47739,1,0
224,328,47927,6,0,C|8:328,1,200,0|8
96,256,48489,1,0
152,176,48677,2,0,C|384:176,1,200,0|8
448,176,49239,1,0
408,80,49427,1,0
304,72,49615,1,0
296,168,49802,1,8
392,184,49990,1,0
408,80,50177,1,0
208,64,50365,1,0
184,264,50552,1,8
384,288,50740,1,0
408,80,50928,6,0,B|472:168|416:280,1,200,4|8
152,192,51490,1,0
343,271,51678,2,0,B|400:168|328:80,1,200,4|8
80,192,52240,1,0
255,80,52428,2,0,B|324:164|267:267,2,200,4|12|4
152,88,53366,5,0
56,120,53553,1,8
24,216,53741,1,0
56,312,53928,2,0,B|168:312,1,100
128,216,54304,1,8
156,312,54491,1,0
256,312,54679,2,0,B|384:312,1,100
312,216,55054,1,8
356,312,55241,1,0
424,240,55429,6,0,B|488:144,1,100
376,152,55804,1,8
479,156,55992,1,0
464,104,56085,1,0
448,56,56179,1,0
368,192,56367,1,0
256,56,56554,1,8
160,192,56742,1,0
64,56,56929,6,0,B|64:176,1,100
64,256,57304,2,0,B|64:156,1,100,8|0
64,256,57680,2,4,B|104:368|248:320,2,200,4|12|4
256,192,58617,5,0
296,168,58711,1,0
336,144,58805,1,8
256,192,58993,1,0
208,168,59086,1,0
160,144,59180,1,0
256,192,59368,1,0
256,240,59461,1,0
256,288,59555,1,8
344,336,59743,1,0
432,296,59930,6,0,B|488:184|456:88,1,200,0|8
256,192,60493,1,0
80,88,60681,2,0,B|24:200|56:296,1,200,0|8
256,192,61243,1,0
208,128,61431,2,0,B|256:96|312:128,1,100
304,256,61806,2,0,B|256:288|200:256,1,100,8|0
208,56,62181,2,0,B|256:24|312:56,1,100
304,328,62556,2,0,B|256:360|200:328,1,100,8|0
256,160,62931,5,4
232,192,63025,1,0
280,192,63119,1,0
400,56,63306,2,0,B|464:144,1,100,10|0
256,216,63681,1,4
232,192,63775,1,0
280,192,63869,1,0
112,328,64057,2,0,B|48:240,1,100,10|0
256,192,64432,5,4
256,192,64807,1,12
256,192,65182,1,4
256,80,65370,5,0
144,288,65557,5,8
368,288,65745,5,0
256,80,65932,6,0,B|144:96,1,100
256,304,66307,2,0,B|368:288,1,100,8|0
128,152,66682,2,0,B|80:256,1,100
384,232,67058,2,0,B|432:128,1,100,8|0
248,8,67433,6,0,B|136:24,1,100
96,192,67808,1,8
256,192,67995,1,0
400,192,68183,1,0
264,360,68370,2,0,B|376:344,2,100,0|8|0
256,192,68933,5,0
128,192,69121,2,0,B|16:192,1,100,0|8
392,192,69496,1,0
256,192,69683,1,0
384,192,69871,2,0,B|496:192,1,100,0|8
128,192,70246,1,0
168,96,70434,5,0
344,96,70621,1,0
344,288,70809,1,8
168,288,70996,1,0
184,192,71184,1,0
224,152,71278,1,0
256,120,71371,1,0
288,152,71465,1,0
328,192,71559,1,8
288,232,71653,1,0
256,264,71747,1,0
224,232,71840,1,0
184,192,71934,6,0,B|80:192,1,100,4|0
256,120,72309,2,0,B|256:8,1,100,8|0
328,192,72684,2,0,B|432:192,1,100
256,264,73059,2,0,B|256:376,1,100,8|0
137,65,73435,2,0,B|208:136,1,100
374,65,73810,2,0,B|304:136,1,100,8|0
374,318,74185,2,0,B|304:248,1,100
137,318,74560,2,0,B|208:248,1,100,8|0
256,192,74935,5,0
400,144,75123,2,0,B|432:192|400:256,1,100,0|8
256,128,75498,1,0
256,248,75685,1,0
112,144,75873,2,0,B|80:192|112:256,1,100,0|8
256,192,76248,1,0
352,192,76435,2,0,B|352:296,1,100
160,192,76811,2,0,B|160:296,1,100,8|0
448,64,77186,2,2,B|24:64,1,400,2|10
48,336,77936,5,4
152,344,78124,1,0
256,344,78311,1,0
464,336,78499,1,4
360,344,78686,1,0
256,344,78874,1,0
48,336,79061,1,4
256,344,79249,1,0
464,336,79436,1,0
32,232,79624,5,0
64,192,79718,1,0
96,232,79811,1,0
128,192,79905,1,0
160,232,79999,1,0
192,192,80093,1,0
224,232,80187,1,0
256,192,80280,1,0
288,232,80374,1,0
320,192,80468,1,0
352,232,80562,1,0
384,192,80656,1,0
416,232,80749,1,0
448,192,80843,1,0
480,232,80937,6,0,B|448:336,1,100,4|0
256,296,81312,1,0
32,232,81500,2,0,B|64:336,1,100,4|0
256,296,81875,1,0
480,232,82062,2,0,B|448:336,2,100,4|0|4
472,128,82625,5,0
440,88,82719,1,0
400,56,82812,1,0
352,40,82906,1,0
304,32,83000,1,0
256,24,83094,1,0
208,32,83188,1,0
160,40,83282,1,0
112,56,83376,1,0
72,88,83469,1,0
40,128,83563,1,0
16,168,83656,1,0
16,216,83750,1,0
24,264,83844,1,0
56,304,83938,6,0,B|176:304,1,100
256,264,84313,1,8
256,344,84500,1,0
456,304,84688,2,0,B|336:304,1,100
256,344,85063,1,8
256,264,85251,1,0
176,136,85438,6,0,B|176:240,1,100
256,264,85813,1,8
256,184,86001,1,0
336,136,86189,2,0,B|336:240,1,100
256,264,86564,1,8
256,184,86752,1,0
256,264,86939,5,4
96,88,87126,2,0,B|56:56,2,50,0|0|0
256,264,87501,1,4
416,88,87689,2,0,B|456:56,2,50
256,112,88064,1,4
96,296,88252,2,0,B|56:328,2,50
256,112,88627,1,4
416,296,88815,2,0,B|456:328,2,50,0|0|0
200,192,89189,1,4
312,192,89377,1,0
128,192,89565,1,4
384,192,89752,1,0
32,328,89940,6,0,B|152:328,1,100,4|0
184,328,90221,1,0
232,328,90315,1,0
480,328,90502,6,0,B|360:328,1,100,4|0
328,328,90783,1,0
280,328,90877,1,0
480,56,91065,6,0,B|360:56,1,100,4|0
328,56,91346,1,0
280,56,91440,1,0
32,56,91627,6,0,B|152:56,1,100,4|0
184,56,91908,1,0
232,56,92002,1,0
176,192,92190,5,0
336,192,92378,1,0
112,192,92566,1,0
400,192,92754,1,0
48,192,92941,6,0,B|-24:328|128:328,1,200,4|8
464,192,93503,2,0,B|536:56|384:56,1,200,0|0
256,192,94066,1,8
256,192,94254,1,0
64,88,94441,2,0,B|184:56,2,100,0|0|8
120,168,95004,2,0,B|328:104,1,200
384,40,95566,2,0,B|448:80|416:152,1,100,8|0
472,208,95942,5,0
392,344,96129,1,0
304,208,96317,1,8
256,296,96504,1,0
208,208,96692,1,0
120,344,96880,1,0
40,208,97067,1,8
40,208,97442,5,0
120,40,97630,1,0
208,208,97817,1,8
256,104,98005,1,0
279,158,98098,1,0
304,208,98192,1,0
392,40,98380,1,8
472,208,98568,1,8
304,320,98943,6,0,B|192:320,1,100
208,64,99318,2,0,B|320:64,1,100,8|0
304,256,99693,2,0,B|192:256,1,100
208,128,100068,2,0,B|328:128,1,100,8|0
208,192,100443,2,0,B|320:192,2,100,0|0|8
136,192,101006,1,0
64,192,101193,2,0,B|88:80,1,100
64,192,101568,2,0,B|96:304,1,100,8|0
136,192,101943,6,0,B|248:192,1,100
232,88,102319,2,0,B|344:88,1,100,8|0
384,88,102600,2,0,B|400:160|360:208,1,100
360,232,102881,2,0,B|424:280|472:264,2,100,0|8|0
296,312,103444,2,0,B|176:312,1,100
176,264,103725,2,0,B|96:280|72:320,1,100
56,264,104007,2,0,B|80:208|48:160,2,100
136,200,104569,1,0
176,176,104663,1,0
216,152,104757,1,0
256,176,104851,1,0
296,200,104944,5,4
424,144,105132,2,0,B|464:48,1,100,0|2
424,240,105507,2,0,B|464:336,1,100,0|2
424,192,105882,1,0
256,192,106070,1,2
88,192,106257,1,0
88,192,106445,1,2
88,144,106632,2,0,B|48:48,1,100,0|2
88,240,107007,2,0,B|48:336,1,100,0|2
216,192,107383,1,0
256,152,107476,1,0
296,192,107570,1,2
280,240,107664,1,2
232,240,107758,1,2
344,64,107945,6,0,B|464:64,1,100,0|2
448,192,108320,2,0,B|328:192,1,100,0|2
344,320,108696,2,0,B|464:320,2,100,0|2|0
256,320,109258,1,2
168,320,109446,2,0,B|48:320,2,100,0|2|0
64,192,110008,2,0,B|164:192,1,100,0|2
168,64,110383,2,0,B|68:64,2,100,0|2|0
256,32,110946,5,0
256,80,111040,1,0
256,128,111134,1,0
256,176,111228,1,0
256,224,111321,2,2,B|256:344,1,100,2|2
304,344,111603,2,0,B|360:280|328:208,1,100,0|2
352,208,111884,2,0,B|416:248|472:200,1,100,0|2
432,120,112259,1,2
368,40,112447,5,0
320,48,112541,1,0
272,64,112634,1,0
224,80,112728,1,0
176,96,112822,1,2
88,144,113009,2,0,B|56:216|72:264,1,100,0|2
120,240,113291,2,0,B|184:232|224:280,1,100,0|2
208,216,113572,2,0,B|232:160|296:144,1,100,0|2
336,72,113947,5,0
424,112,114135,1,0
384,200,114322,1,2
288,160,114510,1,0
336,72,114697,1,0
496,152,114885,1,0
400,328,115073,1,2
224,232,115260,1,0
336,72,115448,5,2
288,64,115541,1,0
240,72,115635,1,0
192,64,115729,1,0
144,72,115823,5,2
96,64,115917,1,0
48,72,116010,1,0
48,120,116104,1,0
48,168,116198,5,2
32,216,116292,1,0
48,264,116385,1,0
40,312,116479,1,0
88,312,116573,5,2
136,328,116667,1,0
184,312,116761,1,0
232,304,116854,1,0
280,320,116948,6,0,B|400:320,1,100
432,240,117323,1,0
376,160,117511,1,0
432,80,117698,1,0
376,160,117886,1,0
432,240,118073,2,0,B|216:240,1,200
144,184,118636,1,0
232,136,118824,1,0
320,88,119011,1,0
352,120,119105,1,0
320,160,119199,1,0
288,200,119293,1,0
320,232,119386,1,0
256,312,119574,1,0
192,232,119762,1,0
256,128,119949,5,0
56,192,120137,1,0
56,192,120230,1,0
56,192,120324,1,0
256,192,120512,1,0
256,256,120699,5,0
456,192,120887,1,0
456,192,120980,1,0
456,192,121074,1,0
256,192,121262,1,0
256,128,121450,5,0
208,40,121637,1,0
256,40,121731,1,0
304,40,121825,1,0
376,104,122012,1,0
376,200,122200,1,0
312,272,122387,1,0
264,272,122481,1,0
224,296,122575,1,0
176,272,122669,1,0
128,272,122762,1,0
64,192,122950,5,0
176,272,123138,1,0
256,192,123325,1,0
336,112,123513,1,0
432,192,123700,1,0
432,192,124075,5,0
336,192,124263,1,0
288,168,124357,1,0
248,144,124450,1,0
160,192,124638,1,0
56,192,124826,1,0
120,264,125013,1,0
160,192,125201,1,0
224,264,125388,1,0
296,192,125576,2,0,B|352:192,1,50
344,144,125763,2,0,B|280:144,1,50
296,96,125951,2,0,B|440:96|464:232,1,200
456,344,126701,5,0
256,344,126888,1,0
56,344,127076,1,0
56,40,127451,1,0
256,40,127638,1,0
456,40,127827,1,0
256,192,128014,5,0
256,192,128108,1,0
256,192,128202,1,0
184,144,128389,2,0,B|152:192|192:240,1,100
328,144,128764,2,0,B|360:192|320:240,1,100
112,144,129139,2,0,B|80:192|120:240,1,100
400,144,129514,2,0,B|432:192|392:240,1,100
256,192,129890,2,0,B|256:296,2,100
256,32,130452,5,4
256,80,130546,1,0
256,128,130640,1,0
256,224,130827,1,0
80,200,131015,1,4
112,240,131109,1,0
144,272,131203,1,0
256,344,131390,1,0
368,272,131578,1,4
400,240,131672,1,0
432,200,131766,1,0
256,192,131953,12,4,133266
40,192,133641,5,0
136,184,133828,1,0
232,192,134016,1,0
264,96,134202,6,0,B|480:96,1,200,4|8
472,192,134764,1,0
464,288,134952,2,0,B|256:288,1,200,0|8
248,192,135514,1,0
192,104,135702,2,0,B|136:208|192:304,1,200,0|8
88,288,136265,1,0
56,248,136358,1,0
88,208,136452,1,0
88,104,136640,1,0
176,64,136827,1,8
264,104,137015,1,0
352,64,137202,5,0
464,192,137390,1,0
368,328,137578,1,8
464,192,137765,1,0
336,192,137953,2,4,B|128:192,2,200,4|12|4
256,80,138890,2,0,B|256:16,2,50,0|0|8
256,304,139266,2,0,B|256:368,2,50
256,192,139641,1,0
128,80,139828,1,8
384,80,140016,1,0
128,112,140203,6,0,B|128:232,1,100
256,72,140578,2,0,B|256:296,1,200,8|0
384,112,141141,2,0,B|384:232,2,100,0|8|0
384,212,141704,1,0
384,112,141891,1,0
256,72,142079,2,0,B|256:296,1,200,8|0
128,112,142642,2,0,B|128:232,2,100,0|8|0
256,72,143204,5,0
176,312,143579,1,8
344,312,143767,1,0
256,312,143955,2,0,B|256:96,1,200,0|8
256,112,144517,1,0
120,192,144705,5,0
392,192,145080,1,8
256,32,145455,1,0
256,32,145549,1,0
256,128,145736,1,0
256,128,145830,1,8
256,224,146018,1,0
152,304,146205,6,0,B|368:304,1,200,0|8
256,32,146768,1,0
352,232,146955,2,0,B|144:232,1,200,0|8
256,32,147518,1,0
152,304,147706,2,0,B|360:304,1,200,0|8
448,288,148268,1,0
472,240,148362,1,0
448,192,148456,1,0
256,192,148644,1,0
64,192,148831,1,8
256,192,149019,1,0
448,192,149206,6,0,B|400:152|352:192,1,100
272,240,149581,2,0,B|216:264|160:232,1,100,8|0
80,200,149956,2,4,B|48:120|128:40|176:32,2,200,4|12|4
256,40,150894,1,0
256,88,150988,1,0
256,136,151082,1,8
256,344,151269,1,0
256,296,151363,1,0
256,248,151457,1,0
104,192,151644,1,0
152,192,151738,1,0
200,192,151832,1,8
400,264,152020,1,0
352,264,152113,1,0
304,264,152207,6,0,B|208:320|96:256,1,200,0|8
56,344,152770,1,0
112,191,152957,2,0,B|208:247|304:191,1,200,0|8
376,264,153520,1,0
456,208,153708,6,0,B|483:111,1,100
385,133,154083,2,0,B|483:110,1,100,8|0
385,133,154458,2,0,B|256:96|224:224,1,200,0|8
312,224,155021,1,0
400,264,155208,5,0
256,336,155396,1,0
256,288,155489,1,0
256,240,155583,1,8
112,264,155771,1,0
400,264,155958,1,0
256,336,156146,1,0
256,288,156240,1,0
256,240,156333,1,8
112,264,156521,1,0
256,104,156709,2,0,B|256:224,1,100
64,48,157084,6,2,B|64:272,1,200,10|2
256,192,157646,1,0
448,48,157834,2,2,B|448:272,1,200,10|2
256,40,158397,5,0
120,112,158584,1,8
120,264,158772,1,0
256,328,158959,1,0
392,264,159147,1,0
392,112,159334,1,8
256,152,159522,2,0,B|256:252,2,100,0|0|0
96,320,160085,6,2,B|96:104,1,200,10|2
256,200,160647,1,0
416,320,160835,2,2,B|416:104,1,200,10|2
256,40,161397,5,0
392,112,161584,1,8
392,264,161772,1,0
256,328,161959,1,0
120,264,162147,1,0
120,112,162334,1,8
256,152,162522,2,0,B|256:252,2,100,0|0|0
152,112,163086,5,8
104,136,163179,1,0
152,152,163273,1,0
200,136,163367,1,0
152,112,163461,2,0,B|152:320,1,200,0|8
256,336,164023,1,0
256,264,164211,5,0
256,120,164586,1,8
256,264,164961,1,0
256,120,165336,1,8
256,264,165711,1,0
256,264,166086,1,8
256,120,166274,1,0
256,264,166462,1,0
256,120,166649,1,0
256,264,166837,1,8
256,120,167024,1,0
256,264,167212,5,0
304,248,167306,1,0
336,224,167400,1,0
360,192,167494,1,0
336,160,167587,1,0
304,136,167681,1,0
256,120,167775,1,0
208,136,167868,1,0
176,160,167962,1,0
160,192,168056,1,0
176,224,168150,1,0
208,248,168243,1,0
256,264,168337,1,0
304,248,168431,1,0
336,224,168525,1,0
360,192,168619,1,0
336,160,168712,1,0
256,192,168806,12,4,170963
